osu file format v14

[General]
AudioFilename: audio.mp3
AudioLeadIn: 0
PreviewTime: -1
Countdown: 0
SampleSet: None
StackLeniency: 0.4
Mode: 0
LetterboxInBreaks: 0
WidescreenStoryboard: 1

[Editor]
Bookmarks: 34609,100415
DistanceSpacing: 1.3
BeatDivisor: 4
GridSize: 8
TimelineZoom: 1.9

[Metadata]
Title:Surf
TitleUnicode:Surf
Artist:Hyper Potions
ArtistUnicode:Hyper Potions
Creator:Tacto
Version:Hard
Source:
Tags:
BeatmapID:2278551
BeatmapSetID:579538

[Difficulty]
HPDrainRate:5
CircleSize:3.4
OverallDifficulty:7
ApproachRate:8
SliderMultiplier:1.8
SliderTickRate:1

[Events]
//Background and Video events
0,0,"background.jpg",0,0
//Break Periods
//Storyboard Layer 0 (Background)
//Storyboard Layer 1 (Fail)
//Storyboard Layer 2 (Pass)
//Storyboard Layer 3 (Foreground)
//Storyboard Layer 4 (Overlay)
//Storyboard Sound Samples

[TimingPoints]
932,387.096774193548,4,2,0,49,1,0
38093,-71.4285714285714,4,2,0,49,0,1
62867,-100,4,2,0,49,0,0
87641,-100,4,2,0,49,0,0
112415,-100,4,2,0,49,0,0
124802,-100,4,2,0,49,0,0
137190,-100,4,2,0,49,0,0
161964,-71.4285714285714,4,2,0,49,0,1
186738,-100,4,2,0,49,0,0
211512,-100,4,2,0,49,0,0

[HitObjects]
274,252,931,6,0,P|313:263|372:250,2,90
209,154,1512,2,0,P|199:114|158:70,2,90
156,259,2093,2,0,P|126:287|108:344,2,90
192,335,2673,1,0,0:0:0:0:
24,332,2867,1,0,0:0:0:0:
106,200,3061,2,0,B|137:143|69:96|101:21,1,180
209,79,3641,2,0,P|265:91|304:73,1,90
426,197,4028,6,0,P|370:185|331:203,2,90
250,335,4609,2,0,P|288:292|292:249,2,90
219,113,5190,2,0,P|236:167|271:192,2,90
306,115,5770,1,0,0:0:0:0:
336,218,5964,1,0,0:0:0:0:
241,269,6157,2,0,P|156:296|74:264,1,180
122,123,6738,2,0,P|160:102|207:97,1,90
276,201,7125,6,0,P|238:180|191:175,2,90
330,274,7706,2,0,P|330:317|349:360,2,90
368,193,8286,2,0,P|405:170|433:132,2,90
236,173,8867,1,0,0:0:0:0:
312,123,9061,1,0,0:0:0:0:
271,257,9254,2,0,P|230:272|99:236,1,180
197,105,9835,2,0,P|203:161|187:205,1,90
44,103,10222,6,0,P|85:75|145:71,1,90
211,75,10609,1,0,0:0:0:0:
269,154,10802,2,0,P|310:182|370:186,1,90
439,212,11190,1,0,0:0:0:0:
388,287,11383,2,0,P|347:315|287:319,1,90
218,295,11770,5,0,0:0:0:0:
269,223,11964,2,0,P|310:195|370:191,1,90
430,236,12351,1,0,0:0:0:0:
337,314,12544,2,0,L|247:352,1,90
58,306,12931,2,0,L|148:268,1,90
202,213,13319,5,0,0:0:0:0:
152,142,13512,1,0,0:0:0:0:
82,195,13706,1,0,0:0:0:0:
140,270,13899,2,0,P|212:311|316:305,1,180
274,147,14480,2,0,P|253:187|257:235,1,90
366,236,14867,1,0,0:0:0:0:
427,136,15061,1,0,0:0:0:0:
346,51,15254,1,0,0:0:0:0:
230,72,15448,2,0,P|182:117|188:258,1,180
366,230,16028,2,0,P|317:201|257:198,1,90
211,287,16415,5,0,0:0:0:0:
325,314,16609,1,0,0:0:0:0:
437,284,16802,1,0,0:0:0:0:
409,170,16996,2,0,P|360:141|252:179,1,180
136,198,17577,2,0,P|148:241|180:273,1,90
186,112,17964,6,0,P|127:96|85:117,1,90
73,283,18351,1,0,0:0:0:0:
73,283,18544,2,0,P|127:300|197:291,1,90
262,246,18931,1,0,0:0:0:0:
262,246,19125,2,0,P|328:243|357:254,1,90
