osu file format v14

[General]
AudioFilename: audio.mp3
AudioLeadIn: 0
PreviewTime: 107638
Countdown: 0
SampleSet: Soft
StackLeniency: 0.4
Mode: 0
LetterboxInBreaks: 0
WidescreenStoryboard: 1

[Editor]
Bookmarks: 13304,22638,33304,43971,54638,65304,77304,86638,97304,107971,118638,130638,139971,150638,155971,159971
DistanceSpacing: 1
BeatDivisor: 4
GridSize: 4
TimelineZoom: 1

[Metadata]
Title:Ski
TitleUnicode:Ski
Artist:Hyper Potions
ArtistUnicode:Hyper Potions
Creator:-Sylvari
Version:Normal
Source:
Tags:Electronic Instrumental mpg fa Mappers' Guild Featured Artist Niva
BeatmapID:2485256
BeatmapSetID:1192671

[Difficulty]
HPDrainRate:4
CircleSize:3
OverallDifficulty:5
ApproachRate:5
SliderMultiplier:1
SliderTickRate:1

[Events]
//Background and Video events
0,0,"bg.jpg",0,0
//Break Periods
2,86838,96104
//Storyboard Layer 0 (Background)
//Storyboard Layer 1 (Fail)
//Storyboard Layer 2 (Pass)
//Storyboard Layer 3 (Foreground)
//Storyboard Layer 4 (Overlay)
//Storyboard Sound Samples

[TimingPoints]
1305,333.333333333333,4,2,0,65,1,0
8638,-100,4,2,1,65,0,0
9304,-100,4,2,0,65,0,0
22638,-100,4,2,0,80,0,0
27888,-100,4,2,0,5,0,0
27971,-100,4,2,0,80,0,0
33304,-100,4,2,0,90,0,1
34054,-100,4,2,0,5,0,1
34138,-100,4,2,0,90,0,1
37554,-100,4,2,0,5,0,1
37638,-100,4,2,0,90,0,1
37888,-100,4,2,0,5,0,1
37971,-100,4,2,0,90,0,1
38054,-100,4,2,0,5,0,1
38138,-100,4,2,0,90,0,1
38221,-100,4,2,0,5,0,1
38304,-100,4,2,0,90,0,1
38388,-100,4,2,0,5,0,1
38471,-100,4,2,0,90,0,1
39388,-100,4,2,0,5,0,1
39471,-100,4,2,0,90,0,1
43221,-100,4,2,0,5,0,1
43304,-100,4,2,0,90,0,1
43388,-100,4,2,0,5,0,1
43471,-100,4,2,0,90,0,1
43554,-100,4,2,0,5,0,1
43638,-100,4,2,0,90,0,1
44721,-100,4,2,0,5,0,1
44804,-100,4,2,0,90,0,1
48221,-100,4,2,0,5,0,1
48304,-100,4,2,0,90,0,1
48721,-100,4,2,0,5,0,1
48804,-100,4,2,0,90,0,1
48888,-100,4,2,0,5,0,1
48971,-100,4,2,0,90,0,1
49054,-100,4,2,0,5,0,1
49138,-100,4,2,0,90,0,1
50054,-100,4,2,0,5,0,1
50138,-100,4,2,0,90,0,1
53888,-100,4,2,0,5,0,1
53971,-100,4,2,0,90,0,1
54054,-100,4,2,0,5,0,1
54138,-100,4,2,0,90,0,1
54221,-100,4,2,0,5,0,1
54304,-100,4,2,0,90,0,1
54388,-100,4,2,0,5,0,1
54471,-100,4,2,0,90,0,1
54554,-100,4,2,0,5,0,1
54638,-100,4,2,0,100,0,1
56554,-100,4,2,0,5,0,1
56638,-100,4,2,0,100,0,1
58221,-100,4,2,0,5,0,1
58304,-100,4,2,0,100,0,1
59721,-100,4,2,0,5,0,1
59804,-100,4,2,0,100,0,1
59888,-100,4,2,0,5,0,1
59971,-100,4,2,0,100,0,1
60888,-100,4,2,0,5,0,1
60971,-100,4,2,0,100,0,1
63554,-100,4,2,0,5,0,1
63638,-100,4,2,0,100,0,1
64888,-100,4,2,0,5,0,1
64971,-100,4,2,0,100,0,1
65054,-100,4,2,0,5,0,1
65138,-100,4,2,0,100,0,1
65221,-100,4,2,0,5,0,1
65304,-100,4,2,0,65,0,0
97304,-100,4,2,0,80,0,0
102554,-100,4,2,0,5,0,0
102638,-100,4,2,0,80,0,0
107971,-100,4,2,0,90,0,1
108721,-100,4,2,0,5,0,1
108804,-100,4,2,0,90,0,1
112221,-100,4,2,0,5,0,1
112304,-100,4,2,0,90,0,1
112554,-100,4,2,0,5,0,1
112638,-100,4,2,0,90,0,1
112721,-100,4,2,0,5,0,1
112804,-100,4,2,0,90,0,1
112888,-100,4,2,0,5,0,1
112971,-100,4,2,0,90,0,1
113054,-100,4,2,0,5,0,1
113138,-100,4,2,0,90,0,1
114054,-100,4,2,0,5,0,1
114138,-100,4,2,0,90,0,1
117888,-100,4,2,0,5,0,1
117971,-100,4,2,0,90,0,1
118054,-100,4,2,0,5,0,1
118138,-100,4,2,0,90,0,1
118221,-100,4,2,0,5,0,1
118304,-100,4,2,0,90,0,1
119388,-100,4,2,0,5,0,1
119471,-100,4,2,0,90,0,1
122888,-100,4,2,0,5,0,1
122971,-100,4,2,0,90,0,1
123388,-100,4,2,0,5,0,1
123471,-100,4,2,0,90,0,1
123554,-100,4,2,0,5,0,1
123638,-100,4,2,0,90,0,1
123721,-100,4,2,0,5,0,1
123804,-100,4,2,0,90,0,1
124721,-100,4,2,0,5,0,1
124804,-100,4,2,0,90,0,1
128554,-100,4,2,0,5,0,1
128638,-100,4,2,0,90,0,1
128721,-100,4,2,0,5,0,1
128804,-100,4,2,0,90,0,1
128888,-100,4,2,0,5,0,1
128971,-100,4,2,0,90,0,1
129054,-100,4,2,0,5,0,1
129138,-100,4,2,0,90,0,1
129221,-100,4,2,0,5,0,1
129304,-100,4,2,0,90,0,1
130638,-100,4,2,0,100,0,1
131221,-100,4,2,0,5,0,1
131304,-100,4,2,0,100,0,1
132888,-100,4,2,0,5,0,1
132971,-100,4,2,0,100,0,1
134388,-100,4,2,0,5,0,1
134471,-100,4,2,0,100,0,1
134554,-100,4,2,0,5,0,1
134638,-100,4,2,0,100,0,1
135554,-100,4,2,0,5,0,1
135638,-100,4,2,0,100,0,1
138221,-100,4,2,0,5,0,1
138304,-100,4,2,0,100,0,1
139721,-100,4,2,0,5,0,1
139804,-100,4,2,0,100,0,1
139888,-100,4,2,0,5,0,1
139971,-100,4,2,0,80,0,0
140388,-100,4,2,0,5,0,0
140471,-100,4,2,0,80,0,0
141888,-100,4,2,0,5,0,0
141971,-100,4,2,0,80,0,0
142054,-100,4,2,0,5,0,0
142138,-100,4,2,0,80,0,0
142221,-100,4,2,0,5,0,0
142304,-100,4,2,0,80,0,0
142388,-100,4,2,0,5,0,0
142471,-100,4,2,0,80,0,0
142554,-100,4,2,0,5,0,0
142638,-100,4,2,0,80,0,0
143054,-100,4,2,0,5,0,0
143138,-100,4,2,0,80,0,0
144554,-100,4,2,0,5,0,0
144638,-100,4,2,0,80,0,0
144721,-100,4,2,0,5,0,0
144804,-100,4,2,0,80,0,0
144888,-100,4,2,0,5,0,0
144971,-100,4,2,0,80,0,0
145054,-100,4,2,0,5,0,0
145138,-100,4,2,0,80,0,0
145721,-100,4,2,0,5,0,0
145804,-100,4,2,0,80,0,0
147221,-100,4,2,0,5,0,0
147304,-100,4,2,0,80,0,0
147388,-100,4,2,0,5,0,0
147471,-100,4,2,0,80,0,0
147554,-100,4,2,0,5,0,0
147638,-100,4,2,0,80,0,0
147721,-100,4,2,0,5,0,0
147804,-100,4,2,0,80,0,0
147888,-100,4,2,0,5,0,0
147971,-100,4,2,0,80,0,0
148388,-100,4,2,0,5,0,0
148471,-100,4,2,0,80,0,0
151054,-100,4,2,0,5,0,0
151138,-100,4,2,0,80,0,0
152554,-100,4,2,0,5,0,0
152638,-100,4,2,0,80,0,0
152721,-100,4,2,0,5,0,0
152804,-100,4,2,0,80,0,0
152888,-100,4,2,0,5,0,0
152971,-100,4,2,0,80,0,0
153054,-100,4,2,0,5,0,0
153138,-100,4,2,0,80,0,0
153221,-100,4,2,0,5,0,0
153304,-100,4,2,0,80,0,0
153721,-100,4,2,0,5,0,0
153804,-100,4,2,0,80,0,0
155221,-100,4,2,0,5,0,0
155304,-100,4,2,0,80,0,0
156388,-100,4,2,0,5,0,0
156471,-100,4,2,0,80,0,0
157888,-100,4,2,0,5,0,0
157971,-100,4,2,0,80,0,0
158054,-100,4,2,0,5,0,0
158138,-100,4,2,0,80,0,0
158221,-100,4,2,0,5,0,0
158304,-100,4,2,0,80,0,0
158388,-100,4,2,0,5,0,0
158471,-100,4,2,0,80,0,0
158554,-100,4,2,0,5,0,0
158638,-100,4,2,0,80,0,0
161138,-100,4,2,0,40,0,0
165304,-100,4,2,0,5,0,0

[Colours]
Combo1 : 128,255,255
Combo2 : 192,192,192

[HitObjects]
512,191,1305,5,6,1:2:0:0:
426,242,1638,2,0,L|414:292,1,50
329,343,2138,2,0,B|284:367|284:367|234:349,1,100,0|2,0:0|1:2,0:0:0:0:
194,325,2638,1,0,0:0:0:0:
107,374,2971,1,0,1:2:0:0:
32,307,3304,2,0,L|-16:325,2,50,10|2|2,0:0|0:0|0:0,0:0:0:0:
68,272,3804,1,2,0:0:0:0:
120,186,4138,6,0,L|109:133,2,50,2|0|2,0:0|0:0|0:0,0:0:0:0:
161,214,4638,1,10,0:0:0:0:
257,239,4971,2,0,L|307:226,1,50,2|2,0:0|1:2,0:0:0:0:
373,152,5471,2,0,L|429:133,1,50,2|2,0:0|1:2,0:0:0:0:
463,45,5971,1,10,0:0:0:0:
372,3,6304,1,2,0:0:0:0:
322,90,6638,5,2,1:3:0:0:
245,25,6971,2,0,P|216:29|189:39,1,50
97,48,7471,2,0,L|78:1,2,50,0|2|2,0:0|0:0|1:2,0:0:0:0:
66,87,7971,2,0,P|57:144|72:188,1,100,0|0,0:0|1:2,0:0:0:0:
151,240,8638,2,0,L|138:293,2,50,10|2|2,0:0|0:0|0:0,0:0:0:0:
165,192,9138,1,2,0:0:0:0:
250,139,9471,6,0,L|304:164,1,50,2|0,0:0|0:0,0:0:0:0:
338,134,9804,2,0,L|388:157,1,50,2|10,1:2|0:0,0:0:0:0:
449,230,10304,1,2,0:0:0:0:
449,230,10470,1,2,1:2:0:0:
443,330,10804,2,0,L|398:360,1,50,2|2,3:2|1:2,0:0:0:0:
322,307,11304,1,8,3:2:0:0:
322,307,11471,2,0,L|326:256,2,50,2|2|2,3:2|0:0|0:0,0:0:0:0:
283,338,11971,6,0,P|236:355|186:350,1,100,2|0,3:3|0:0,0:0:0:0:
140,331,12471,1,0,0:0:0:0:
70,258,12804,2,0,L|76:205,1,50,2|2,1:2|1:2,0:0:0:0:
41,171,13138,1,6,1:2:0:0:
11,75,13471,1,6,1:2:0:0:
103,37,13804,1,0,0:0:0:0:
103,37,13971,2,0,L|157:52,1,50,8|2,0:0|0:0,0:0:0:0:
174,94,14304,1,2,0:0:0:0:
248,161,14638,6,0,L|262:209,2,50,6|2|0,1:2|0:0|0:0,0:0:0:0:
270,116,15138,2,0,P|306:99|335:98,1,50,2|10,1:2|0:0,0:0:0:0:
415,105,15638,1,2,0:0:0:0:
415,105,15804,1,2,1:2:0:0:
476,184,16138,2,0,P|483:217|483:240,1,50,2|2,0:0|1:2,0:0:0:0:
432,319,16638,2,0,L|443:371,2,50,8|2|2,0:0|0:0|0:0,0:0:0:0:
393,286,17138,1,2,0:0:0:0:
393,286,17304,5,6,1:2:0:0:
302,242,17638,2,0,L|234:258,1,50
178,319,18138,2,0,L|144:361,2,50,2|2|2,0:0|0:0|1:2,0:0:0:0:
161,271,18638,1,0,0:0:0:0:
71,226,18971,1,0,1:2:0:0:
114,136,19304,2,0,L|164:121,1,50,10|2,0:0|0:0,0:0:0:0:
200,153,19638,2,0,L|251:134,1,50,2|2,0:0|0:0,0:0:0:0:
319,204,20138,6,0,L|318:257,2,50,2|0|2,0:0|0:0|1:2,0:0:0:0:
357,172,20638,1,8,0:0:0:0:
418,94,20971,1,2,0:0:0:0:
418,94,21137,1,2,1:2:0:0:
347,23,21471,2,0,L|289:41,1,50,2|2,0:0|1:2,0:0:0:0:
255,127,21971,1,10,0:0:0:0:
212,37,22304,2,0,L|165:23,1,50,2|2,0:0|0:0,0:0:0:0:
118,41,22638,5,6,1:2:0:0:
62,123,22971,1,2,1:2:0:0:
136,189,23304,1,2,1:2:0:0:
80,271,23637,1,2,1:2:0:0:
155,336,23971,2,0,P|205:355|257:353,1,100,2|2,1:2|1:2,0:0:0:0:
343,315,24638,2,0,P|350:284|336:211,1,100,2|2,1:2|1:2,0:0:0:0:
250,172,25304,5,2,1:2:0:0:
249,71,25638,1,2,1:2:0:0:
331,14,25971,2,0,P|371:7|437:22,1,100,2|2,1:2|1:2,0:0:0:0:
487,99,26638,1,2,1:2:0:0:
451,192,26971,1,2,1:2:0:0:
487,285,27304,2,0,L|459:335,1,50,2|0,1:2|0:0,0:0:0:0:
414,313,27638,2,0,L|386:363,1,50,2|0,1:2|0:0,0:0:0:0:
340,345,27971,5,2,1:2:0:0:
282,263,28304,2,0,P|223:262|182:282,1,100,2|2,1:2|3:2,0:0:0:0:
124,356,28971,2,0,P|82:349|30:300,1,100,8|4,3:2|1:2,0:0:0:0:
64,217,29638,1,2,3:2:0:0:
137,149,29971,1,10,3:2:0:0:
236,149,30304,2,0,L|296:158,1,50,0|10,1:2|3:2,0:0:0:0:
307,201,30638,5,0,1:2:0:0:
401,233,30971,2,0,L|455:216,1,50,2|0,1:2|1:2,0:0:0:0:
467,171,31304,1,2,1:2:0:0:
459,71,31638,2,0,L|405:58,1,50,0|2,1:2|1:2,0:0:0:0:
369,87,31971,2,0,P|317:100|265:89,1,100,12|2,1:2|3:2,0:0:0:0:
227,69,32471,1,2,3:2:0:0:
227,69,32638,2,0,P|170:54|119:66,1,100,10|0,3:2|0:0,0:0:0:0:
42,107,33304,6,0,L|-10:112,2,50,6|0|0,1:2|0:0|0:0,0:0:0:0:
112,178,33971,1,8,0:0:0:0:
112,178,34138,1,2,0:0:0:0:
199,226,34471,1,2,1:2:0:0:
199,226,34638,2,0,P|234:192|285:171,1,100,2|0,0:0|1:2,0:0:0:0:
379,155,35304,2,0,L|396:209,1,50,8|0,0:0|0:0,0:0:0:0:
444,199,35638,2,0,L|462:247,1,50,2|0,0:0|0:0,0:0:0:0:
398,323,36138,5,2,0:0:0:0:
398,323,36304,1,2,0:0:0:0:
309,275,36638,2,0,B|258:283|258:283|221:316,1,100,8|2,0:0|0:0,0:0:0:0:
148,382,37304,1,2,0:2:0:0:
72,315,37638,1,2,1:2:0:0:
139,241,37971,2,0,L|154:192,1,50,8|2,0:0|0:0,0:0:0:0:
104,182,38304,2,0,L|85:134,1,50,2|2,0:0|0:0,0:0:0:0:
140,51,38804,5,0,0:0:0:0:
140,51,38971,2,0,P|204:41|242:50,1,100,0|8,0:0|0:0,0:0:0:0:
272,84,39471,2,0,L|262:139,2,50,2|2|2,1:2|0:0|1:2,0:0:0:0:
318,64,39971,1,2,0:2:0:0:
408,21,40304,1,0,1:2:0:0:
469,99,40638,2,0,L|494:145,1,50,8|0,0:0|0:0,0:0:0:0:
455,175,40971,2,0,L|438:227,1,50,2|2,0:0|0:0,0:0:0:0:
343,194,41471,5,2,0:0:0:0:
343,194,41638,1,2,0:0:0:0:
252,151,41971,2,0,L|197:164,1,50,8|2,0:0|0:0,0:0:0:0:
107,190,42471,1,2,1:2:0:0:
107,190,42638,2,0,P|91:240|97:295,1,100,0|2,0:0|1:2,0:0:0:0:
175,344,43304,2,0,L|224:364,1,50,8|2,0:0|0:0,0:0:0:0:
243,317,43638,2,0,L|290:338,1,50,2|2,0:0|0:0,0:0:0:0:
325,302,43971,6,0,L|373:320,2,50,6|0|0,1:2|0:0|0:0,0:0:0:0:
283,210,44638,1,8,0:0:0:0:
283,210,44804,1,2,0:0:0:0:
213,137,45138,1,2,1:2:0:0:
213,137,45304,2,0,P|235:92|280:56,1,100,2|0,0:2|1:2,0:0:0:0:
367,28,45971,2,0,L|422:33,1,50,8|0,0:0|0:0,0:0:0:0:
415,82,46304,2,0,L|460:109,1,50,2|0,0:0|0:0,0:0:0:0:
424,202,46804,5,2,0:0:0:0:
424,202,46971,1,2,0:0:0:0:
354,273,47304,2,0,L|372:325,2,50,8|0|2,0:0|0:0|0:0,0:0:0:0:
255,254,47971,1,2,0:2:0:0:
158,273,48304,1,2,1:2:0:0:
88,202,48638,2,0,L|64:154,1,50,8|2,0:0|0:0,0:0:0:0:
101,122,48971,2,0,L|105:67,1,50,2|2,0:0|0:0,0:0:0:0:
198,36,49471,5,0,0:0:0:0:
198,36,49638,2,0,P|237:53|269:105,1,100,0|8,0:0|0:0,0:0:0:0:
293,142,50138,2,0,L|355:148,2,50,2|2|2,1:2|0:0|1:2,0:0:0:0:
266,184,50638,1,2,0:0:0:0:
198,257,50971,1,2,1:2:0:0:
271,324,51304,2,0,L|312:362,1,50,8|0,0:0|0:0,0:0:0:0:
347,327,51638,2,0,L|404:330,1,50,2|0,0:0|0:0,0:0:0:0:
470,262,52138,6,0,L|492:215,1,50,2|2,0:0|0:0,0:0:0:0:
413,153,52638,2,0,L|413:94,1,50,8|2,0:0|0:0,0:0:0:0:
320,64,53138,1,2,1:2:0:0:
320,64,53304,2,0,P|270:73|220:67,1,100,0|0,0:0|1:2,0:0:0:0:
124,42,53971,2,0,L|111:107,1,50,8|2,0:0|0:0,0:0:0:0:
64,96,54304,2,0,L|49:154,1,50,2|2,0:0|0:0,0:0:0:0:
3,161,54638,6,0,P|-12:216|-3:271,1,100,6|2,1:2|3:2,0:0:0:0:
63,329,55304,1,8,0:0:0:0:
144,270,55638,1,2,0:0:0:0:
144,270,55804,2,0,P|178:262|244:277,1,100,6|2,1:2|0:0,0:0:0:0:
282,302,56304,1,6,1:2:0:0:
369,350,56638,2,0,P|399:351|427:345,1,50,8|2,0:0|0:0,0:0:0:0:
462,322,56971,2,0,P|444:272|443:219,1,100,2|6,0:0|1:2,0:0:0:0:
457,126,57638,5,2,0:0:0:0:
457,126,57804,1,2,1:2:0:0:
457,126,57971,2,0,P|401:116|350:129,1,100,8|2,0:0|0:0,0:0:0:0:
280,186,58638,2,0,L|295:240,2,50,2|2|2,0:2|0:0|1:2,0:0:0:0:
232,170,59138,1,2,0:0:0:0:
153,232,59471,2,0,L|91:252,1,50,2|2,0:0|0:0,0:0:0:0:
71,210,59804,2,0,L|17:198,1,50,2|6,0:0|1:2,0:0:0:0:
12,99,60304,5,2,0:0:0:0:
12,99,60471,1,2,0:0:0:0:
12,98,60638,2,0,P|58:82|107:89,1,100,8|2,0:0|0:0,0:0:0:0:
193,141,61304,2,0,P|226:149|252:149,1,50,2|2,0:2|0:0,0:0:0:0:
319,86,61804,1,2,0:0:0:0:
319,86,61971,2,0,L|372:76,1,50,8|2,0:0|0:0,0:0:0:0:
401,114,62304,2,0,L|451:134,1,50,2|2,0:0|0:0,0:0:0:0:
453,182,62638,5,6,1:2:0:0:
385,256,62971,2,0,L|400:307,2,50,2|2|8,0:2|1:2|0:0,0:0:0:0:
288,230,63638,1,2,0:0:0:0:
229,311,63971,1,2,0:0:0:0:
229,311,64138,2,0,P|173:330|121:326,1,100,2|2,0:0|0:0,0:0:0:0:
58,261,64804,2,0,L|27:204,1,50,2|2,0:0|0:0,0:0:0:0:
69,181,65138,2,0,L|64:124,1,50,2|6,0:0|1:2,0:0:0:0:
145,72,65638,6,0,L|197:94,1,50
256,167,66138,2,0,L|256:230,2,50,0|2|2,0:0|0:0|1:2,0:0:0:0:
292,132,66638,1,0,0:0:0:0:
366,65,66971,1,0,1:2:0:0:
439,133,67304,2,0,L|465:178,1,50,10|2,0:0|0:0,0:0:0:0:
443,222,67638,2,0,L|474:273,1,50,2|2,0:0|0:0,0:0:0:0:
392,329,68138,6,0,L|392:381,2,50,2|0|2,0:0|0:0|1:2,0:0:0:0:
354,295,68638,1,8,0:0:0:0:
256,271,68971,1,2,0:0:0:0:
256,271,69138,1,2,1:2:0:0:
158,295,69471,2,0,L|109:318,1,50,2|2,0:0|1:2,0:0:0:0:
64,228,69971,2,0,L|15:194,1,50,10|2,0:0|0:0,0:0:0:0:
32,150,70304,1,2,0:0:0:0:
87,66,70638,5,2,1:3:0:0:
165,127,70971,2,0,L|215:147,1,50
273,66,71471,2,0,L|277:15,2,50,0|2|2,0:0|0:0|1:2,0:0:0:0:
307,101,71971,2,0,P|355:121|405:117,1,100,0|0,0:0|1:2,0:0:0:0:
491,73,72638,1,10,0:0:0:0:
487,172,72971,1,2,0:0:0:0:
482,271,73304,5,2,1:3:0:0:
482,271,73471,2,0,L|444:307,1,50,2|0,0:0|0:0,0:0:0:0:
354,278,73971,1,8,0:0:0:0:
285,350,74304,2,0,L|231:341,1,50,2|2,0:0|1:2,0:0:0:0:
187,253,74804,2,0,L|206:205,2,50,2|2|2,3:2|1:2|3:2,0:0:0:0:
139,269,75304,1,8,3:2:0:0:
53,217,75638,2,0,L|25:171,1,50,2|2,0:0|0:0,0:0:0:0:
52,131,75971,5,2,3:3:0:0:
125,63,76304,2,0,L|117:7,2,50,0|0|8,0:0|0:0|0:0,0:0:0:0:
168,87,76804,2,0,L|183:146,1,50,2|2,1:2|1:2,0:0:0:0:
226,155,77138,1,6,0:0:0:0:
240,253,77471,1,6,0:0:0:0:
258,351,77804,1,0,0:0:0:0:
258,351,77971,2,0,L|312:369,1,50,10|2,0:0|0:0,0:0:0:0:
353,351,78304,1,2,0:0:0:0:
440,301,78638,6,0,L|500:295,2,50,4|2|0,1:2|0:0|0:0,0:0:0:0:
398,272,79138,2,0,L|375:221,1,50,2|10,1:2|0:0,0:0:0:0:
420,135,79638,1,2,0:0:0:0:
420,135,79804,1,2,1:2:0:0:
331,87,80138,2,0,L|272:106,1,50,2|2,0:0|1:2,0:0:0:0:
201,160,80638,2,0,L|186:213,1,50,8|2,0:0|0:0,0:0:0:0:
137,203,80971,2,0,L|121:253,1,50,2|2,0:0|0:0,0:0:0:0:
72,256,81304,5,6,1:2:0:0:
92,354,81638,2,0,L|133:383,1,50
203,312,82138,2,0,L|220:262,2,50,2|2|2,0:0|0:0|1:2,0:0:0:0:
235,349,82638,1,0,0:0:0:0:
329,382,82971,1,0,1:2:0:0:
394,306,83304,2,0,L|404:253,1,50,10|2,0:0|0:0,0:0:0:0:
448,235,83638,2,0,L|461:181,1,50,2|2,0:0|0:0,0:0:0:0:
416,95,84138,5,2,0:0:0:0:
416,95,84304,2,0,B|367:73|367:73|314:88,1,100,0|8,0:0|0:0,0:0:0:0:
256,160,84971,1,2,0:0:0:0:
256,160,85138,1,2,1:2:0:0:
189,85,85471,2,0,B|141:72,1,50,2|2,0:0|1:2,0:0:0:0:
60,130,85971,2,0,L|34:175,1,50,10|2,0:0|0:0,0:0:0:0:
36,223,86304,2,0,L|16:275,1,50,10|2,0:0|0:0,0:0:0:0:
18,320,86638,5,4,0:0:0:0:
18,320,97304,5,6,1:2:0:0:
95,384,97638,1,2,1:2:0:0:
172,320,97971,1,2,1:2:0:0:
249,384,98304,1,2,1:2:0:0:
327,321,98638,2,0,P|365:286|386:230,1,100,2|2,1:2|1:2,0:0:0:0:
384,141,99304,2,0,P|363:96|327:63,1,100,2|2,1:2|1:2,0:0:0:0:
242,9,99971,5,2,1:2:0:0:
187,92,100304,1,2,1:2:0:0:
274,141,100638,2,0,P|293:185|288:243,1,100,2|2,1:2|1:2,0:0:0:0:
242,323,101304,1,2,1:2:0:0:
141,319,101638,1,2,1:2:0:0:
82,237,101971,2,0,L|63:189,1,50,2|0,1:2|0:0,0:0:0:0:
92,149,102304,2,0,L|87:94,1,50,2|0,1:2|0:0,0:0:0:0:
122,62,102638,5,2,1:2:0:0:
210,16,102971,2,0,P|252:12|316:36,1,100,2|2,1:2|3:2,0:0:0:0:
403,6,103638,2,0,P|422:54|416:110,1,100,8|4,0:2|3:2,0:0:0:0:
460,192,104304,1,2,3:2:0:0:
381,254,104638,1,10,3:2:0:0:
298,197,104971,2,0,L|256:160,1,50,0|10,1:2|3:2,0:0:0:0:
210,171,105304,5,0,1:2:0:0:
119,213,105638,2,0,L|88:254,1,50,2|0,1:2|1:2,0:0:0:0:
101,301,105971,1,2,1:2:0:0:
183,357,106304,2,0,P|221:370|245:368,1,50,0|2,1:2|1:2,0:0:0:0:
272,342,106638,2,0,P|299:324|368:316,1,100,4|2,1:2|3:2,0:0:0:0:
410,334,107138,1,2,3:2:0:0:
410,334,107304,2,0,P|401:285|414:226,1,100,10|0,1:2|0:0,0:0:0:0:
457,148,107971,6,0,L|509:153,2,50,6|0|0,1:2|0:0|0:0,0:0:0:0:
367,102,108638,1,8,0:0:0:0:
367,102,108805,1,2,0:0:0:0:
267,106,109138,1,2,1:2:0:0:
267,106,109305,2,0,P|232:140|219:190,1,100,2|0,0:0|1:2,0:0:0:0:
262,278,109971,2,0,L|279:332,1,50,8|0,0:0|0:0,0:0:0:0:
227,336,110305,2,0,L|214:392,1,50,2|0,0:0|0:0,0:0:0:0:
126,354,110805,5,2,0:0:0:0:
126,354,110971,1,2,0:0:0:0:
29,325,111305,2,0,B|2:280|2:280|3:231,1,100,8|2,0:0|0:0,0:0:0:0:
63,152,111971,1,2,0:0:0:0:
154,193,112305,1,2,1:2:0:0:
232,130,112638,2,0,L|247:81,1,50,8|2,0:0|0:0,0:0:0:0:
296,81,112971,2,0,L|336:47,1,50,2|2,0:0|0:0,0:0:0:0:
436,74,113471,5,0,0:0:0:0:
436,74,113638,2,0,P|456:135|454:174,1,100,0|8,0:0|0:0,0:0:0:0:
477,214,114138,2,0,L|546:221,2,50,2|2|2,1:2|0:0|1:2,0:0:0:0:
443,251,114638,1,2,0:0:0:0:
344,269,114971,1,0,1:2:0:0:
247,242,115305,2,0,L|210:190,1,50,8|0,0:0|0:0,0:0:0:0:
245,159,115638,2,0,L|226:103,1,50,2|0,0:0|0:0,0:0:0:0:
253,17,116138,5,2,0:0:0:0:
253,17,116305,1,2,0:0:0:0:
155,0,116638,2,0,L|100:13,1,50,8|2,0:0|0:0,0:0:0:0:
19,58,117138,1,2,1:2:0:0:
19,58,117305,2,0,P|3:108|9:163,1,100,0|2,0:0|1:2,0:0:0:0:
33,250,117971,2,0,L|48:303,1,50,8|2,0:0|0:0,0:0:0:0:
96,300,118305,2,0,L|115:359,1,50,2|2,0:0|0:0,0:0:0:0:
160,338,118638,6,0,L|181:390,2,50,6|0|0,1:2|0:0|0:0,0:0:0:0:
179,240,119304,2,0,L|231:208,1,50,8|2,0:0|0:0,0:0:0:0:
264,240,119638,1,2,0:0:0:0:
305,331,119971,2,0,P|357:331|407:302,1,100,2|0,0:0|1:2,0:0:0:0:
453,225,120638,2,0,L|469:168,1,50,8|0,0:0|0:0,0:0:0:0:
421,154,120971,2,0,L|406:107,1,50,2|0,0:0|0:0,0:0:0:0:
324,58,121471,5,2,0:0:0:0:
324,58,121638,1,2,0:0:0:0:
248,123,121971,2,0,L|192:93,2,50,8|0|2,0:0|0:0|0:0,0:0:0:0:
277,218,122638,1,2,0:0:0:0:
240,311,122971,1,2,1:2:0:0:
156,365,123305,2,0,L|101:356,1,50,8|2,0:0|0:0,0:0:0:0:
100,307,123638,2,0,L|57:266,1,50,2|2,0:0|0:0,0:0:0:0:
0,195,124138,5,0,0:0:0:0:
0,195,124305,2,0,P|17:148|58:111,1,100,0|8,0:0|0:0,0:0:0:0:
99,96,124805,2,0,L|100:44,2,50,2|2|2,1:2|0:0|1:2,0:0:0:0:
144,117,125305,1,2,0:0:0:0:
231,68,125638,1,0,1:2:0:0:
317,18,125971,2,0,L|358:56,1,50,8|0,0:0|0:0,0:0:0:0:
399,31,126305,2,0,L|410:94,1,50,2|0,0:0|0:0,0:0:0:0:
484,144,126805,6,0,L|468:211,1,50,2|2,0:0|0:0,0:0:0:0:
389,248,127305,2,0,L|328:260,1,50,8|2,0:0|0:0,0:0:0:0:
279,185,127805,1,2,1:2:0:0:
279,185,127971,2,0,P|229:176|179:182,1,100,0|2,0:0|1:2,0:0:0:0:
80,181,128638,2,0,L|29:226,1,50,10|2,0:0|0:0,0:0:0:0:
62,260,128971,2,0,L|47:318,1,50,2|2,0:0|0:0,0:0:0:0:
86,342,129305,6,0,P|141:357|196:348,1,100,6|2,1:2|3:2,0:0:0:0:
249,277,129971,1,8,0:0:0:0:
321,352,130305,1,2,0:0:0:0:
321,352,130471,2,0,P|355:360|421:345,1,100,6|2,1:2|0:0,0:0:0:0:
453,312,130971,1,6,1:2:0:0:
511,230,131305,2,0,L|498:173,1,50,8|2,0:0|0:0,0:0:0:0:
481,134,131638,2,0,P|431:152|378:153,1,100,2|6,0:0|1:2,0:0:0:0:
395,61,132305,5,2,0:0:0:0:
395,61,132471,1,2,1:2:0:0:
395,61,132638,2,0,P|339:51|288:64,1,100,8|2,0:0|0:0,0:0:0:0:
218,121,133305,2,0,L|164:98,2,50,2|2|2,0:0|0:0|1:2,0:0:0:0:
240,165,133805,1,2,0:0:0:0:
290,250,134138,2,0,L|271:309,1,50,2|2,0:0|0:0,0:0:0:0:
227,280,134471,2,0,L|184:319,1,50,2|6,0:0|1:2,0:0:0:0:
98,332,134971,5,2,0:0:0:0:
98,332,135138,1,2,0:0:0:0:
97,332,135305,2,0,P|60:296|38:245,1,100,8|2,0:0|0:0,0:0:0:0:
123,198,135971,2,0,L|115:144,1,50,2|2,0:0|0:0,0:0:0:0:
65,61,136471,1,2,0:0:0:0:
65,61,136638,2,0,L|114:23,1,50,8|2,0:0|0:0,0:0:0:0:
150,49,136971,2,0,L|203:46,1,50,2|2,0:0|0:0,0:0:0:0:
244,69,137305,5,6,1:2:0:0:
321,131,137638,2,0,L|313:186,2,50,2|2|8,0:0|1:2|0:0,0:0:0:0:
373,45,138305,1,2,0:0:0:0:
465,95,138638,1,2,0:0:0:0:
465,95,138805,2,0,P|484:151|475:209,1,100,2|2,0:0|0:0,0:0:0:0:
456,234,139304,1,8,0:0:0:0:
469,333,139638,1,10,0:0:0:0:
469,333,139804,1,10,0:0:0:0:
469,333,139971,6,0,L|523:360,2,50,4|0|0,1:2|1:2|0:0,0:0:0:0:
376,295,140638,1,8,0:0:0:0:
295,353,140971,2,0,L|240:375,1,50,2|2,1:2|1:2,0:0:0:0:
198,374,141304,1,2,0:3:0:0:
161,280,141638,2,0,L|114:251,2,50,2|0|10,1:2|0:0|0:0,0:0:0:0:
249,233,142304,1,2,1:2:0:0:
249,233,142471,1,2,1:2:0:0:
296,145,142804,5,2,1:2:0:0:
296,145,142971,2,0,P|284:100|236:55,1,100,0|8,0:0|0:0,0:0:0:0:
151,36,143638,2,0,L|100:51,1,50,2|2,1:2|1:2,0:0:0:0:
54,64,143971,1,2,0:3:0:0:
0,148,144304,1,2,1:2:0:0:
47,236,144638,2,0,L|77:291,1,50,10|2,0:0|1:2,0:0:0:0:
120,271,144971,2,0,L|168:293,1,50,10|2,0:0|0:0,0:0:0:0:
255,248,145471,5,2,1:2:0:0:
255,248,145638,1,0,0:0:0:0:
297,338,145971,1,8,0:0:0:0:
388,298,146304,2,0,L|437:323,2,50,2|2|2,1:2|1:2|0:3,0:0:0:0:
351,204,146971,1,2,1:2:0:0:
439,158,147304,2,0,P|446:111|424:55,1,100,10|2,0:0|1:2,0:0:0:0:
329,49,147971,6,0,L|328:-3,2,50,2|2|0,1:3|1:2|0:0,0:0:0:0:
255,117,148638,1,8,0:0:0:0:
179,51,148971,2,0,L|122:62,1,50,2|2,1:2|1:2,0:0:0:0:
80,55,149304,2,0,L|29:19,2,50,2|2|2,0:3|1:2|1:2,0:0:0:0:
21,136,149971,2,0,P|22:183|55:235,1,100,8|10,3:2|0:2,0:0:0:0:
147,240,150638,6,0,L|157:292,2,50,6|2|0,1:2|1:2|0:0,0:0:0:0:
208,161,151304,1,8,0:0:0:0:
291,106,151638,2,0,L|343:100,1,50,2|2,1:2|1:2,0:0:0:0:
387,118,151971,2,0,L|420:78,2,50,2|2|2,0:3|1:2|1:2,0:0:0:0:
454,192,152638,1,10,0:0:0:0:
387,266,152971,2,0,L|342:296,1,50,2|2,1:2|1:2,0:0:0:0:
299,273,153304,5,2,1:3:0:0:
299,273,153471,1,2,1:2:0:0:
299,273,153638,2,0,P|254:237|204:225,1,100,0|8,0:0|0:0,0:0:0:0:
114,235,154304,2,0,L|79:277,2,50,2|2|2,1:2|1:2|0:3,0:0:0:0:
96,136,154971,1,2,1:2:0:0:
155,55,155304,2,0,L|208:23,1,50,10|0,3:2|0:0,3:2:0:0:
239,56,155638,2,8,L|299:56,1,50,10|0,0:2|0:0,0:2:0:0:
386,32,156138,6,0,L|428:1,2,50,2|0|2,1:2|0:0|1:2,0:0:0:0:
379,81,156638,1,8,0:0:0:0:
443,157,156971,2,0,L|424:204,1,50,2|2,1:2|1:2,0:0:0:0:
383,231,157304,2,0,P|335:237|285:213,1,100,2|2,3:3|1:2,0:0:0:0:
203,164,157971,2,0,L|144:172,1,50,10|2,1:2|1:2,0:0:0:0:
127,213,158304,2,0,L|84:253,1,50,2|2,1:2|1:2,0:0:0:0:
148,328,158804,6,0,L|138:380,2,50,2|0|2,1:2|0:0|1:2,0:0:0:0:
189,299,159304,1,8,0:0:0:0:
256,225,159638,1,6,1:2:0:0:
256,225,159804,1,6,1:2:0:0:
256,192,159971,12,0,165304,0:0:0:0:
