osu file format v14

[General]
AudioFilename: Hyper Potions - Porta Vista.mp3
AudioLeadIn: 0
PreviewTime: 26170
Countdown: 0
SampleSet: Soft
StackLeniency: 0.7
Mode: 0
LetterboxInBreaks: 0
WidescreenStoryboard: 0

[Editor]
Bookmarks: 14170,20570,26970,32770,39770,52570,65370,78170,90970,103770,116570,128170,129370,154970,174170,180570
DistanceSpacing: 1.4
BeatDivisor: 8
GridSize: 4
TimelineZoom: 1

[Metadata]
Title:Porta Vista
TitleUnicode:Porta Vista
Artist:Hyper Potions
ArtistUnicode:Hyper Potions
Creator:jyu
Version:Collab Hyper
Source:
Tags:monstercat alpacacokelat anrefm edm future bass
BeatmapID:728959
BeatmapSetID:328682

[Difficulty]
HPDrainRate:6
CircleSize:3.7
OverallDifficulty:6
ApproachRate:7
SliderMultiplier:1.3
SliderTickRate:1

[Events]
//Background and Video events
0,0,"bg.png",0,0
//Break Periods
2,78370,90270
//Storyboard Layer 0 (Background)
//Storyboard Layer 1 (Fail)
//Storyboard Layer 2 (Pass)
//Storyboard Layer 3 (Foreground)
//Storyboard Sound Samples

[TimingPoints]
1370,400,4,2,1,65,1,0
26970,-100,4,1,1,80,0,1
38170,-100,4,1,1,30,0,0
39770,-100,4,1,1,80,0,1
52570,-100,4,1,2,70,0,0
63770,-100,4,1,2,30,0,0
65370,-100,4,1,2,70,0,0
76570,-100,4,2,1,30,0,0
90970,-100,4,2,1,30,0,0
97370,-100,4,2,2,30,0,0
100570,-100,4,2,3,30,0,0
102170,-100,4,2,2,30,0,0
103770,-100,4,2,1,65,0,0
116570,-100,4,2,4,55,0,0
127770,-100,4,1,1,30,0,0
129370,-100,4,1,1,80,0,1
140570,-100,4,2,1,30,0,0
142170,-100,4,1,1,80,0,1
154970,-100,4,2,2,70,0,0

[Colours]
Combo1 : 253,227,104
Combo2 : 28,176,240
Combo3 : 162,255,68
Combo4 : 128,255,255

[HitObjects]
79,69,14170,6,0,L|155:73,1,65,12|0,0:0|0:0,0:0:0:0:
188,152,14570,2,0,L|264:156,1,65,0|8,0:0|0:0,0:0:0:0:
332,112,14970,2,0,P|344:160|300:232,1,130,10|8,0:0|0:0,0:0:0:0:
224,268,15570,1,0,0:0:0:0:
142,227,15770,6,0,P|106:174|116:111,1,130,10|0,0:0|0:0,0:0:0:0:
185,52,16370,1,8,0:0:0:0:
273,30,16570,2,0,L|357:42,1,65,10|0,0:0|0:0,0:0:0:0:
409,95,16970,1,8,0:0:0:0:
468,178,17170,1,8,0:0:0:0:
468,178,17270,1,8,0:0:0:0:
468,178,17370,6,0,P|468:218|448:246,1,65,8|0,0:0|0:0,0:0:0:0:
364,239,17770,2,0,P|349:210|351:178,1,65,0|8,0:0|0:0,0:0:0:0:
370,89,18170,2,0,P|334:69|234:73,1,130,10|8,0:0|0:0,0:0:0:0:
171,119,18770,1,0,0:0:0:0:
100,176,18970,6,0,B|88:220|88:220|108:320,1,130,8|0,0:0|0:0,0:0:0:0:
192,332,19570,2,0,L|260:340,1,65,8|10,0:0|0:0,0:0:0:0:
280,252,19970,2,0,L|224:244,2,32.5,8|8|0,0:0|0:0|0:0,0:0:0:0:
300,256,20270,1,8,0:0:0:0:
320,260,20370,1,8,0:0:0:0:
340,264,20470,1,8,0:0:0:0:
360,268,20570,6,0,L|445:281,1,65,12|0,0:0|0:0,0:0:0:0:
480,204,20970,1,0,0:0:0:0:
468,120,21170,1,8,0:0:0:0:
468,120,21370,2,0,B|472:92|472:92|464:36,1,65,10|0,0:0|0:0,0:0:0:0:
380,84,21770,2,0,B|376:112|376:112|381:148,1,65,8|0,0:0|0:0,0:0:0:0:
312,260,22170,6,0,L|288:108,1,130,8|0,0:0|0:0,0:0:0:0:
216,80,22770,1,8,0:0:0:0:
132,116,22970,2,0,L|56:108,1,65,8|0,0:0|0:0,0:0:0:0:
12,180,23370,1,8,0:0:0:0:
64,256,23570,1,8,0:0:0:0:
64,256,23670,1,8,0:0:0:0:
64,256,23770,6,0,B|72:292|72:292|64:328,1,65,8|0,0:0|0:0,0:0:0:0:
140,372,24170,2,0,L|163:289,1,65,8|0,0:0|0:0,0:0:0:0:
244,288,24570,2,0,L|267:205,1,65,8|0,0:0|0:0,0:0:0:0:
352,204,24970,2,0,L|375:121,1,65,8|0,0:0|0:0,0:0:0:0:
452,100,25370,6,0,L|468:48,7,32.5,8|0|8|0|8|0|8|0,0:0|0:0|0:0|0:0|0:0|0:0|0:0|0:0,0:0:0:0:
64,340,26970,6,0,P|96:328|120:232,1,130,4|0,0:0|0:0,0:0:0:0:
54,205,27570,1,0,0:0:0:0:
54,205,27670,1,0,0:0:0:0:
54,205,27770,2,0,P|98:169|126:165,1,65,10|0,0:0|0:0,0:0:0:0:
184,132,28170,2,0,P|228:112|248:88,1,65
320,140,28570,6,0,L|356:280,1,130
425,210,29170,1,4,0:3:0:0:
425,210,29270,1,0,0:0:0:0:
425,210,29370,2,0,L|401:124,1,65,10|0,0:0|0:0,0:0:0:0:
395,56,29770,2,0,P|363:40|331:36,1,65
244,48,30170,6,0,P|220:80|132:84,1,130,4|0,0:3|0:0,0:0:0:0:
64,144,30770,1,4,0:3:0:0:
64,144,30870,1,0,0:0:0:0:
64,144,30970,2,0,B|52:172|52:172|68:228,1,65,10|0,0:0|0:0,0:0:0:0:
104,284,31370,1,2,0:0:0:0:
188,316,31570,1,0,0:0:0:0:
240,216,31770,6,0,L|260:140,1,65,2|0,0:0|0:0,0:0:0:0:
320,88,32170,1,2,0:0:0:0:
378,172,32370,1,0,0:0:0:0:
378,172,32470,1,0,0:0:0:0:
378,172,32570,2,0,L|454:184,1,65,10|0,0:0|0:0,0:0:0:0:
390,257,32970,2,0,L|325:246,1,65,2|0,0:0|0:0,0:0:0:0:
256,153,33370,6,0,P|232:185|132:189,1,130,4|0,0:0|0:0,0:0:0:0:
81,150,33970,1,0,0:0:0:0:
81,150,34070,1,0,0:0:0:0:
81,150,34170,2,0,L|39:212,1,65,10|0,0:0|0:0,0:0:0:0:
88,283,34570,2,0,P|136:299|176:299,1,65
252,236,34970,6,0,P|300:224|396:260,1,130
465,296,35570,1,4,0:3:0:0:
465,296,35670,1,0,0:0:0:0:
465,296,35770,2,0,L|481:216,1,65,10|0,0:0|0:0,0:0:0:0:
440,140,36170,2,0,P|407:144|376:138,1,65
288,160,36570,6,0,P|288:192|300:222,1,65,4|0,0:3|0:0,0:0:0:0:
332,308,36970,1,0,0:0:0:0:
216,272,37170,1,4,0:3:0:0:
216,272,37270,1,0,0:0:0:0:
216,272,37371,2,0,P|198:209|197:144,1,130,10|2,0:0|0:0,0:0:0:0:
256,192,38170,12,0,39370,0:0:0:0:
56,72,39770,6,0,L|72:208,1,130,4|0,0:0|0:0,0:0:0:0:
146,270,40370,1,0,0:0:0:0:
146,270,40470,1,0,0:0:0:0:
146,270,40570,2,0,P|178:274|222:250,1,65,10|0,0:0|0:0,0:0:0:0:
292,220,40970,2,0,L|432:244,1,130
468,320,41570,5,0,0:0:0:0:
380,348,41770,2,0,P|343:342|300:364,1,65,0|4,0:0|0:3,0:0:0:0:
248,288,42170,2,0,P|180:304|124:256,1,130,10|0,0:0|0:0,0:0:0:0:
48,300,42770,1,0,0:0:0:0:
40,208,42970,6,0,L|32:136,1,65,4|0,0:3|0:0,0:0:0:0:
92,76,43370,1,0,0:0:0:0:
180,126,43570,1,4,0:3:0:0:
180,126,43670,1,0,0:0:0:0:
180,126,43770,2,0,P|212:130|260:110,1,65,10|0,0:0|0:0,0:0:0:0:
320,73,44170,2,0,P|351:64|383:68,1,65,2|0,0:0|0:0,0:0:0:0:
448,132,44570,5,2,0:0:0:0:
416,216,44770,1,0,0:0:0:0:
468,292,44970,2,0,L|456:380,1,65,2|0,0:0|0:0,0:0:0:0:
459,356,45270,1,0,0:0:0:0:
459,356,45370,2,0,P|387:339|347:371,1,130,10|2,0:0|0:0,0:0:0:0:
276,316,45970,1,0,0:0:0:0:
184,324,46170,6,0,P|132:348|52:300,1,130,4|0,0:0|0:0,0:0:0:0:
132,256,46770,1,0,0:0:0:0:
132,256,46870,1,0,0:0:0:0:
132,256,46970,2,0,B|128:224|128:224|136:188,1,65,10|0,0:0|0:0,0:0:0:0:
136,100,47370,2,0,B|143:68|143:68|139:36,1,65
224,8,47770,6,0,L|252:152,1,130
324,188,48370,1,4,0:3:0:0:
408,140,48570,2,0,P|440:142|476:168,1,65,10|0,0:0|0:0,0:0:0:0:
400,228,48970,2,0,P|414:257|409:300,1,65
316,284,49370,6,0,P|297:311|208:308,1,130,4|0,0:3|0:0,0:0:0:0:
131,283,49970,1,4,0:3:0:0:
131,283,50070,1,0,0:0:0:0:
131,283,50170,2,0,L|55:291,1,65,10|0,0:0|0:0,0:0:0:0:
100,205,50570,2,0,L|164:198,1,65,2|0,0:0|0:0,0:0:0:0:
248,236,50970,5,2,0:0:0:0:
320,180,51170,1,0,0:0:0:0:
400,220,51370,2,0,P|461:233|512:180,1,130,2|2,0:0|0:0,0:0:0:0:
328,272,52170,2,0,L|316:352,1,65,2|0,0:0|0:0,0:0:0:0:
228,360,52570,5,4,0:0:0:0:
144,328,52770,2,0,P|112:340|68:340,2,65
208,264,53370,2,0,B|220:208|220:208|200:136,1,130,10|0,0:0|0:0,0:0:0:0:
208,48,53970,1,0,0:0:0:0:
300,44,54170,6,0,L|324:120,1,65
368,184,54570,1,0,0:0:0:0:
328,264,54770,1,4,0:3:0:0:
240,240,54970,2,0,B|177:229|177:229|104:272,1,130,10|0,0:0|0:0,0:0:0:0:
191,318,55570,1,0,0:0:0:0:
280,333,55770,5,4,0:3:0:0:
336,264,55970,1,0,0:0:0:0:
336,264,56170,2,0,P|352:220|348:176,1,65,0|4,0:0|0:3,0:0:0:0:
328,112,56570,2,0,B|285:103|285:103|264:64|205:57,1,130,10|2,0:0|0:0,0:0:0:0:
204,156,57170,1,0,0:0:0:0:
121,195,57370,6,0,P|138:229|189:243,1,65
260,228,57770,2,0,P|304:200|340:196,1,65
332,196,58070,1,0,0:0:0:0:
348,196,58170,2,0,P|384:160|388:132,1,65,10|0,0:0|0:0,0:0:0:0:
344,52,58570,2,0,P|308:88|304:116,1,65,2|0,0:0|0:0,0:0:0:0:
228,148,58970,5,4,0:0:0:0:
152,96,59170,1,0,0:0:0:0:
84,156,59370,2,0,P|88:196|72:240,1,65
40,300,59770,2,0,P|92:272|188:288,1,130,10|0,0:0|0:0,0:0:0:0:
252,288,60370,1,0,0:0:0:0:
340,272,60570,6,0,P|384:268|424:244,1,65
304,192,60970,2,0,P|340:164|352:140,1,65,0|4,0:0|0:3,0:0:0:0:
424,92,61370,2,0,P|388:96|292:68,1,130,10|0,0:0|0:0,0:0:0:0:
210,47,61970,1,0,0:0:0:0:
124,78,62170,5,4,0:3:0:0:
74,154,62370,1,0,0:0:0:0:
74,154,62470,1,0,0:0:0:0:
74,154,62570,2,0,P|78:198|94:230,1,65,0|4,0:0|0:3,0:0:0:0:
169,253,62970,2,0,P|221:229|297:245,1,130,10|2,0:0|0:0,0:0:0:0:
256,192,63770,12,0,64970,0:0:0:0:
72,144,65370,5,4,0:0:0:0:
43,235,65570,1,0,0:0:0:0:
43,235,65670,1,0,0:0:0:0:
43,235,65770,2,0,B|38:269|38:269|47:307,1,65
127,337,66170,2,0,L|211:325,1,65,10|0,0:0|0:0,0:0:0:0:
278,356,66570,2,0,P|310:364|358:344,1,65
416,305,66970,5,0,0:0:0:0:
496,349,67170,1,0,0:0:0:0:
416,305,67370,2,0,L|424:233,1,65,0|4,0:0|0:3,0:0:0:0:
344,120,67770,2,0,L|328:252,1,130,10|0,0:0|0:0,0:0:0:0:
248,292,68370,1,0,0:0:0:0:
168,248,68570,6,0,P|132:244|96:260,1,65,4|0,0:3|0:0,0:0:0:0:
52,336,68970,2,0,P|88:340|124:324,1,65,0|4,0:0|0:3,0:0:0:0:
168,248,69370,2,0,L|146:92,1,130,10|2,0:0|0:0,0:0:0:0:
180,28,69970,1,0,0:0:0:0:
240,104,70170,6,0,P|272:108|320:88,1,65
364,32,70570,1,0,0:0:0:0:
435,104,70770,1,0,0:0:0:0:
435,104,70870,1,0,0:0:0:0:
435,104,70970,2,0,L|451:196,1,65,10|0,0:0|0:0,0:0:0:0:
369,218,71370,2,0,L|385:310,1,65,2|0,0:0|0:0,0:0:0:0:
328,360,71770,5,4,0:0:0:0:
256,323,71970,1,0,0:0:0:0:
256,323,72070,1,0,0:0:0:0:
256,323,72170,2,0,P|220:323|188:339,1,65
121,278,72570,2,0,P|61:298|1:266,1,130,10|0,0:0|0:0,0:0:0:0:
69,206,73170,1,0,0:0:0:0:
133,142,73370,6,0,P|137:118|117:58,1,65
222,15,73770,2,0,P|218:47|225:78,1,65,0|4,0:0|0:3,0:0:0:0:
338,178,74170,2,0,L|308:52,1,130,10|0,0:0|0:0,0:0:0:0:
222,15,74770,1,0,0:0:0:0:
160,88,74970,5,4,0:3:0:0:
72,68,75170,2,0,P|68:100|92:148,1,65
108,216,75570,1,4,0:3:0:0:
184,264,75770,2,0,P|215:268|246:259,1,65,10|0,0:0|0:0,0:0:0:0:
296,184,76170,2,0,L|376:172,1,65,2|0,0:0|0:0,0:0:0:0:
428,112,76570,5,4,0:1:0:0:
256,192,76670,12,4,78170,0:1:0:0:
48,92,91170,5,0,0:0:0:0:
80,172,91370,2,0,L|72:264,1,65
120,308,91770,1,2,0:0:0:0:
200,340,91970,1,0,0:0:0:0:
272,296,92170,2,0,P|304:294|348:320,1,65
484,204,92770,6,0,P|456:192|420:192,2,65
436,280,93370,1,2,0:0:0:0:
376,348,93570,1,0,0:0:0:0:
288,328,93770,2,0,P|280:292|296:252,1,65
336,76,94370,6,0,L|328:8,2,65
296,152,94970,1,2,0:0:0:0:
224,196,95170,2,0,P|192:204|144:188,1,65
88,156,95570,1,0,0:0:0:0:
36,224,95770,6,0,L|48:312,1,65
120,324,96170,2,0,P|136:320|184:328,1,65
264,356,96570,1,2,0:0:0:0:
340,320,96770,2,0,L|420:312,2,65
120,324,97570,6,0,L|96:240,1,65
102,261,97970,1,2,0:0:0:0:
136,96,98370,2,0,L|153:158,1,65
153,158,98771,1,2,0:0:0:0:
320,140,99170,6,0,L|337:202,1,65
337,202,99571,1,2,0:0:0:0:
460,316,99970,2,0,L|442:253,1,65
442,253,100370,1,2,0:0:0:0:
408,120,100970,5,2,0:0:0:0:
356,312,101370,1,2,0:0:0:0:
272,344,101570,1,0,0:0:0:0:
184,320,101770,1,2,0:0:0:0:
96,336,101970,1,0,0:0:0:0:
72,248,102170,6,0,P|88:196|52:128,1,130,2|0,0:0|0:0,0:0:0:0:
112,68,102770,1,2,0:0:0:0:
160,136,102970,2,0,P|172:168|168:216,2,65,0|0|2,0:0|0:0|0:0,0:0:0:0:
112,68,103570,1,0,0:0:0:0:
196,36,103770,6,0,B|256:52|256:52|340:32,1,130,12|0,0:0|0:0,0:0:0:0:
408,72,104370,1,8,0:0:0:0:
444,156,104570,2,0,P|456:208|452:232,1,65,10|0,0:0|0:0,0:0:0:0:
344,219,104970,2,0,P|344:186|354:156,1,65,8|0,0:0|0:0,0:0:0:0:
276,112,105370,6,8,P|256:160|264:256,1,130,8|0,0:0|0:0,0:0:0:0:
369,290,105970,1,8,0:0:0:0:
369,290,106170,2,0,P|300:240|256:237,1,130,10|8,0:0|0:0,0:0:0:0:
152,288,106770,1,8,0:0:0:0:
152,288,106870,1,8,0:0:0:0:
152,288,106970,6,0,P|140:232|172:160,1,130,8|0,0:0|0:0,0:0:0:0:
208,84,107570,1,8,0:0:0:0:
288,40,107770,2,0,L|376:20,1,65,10|0,0:0|0:0,0:0:0:0:
400,104,108170,2,0,L|336:118,1,65,8|0,0:0|0:0,0:0:0:0:
229,170,108570,6,0,B|217:206|217:206|229:302,1,130,8|0,0:0|0:0,0:0:0:0:
319,289,109170,2,0,L|309:212,1,65,8|10,0:0|0:0,0:0:0:0:
393,181,109570,1,8,0:0:0:0:
393,181,109670,1,8,0:0:0:0:
393,181,109770,2,0,L|399:245,1,65,8|0,0:0|0:0,0:0:0:0:
441,326,110170,5,8,0:0:0:0:
260,349,110570,1,0,0:0:0:0:
168,344,110770,1,8,0:0:0:0:
100,284,110970,2,0,P|84:237|88:203,1,65,10|0,0:0|0:0,0:0:0:0:
80,132,111370,1,8,0:0:0:0:
80,132,111770,6,0,P|156:142|217:115,1,130,8|0,0:0|0:0,0:0:0:0:
268,59,112370,1,8,0:0:0:0:
268,59,112570,2,0,P|241:110|258:193,1,130,10|8,0:0|0:0,0:0:0:0:
312,248,113170,1,8,0:0:0:0:
312,248,113270,1,8,0:0:0:0:
312,248,113370,5,8,0:0:0:0:
147,322,113770,1,0,0:0:0:0:
240,360,113970,1,8,0:0:0:0:
336,336,114170,2,0,P|372:320|396:281,1,65,10|0,0:0|0:0,0:0:0:0:
426,209,114570,1,8,0:0:0:0:
426,209,114970,6,0,P|380:182|339:96,1,130,8|0,0:0|0:0,0:0:0:0:
268,63,115570,1,8,0:0:0:0:
268,63,115770,2,0,L|193:71,1,65,10|0,0:0|0:0,0:0:0:0:
170,155,116170,2,0,L|234:148,1,65
324,132,116570,5,14,0:0:0:0:
280,308,116970,1,2,0:0:0:0:
204,260,117170,1,8,0:0:0:0:
112,268,117370,2,0,L|76:324,1,65,10|0,0:0|0:0,0:0:0:0:
146,182,117770,2,0,L|142:106,1,65,10|0,0:0|0:0,0:0:0:0:
87,44,118170,6,0,P|140:70|228:68,1,130,10|0,0:0|0:0,0:0:0:0:
296,44,118770,1,8,0:0:0:0:
296,44,118970,2,0,B|328:84|328:84|308:124|336:176,1,130,10|10,0:0|0:0,0:0:0:0:
324,258,119570,1,8,0:0:0:0:
324,258,119670,1,8,0:0:0:0:
324,258,119770,6,0,P|288:274|184:250,1,130,10|2,0:0|0:0,0:0:0:0:
199,170,120370,1,8,0:0:0:0:
127,222,120570,2,0,P|115:262|127:302,1,65,10|0,0:0|0:0,0:0:0:0:
111,142,120970,2,0,P|88:112|43:106,1,65,10|0,0:0|0:0,0:0:0:0:
31,190,121370,6,0,P|19:238|27:318,1,130,10|2,0:0|0:0,0:0:0:0:
112,351,121970,1,8,0:0:0:0:
200,335,122170,1,10,0:0:0:0:
288,319,122370,2,0,L|304:351,2,32.5,8|8|2,0:0|0:0|0:0,0:0:0:0:
284,300,122670,1,8,0:0:0:0:
284,280,122770,1,8,0:0:0:0:
284,260,122870,1,8,0:0:0:0:
284,240,122970,6,0,L|284:160,1,65,2|2,0:0|0:0,0:0:0:0:
208,56,123370,2,0,L|208:121,1,65,2|10,0:0|0:0,0:0:0:0:
120,200,123770,2,0,L|120:120,1,65,10|2,0:0|0:0,0:0:0:0:
32,52,124170,2,0,L|32:117,1,65,10|2,0:0|0:0,0:0:0:0:
28,212,124570,5,10,0:0:0:0:
72,292,124770,1,2,0:0:0:0:
160,272,124970,1,2,0:0:0:0:
224,336,125170,1,10,0:0:0:0:
251,226,125370,5,10,0:0:0:0:
179,142,125570,1,2,0:0:0:0:
235,54,125770,1,10,0:0:0:0:
311,138,125970,1,10,0:0:0:0:
311,138,126070,1,10,0:0:0:0:
311,138,126170,6,0,L|351:130,3,32.5,10|2|2|2,0:0|0:0|0:0|0:0,0:0:0:0:
383,154,126570,2,0,L|439:166,3,32.5,10|2|2|2,0:0|0:0|0:0|0:0,0:0:0:0:
439,198,126970,2,0,L|471:234,3,32.5,10|2|2|2,0:0|0:0|0:0|0:0,0:0:0:0:
463,266,127370,2,0,L|463:314,3,32.5,10|2|2|2,0:0|0:0|0:0|0:0,0:0:0:0:
423,318,127770,5,2,0:0:0:0:
244,320,128170,2,0,B|216:308|216:308|168:316,2,65,2|2|2,0:0|0:0|0:0,0:0:0:0:
276,140,128970,2,0,P|228:124|176:136,1,97.5
136,140,129370,6,0,P|92:128|68:96,1,65,4|0,0:0|0:0,0:0:0:0:
80,24,129770,2,0,P|124:36|148:68,1,65
272,52,130170,2,0,P|312:24|396:28,1,130,10|0,0:0|0:0,0:0:0:0:
436,144,130770,1,0,0:0:0:0:
344,176,130970,2,0,L|196:176,1,130
87,244,131570,2,0,L|152:244,1,65,4|10,0:3|0:0,0:0:0:0:
120,160,131970,2,0,L|55:160,1,65
160,80,132370,1,2,0:0:0:0:
252,116,132570,6,0,P|304:108|328:84,1,65,4|0,0:3|0:0,0:0:0:0:
384,172,132970,2,0,P|408:132|408:92,1,65,0|4,0:0|0:3,0:0:0:0:
332,36,133370,2,0,P|273:56|252:116,1,130,10|0,0:0|0:0,0:0:0:0:
216,208,133970,1,0,0:0:0:0:
128,248,134170,2,0,P|84:256|56:248,1,65
208,288,134570,2,0,P|251:300|272:319,1,65
276,324,134870,1,0,0:0:0:0:
284,336,134970,1,10,0:0:0:0:
372,296,135170,2,0,P|384:228|376:156,1,130,0|2,0:0|0:0,0:0:0:0:
332,80,135770,6,0,L|244:44,1,65,4|0,0:0|0:0,0:0:0:0:
240,148,136170,2,0,L|168:168,1,65
80,68,136570,2,0,B|104:104|104:104|76:140|84:188,1,130,10|0,0:0|0:0,0:0:0:0:
140,264,137170,1,0,0:0:0:0:
220,320,137370,2,0,L|368:324,1,130
428,268,137970,1,4,0:3:0:0:
364,192,138170,1,10,0:0:0:0:
304,116,138370,2,0,P|280:144|268:176,1,65
444,140,138770,1,2,0:0:0:0:
384,56,138970,5,4,0:3:0:0:
204,44,139370,1,0,0:0:0:0:
144,112,139570,1,4,0:3:0:0:
68,60,139770,2,0,P|48:100|56:128,2,65,8|0|0,0:0|0:0|0:0,0:0:0:0:
144,112,140370,1,0,0:0:0:0:
256,192,140570,12,0,141770,0:0:0:0:
208,88,142170,6,0,L|356:72,1,130,4|0,0:0|0:0,0:0:0:0:
412,116,142770,1,0,0:0:0:0:
476,172,142970,2,0,P|488:198|480:244,1,65,10|0,0:0|0:0,0:0:0:0:
404,216,143370,2,0,P|387:239|343:255,1,65
284,296,143770,2,0,B|248:310|248:310|135:304,1,130
77,349,144370,1,4,0:3:0:0:
27,272,144570,2,0,B|23:240|23:240|31:204,1,65,10|0,0:0|0:0,0:0:0:0:
77,129,144970,2,0,B|84:97|84:97|80:65,1,65,0|2,0:0|0:0,0:0:0:0:
164,29,145370,6,0,B|176:113|176:113|164:165,1,130,4|0,0:3|0:0,0:0:0:0:
111,230,145970,1,4,0:3:0:0:
167,301,146170,2,0,P|231:317|295:273,1,130,10|0,0:0|0:0,0:0:0:0:
352,227,146770,1,0,0:0:0:0:
409,156,146970,2,0,L|397:88,2,65
487,221,147570,1,0,0:0:0:0:
487,221,147670,1,0,0:0:0:0:
487,221,147770,2,0,L|498:285,1,65,10|0,0:0|0:0,0:0:0:0:
438,354,148170,2,0,P|406:362|354:342,1,65,0|2,0:0|0:0,0:0:0:0:
280,316,148570,6,0,L|140:324,1,130,4|0,0:0|0:0,0:0:0:0:
76,368,149170,1,0,0:0:0:0:
8,316,149370,2,0,P|4:278|16:244,1,65,10|0,0:0|0:0,0:0:0:0:
28,168,149770,2,0,L|20:88,1,65
116,16,150170,2,0,L|131:161,1,130
192,204,150770,1,4,0:3:0:0:
268,240,150970,2,0,P|300:248|352:228,1,65,10|0,0:0|0:0,0:0:0:0:
476,208,151370,2,0,P|444:200|413:206,1,65,0|2,0:0|0:0,0:0:0:0:
352,328,151770,6,0,P|292:344|228:320,1,130,4|0,0:3|0:0,0:0:0:0:
164,268,152370,1,4,0:3:0:0:
96,316,152570,2,0,L|108:388,2,65,10|0|0,0:0|0:0|0:0,0:0:0:0:
40,220,153170,2,0,L|20:92,1,130,2|0,0:0|0:0,0:0:0:0:
68,24,153770,1,2,0:0:0:0:
144,112,153970,1,0,0:0:0:0:
144,112,154070,1,0,0:0:0:0:
144,112,154170,2,0,P|159:144|152:188,1,65,8|2,0:0|0:0,0:0:0:0:
124,252,154570,2,0,P|123:284|137:313,1,65
263,335,154970,6,0,B|298:326|317:309|317:309|333:272|331:219,1,130,4|0,0:0|0:0,0:0:0:0:
265,71,155770,2,0,B|230:80|211:97|211:97|195:134|197:187,1,130,2|0,0:0|0:0,0:0:0:0:
327,291,156570,2,0,P|374:301|447:260,1,130
468,176,157170,1,0,0:0:0:0:
406,109,157370,1,2,0:0:0:0:
315,118,157570,2,0,P|274:130|230:113,1,65
178,72,157970,1,2,0:0:0:0:
88,90,158170,6,0,B|49:167|49:167|58:229,1,130
203,315,158970,2,0,B|242:238|242:238|233:176,1,130,2|0,0:0|0:0,0:0:0:0:
209,107,159570,1,0,0:0:0:0:
278,47,159770,2,0,P|303:77|403:78,1,130
480,68,160370,1,0,0:0:0:0:
480,160,160570,1,2,0:0:0:0:
444,244,160770,2,0,P|416:280|384:292,2,65,0|0|2,0:0|0:0|0:0,0:0:0:0:
356,196,161370,6,0,P|312:208|212:184,1,130
304,24,162170,2,0,P|343:46|397:134,1,130,2|0,0:0|0:0,0:0:0:0:
352,292,162970,2,0,P|308:328|228:324,1,130
164,276,163570,2,0,P|148:316|152:368,1,65,0|2,0:0|0:0,0:0:0:0:
244,232,163970,2,0,P|260:192|256:140,1,65
212,52,164370,2,0,P|196:92|200:144,1,65,2|0,0:0|0:0,0:0:0:0:
256,284,164970,5,0,0:0:0:0:
408,184,165370,2,0,P|416:144|412:104,2,65,2|0|0,0:0|0:0|0:0,0:0:0:0:
320,212,165970,2,0,L|236:208,1,65,2|0,0:0|0:0,0:0:0:0:
180,156,166370,1,0,0:0:0:0:
155,68,166570,2,0,P|119:89|131:233,1,195,2|2,0:0|0:0,0:0:0:0:
200,272,167370,1,0,0:0:0:0:
262,205,167570,1,0,0:0:0:0:
309,127,167770,6,0,P|353:123|449:175,1,130
227,52,168570,2,0,P|183:48|87:100,1,130,2|0,0:0|0:0,0:0:0:0:
252,187,169370,1,0,0:0:0:0:
432,212,169770,1,0,0:0:0:0:
432,120,169970,2,0,L|432:44,1,65,0|2,0:0|0:0,0:0:0:0:
328,176,170370,2,0,L|328:100,1,65
256,56,170770,1,2,0:0:0:0:
172,92,170970,6,0,B|136:120|172:180|116:216,1,130
252,340,171770,2,0,B|217:312|253:252|206:223,1,130,2|0,0:0|0:0,0:0:0:0:
308,72,172570,2,0,P|348:92|444:72,1,130
476,160,173170,1,0,0:0:0:0:
440,244,173370,1,2,0:0:0:0:
360,288,173570,2,0,B|316:272|316:272|280:324|224:308,1,130,0|2,0:0|0:0,0:0:0:0:
180,248,174170,6,0,P|136:248|60:296,1,130
328,144,174970,2,0,P|372:144|448:96,1,130,2|0,0:0|0:0,0:0:0:0:
268,48,175770,1,0,0:0:0:0:
96,104,176170,1,0,0:0:0:0:
72,192,176370,2,0,B|84:232|60:276|60:276|80:324,2,130,2|0|2,0:0|0:0|0:0,0:0:0:0:
48,104,177370,5,0,0:0:0:0:
220,48,177770,1,0,0:0:0:0:
392,108,178170,2,0,P|440:88|464:68,2,65,2|0|0,0:0|0:0|0:0,0:0:0:0:
300,116,178770,2,0,P|264:164|292:228,1,130
374,289,179370,2,0,P|350:233|281:226,1,130,2|0,0:0|0:0,0:0:0:0:
186,263,179970,2,0,P|245:272|288:217,1,130,2|0,0:0|0:0,0:0:0:0:
243,100,180570,5,2,0:0:0:0:
