osu file format v14

[General]
AudioFilename: Hyper Potions - Porta Vista.mp3
AudioLeadIn: 0
PreviewTime: 26170
Countdown: 0
SampleSet: Normal
StackLeniency: 0.7
Mode: 0
LetterboxInBreaks: 0
WidescreenStoryboard: 0

[Editor]
Bookmarks: 14170,20570,39770,52570,65370,78170,103770,116570,120570,129370,135770,137170,148570,154970,167770,174170,180570
DistanceSpacing: 1.5
BeatDivisor: 4
GridSize: 4
TimelineZoom: 1

[Metadata]
Title:Porta Vista
TitleUnicode:Porta Vista
Artist:Hyper Potions
ArtistUnicode:Hyper Potions
Creator:jyu
Version:Another
Source:
Tags:monstercat alpacacokelat anrefm edm future bass
BeatmapID:728960
BeatmapSetID:328682

[Difficulty]
HPDrainRate:6.5
CircleSize:4.2
OverallDifficulty:7
ApproachRate:9
SliderMultiplier:1.5
SliderTickRate:1

[Events]
//Background and Video events
0,0,"bg.png",0,0
//Break Periods
2,78370,90495
//Storyboard Layer 0 (Background)
//Storyboard Layer 1 (Fail)
//Storyboard Layer 2 (Pass)
//Storyboard Layer 3 (Foreground)
//Storyboard Sound Samples

[TimingPoints]
1370,400,4,2,1,65,1,0
14170,-133.333333333333,4,2,1,65,0,0
26970,-100,4,1,1,80,0,1
38170,-100,4,1,1,30,0,0
39770,-100,4,1,1,80,0,1
52570,-125,4,1,2,70,0,0
63770,-125,4,1,2,30,0,0
65370,-125,4,1,2,70,0,0
90970,-200,4,2,1,30,0,0
97370,-200,4,2,2,30,0,0
100970,-200,4,2,3,30,0,0
101970,-200,4,2,2,30,0,0
103770,-166.666666666667,4,2,1,65,0,0
116570,-142.857142857143,4,2,4,55,0,0
122970,-125,4,2,4,55,0,0
126170,-111.111111111111,4,2,4,55,0,0
127770,-100,4,1,1,20,0,0
128970,-50,4,1,1,40,0,0
129370,-100,4,1,1,80,0,1
140570,-100,4,1,1,35,0,0
142170,-100,4,1,1,80,0,1
154970,-133.333333333333,4,2,2,70,0,0

[Colours]
Combo1 : 253,227,104
Combo2 : 28,176,240
Combo3 : 162,255,68
Combo4 : 128,255,255

[HitObjects]
116,100,14170,6,0,L|192:100,1,56.2500021457673,12|0,0:0|0:0,0:0:0:0:
256,164,14570,1,0,0:0:0:0:
344,100,14770,1,8,0:0:0:0:
192,248,14970,2,0,L|176:328,1,56.2500021457673,10|0,0:0|0:0,0:0:0:0:
324,248,15370,2,0,L|340:324,1,56.2500021457673,8|0,0:0|0:0,0:0:0:0:
388,84,15770,6,0,L|400:164,1,56.2500021457673,8|0,0:0|0:0,0:0:0:0:
284,160,16170,1,0,0:0:0:0:
200,96,16370,1,8,0:0:0:0:
120,28,16570,2,0,B|92:44|92:44|72:84,1,56.2500021457673,10|0,0:0|0:0,0:0:0:0:
92,184,16970,2,0,B|116:172|116:172|144:124,1,56.2500021457673,8|8,0:0|0:0,0:0:0:0:
200,96,17270,1,8,0:0:0:0:
200,96,17370,6,0,P|230:110|278:102,1,56.2500021457673,8|0,0:0|0:0,0:0:0:0:
352,200,17770,2,0,P|312:212|292:236,1,56.2500021457673,0|8,0:0|0:0,0:0:0:0:
200,332,18170,1,10,0:0:0:0:
312,332,18370,1,0,0:0:0:0:
188,332,18570,2,0,B|168:304|168:304|168:260,1,56.2500021457673,8|0,0:0|0:0,0:0:0:0:
128,120,18970,6,0,P|164:92|196:88,1,56.2500021457673,8|0,0:0|0:0,0:0:0:0:
288,140,19370,2,0,P|324:130|344:112,1,56.2500021457673,0|8,0:0|0:0,0:0:0:0:
452,28,19770,1,10,0:0:0:0:
452,160,19970,1,8,0:0:0:0:
452,160,20070,1,8,0:0:0:0:
452,160,20170,5,0,0:0:0:0:
440,200,20270,1,8,0:0:0:0:
408,228,20370,1,8,0:0:0:0:
368,240,20470,1,8,0:0:0:0:
324,236,20570,6,0,B|288:224|284:184,1,56.2500021457673,4|0,0:0|0:0,0:0:0:0:
312,40,20970,2,0,B|348:52|352:92,1,56.2500021457673,0|8,0:0|0:0,0:0:0:0:
160,200,21370,2,0,B|124:188|116:148,1,56.2500021457673,10|0,0:0|0:0,0:0:0:0:
278,201,21770,2,0,B|314:213|318:250,1,56.2500021457673,8|0,0:0|0:0,0:0:0:0:
124,292,22170,5,8,0:0:0:0:
36,220,22370,1,0,0:0:0:0:
80,116,22570,1,0,0:0:0:0:
168,184,22770,1,8,0:0:0:0:
348,188,22970,5,10,0:0:0:0:
420,100,23170,1,0,0:0:0:0:
348,12,23370,1,8,0:0:0:0:
256,184,23570,1,8,0:0:0:0:
256,184,23670,1,8,0:0:0:0:
256,184,23770,5,0,0:0:0:0:
267,219,23870,1,0,0:0:0:0:
290,248,23970,1,0,0:0:0:0:
321,269,24070,1,0,0:0:0:0:
358,278,24170,1,8,0:0:0:0:
395,274,24270,1,0,0:0:0:0:
429,258,24370,1,0,0:0:0:0:
456,233,24470,1,0,0:0:0:0:
472,199,24570,5,8,0:0:0:0:
477,162,24670,1,0,0:0:0:0:
470,126,24770,1,0,0:0:0:0:
450,94,24870,1,0,0:0:0:0:
422,70,24970,1,8,0:0:0:0:
387,57,25070,1,0,0:0:0:0:
349,56,25170,1,0,0:0:0:0:
314,68,25270,1,0,0:0:0:0:
280,82,25370,6,0,L|228:100,1,28.1250010728836,8|0,0:0|0:0,0:0:0:0:
216,180,25570,2,0,L|248:166,1,28.1250010728836,8|0,0:0|0:0,0:0:0:0:
168,118,25770,2,0,L|120:136,1,28.1250010728836,8|0,0:0|0:0,0:0:0:0:
104,216,25970,2,0,L|136:204,1,28.1250010728836,8|0,0:0|0:0,0:0:0:0:
40,40,26970,6,0,P|40:100|56:144,1,75,4|0,0:0|0:0,0:0:0:0:
172,196,27370,2,0,P|172:136|156:92,1,75
232,56,27670,1,0,0:0:0:0:
232,56,27770,2,0,P|292:72|324:68,1,75,10|0,0:0|0:0,0:0:0:0:
440,140,28170,2,0,P|396:156|364:192,1,75
181,259,28570,6,0,L|256:252,1,75
164,164,28970,2,0,L|89:171,1,75,0|4,0:0|0:3,0:0:0:0:
156,88,29270,1,0,0:0:0:0:
156,88,29370,2,0,P|204:96|232:128,1,75,10|0,0:0|0:0,0:0:0:0:
308,208,29770,2,0,P|338:186|374:181,1,75
488,288,30170,6,0,P|458:310|422:315,1,75,4|0,0:3|0:0,0:0:0:0:
308,208,30570,1,0,0:0:0:0:
228,332,30770,2,0,L|180:320,1,37.5,4|0,0:3|0:0,0:0:0:0:
116,304,30970,2,0,B|144:264|144:264|152:216,1,75,10|0,0:0|0:0,0:0:0:0:
108,88,31370,2,0,B|80:128|80:128|72:176,1,75,2|0,0:0|0:0,0:0:0:0:
228,124,31770,5,2,0:0:0:0:
320,88,31970,1,0,0:0:0:0:
456,180,32170,1,2,0:0:0:0:
364,216,32370,1,0,0:0:0:0:
364,216,32470,1,0,0:0:0:0:
364,216,32570,2,0,L|280:236,1,75,10|0,0:0|0:0,0:0:0:0:
208,340,32970,1,2,0:0:0:0:
144,224,33170,1,0,0:0:0:0:
48,196,33370,6,0,P|76:148|120:128,1,75,4|0,0:0|0:0,0:0:0:0:
216,96,33770,2,0,P|280:68|296:40,1,75
356,28,34070,1,0,0:0:0:0:
356,28,34170,2,0,L|436:44,1,75,10|0,0:0|0:0,0:0:0:0:
460,168,34570,2,0,L|386:153,1,75
272,164,34970,6,0,L|220:244,1,75
100,196,35370,2,0,L|140:133,1,75,0|4,0:0|0:3,0:0:0:0:
180,76,35670,1,0,0:0:0:0:
180,76,35770,2,0,P|228:72|264:48,1,75,10|0,0:0|0:0,0:0:0:0:
404,72,36170,2,0,P|376:95|358:128,1,75
376,276,36570,6,0,P|403:252|421:219,1,75,4|0,0:3|0:0,0:0:0:0:
284,120,36970,1,0,0:0:0:0:
180,236,37170,2,0,L|152:276,1,37.5,4|0,0:3|0:0,0:0:0:0:
112,200,37370,2,0,L|160:136,1,75,10|0,0:0|0:0,0:0:0:0:
325,57,37770,2,0,L|277:129,1,75,2|0,0:0|0:0,0:0:0:0:
256,192,38170,12,0,39370,0:0:0:0:
404,60,39770,6,0,P|364:80|320:80,1,75,4|0,0:0|0:0,0:0:0:0:
212,48,40170,2,0,P|164:56|120:80,1,75
88,136,40470,1,0,0:0:0:0:
88,136,40570,2,0,P|52:92|48:52,1,75,10|0,0:0|0:0,0:0:0:0:
192,152,40970,2,0,P|228:196|232:236,1,75
360,208,41370,6,0,L|432:160,1,75
396,40,41770,2,0,P|356:56|312:52,1,75,0|4,0:0|0:3,0:0:0:0:
240,32,42070,1,0,0:0:0:0:
240,32,42170,2,0,P|184:36|156:56,1,75,10|0,0:0|0:0,0:0:0:0:
100,156,42570,2,0,P|156:152|184:132,1,75
340,128,42970,6,0,P|380:128|432:156,1,75,4|0,0:3|0:0,0:0:0:0:
476,252,43370,1,0,0:0:0:0:
348,260,43570,2,0,L|296:268,1,37.5,4|0,0:3|0:0,0:0:0:0:
242,278,43770,2,0,P|218:242|174:218,1,75,10|0,0:0|0:0,0:0:0:0:
100,148,44170,2,0,P|136:100|136:52,1,75,2|0,0:0|0:0,0:0:0:0:
264,64,44570,5,2,0:0:0:0:
388,84,44770,1,0,0:0:0:0:
264,64,44970,1,2,0:0:0:0:
144,92,45170,1,0,0:0:0:0:
144,92,45270,1,0,0:0:0:0:
144,92,45370,2,0,P|180:144|204:156,1,75,10|0,0:0|0:0,0:0:0:0:
332,152,45770,1,2,0:0:0:0:
396,248,45970,1,0,0:0:0:0:
276,296,46170,6,0,L|176:312,1,75,4|0,0:0|0:0,0:0:0:0:
144,196,46570,2,0,L|44:212,1,75
96,124,46870,1,0,0:0:0:0:
96,124,46970,2,0,L|184:112,1,75,10|0,0:0|0:0,0:0:0:0:
300,116,47370,2,0,P|352:144|396:144,1,75
296,43,47770,6,0,P|289:81|303:122,1,75
456,184,48170,2,0,P|462:145|448:104,1,75,0|4,0:0|0:3,0:0:0:0:
370,37,48470,1,0,0:0:0:0:
370,37,48570,2,0,L|295:43,1,75,10|0,0:0|0:0,0:0:0:0:
104,136,48970,2,0,P|142:135|178:125,1,75
324,144,49370,6,0,P|384:184|392:208,1,75,4|0,0:3|0:0,0:0:0:0:
340,304,49770,1,0,0:0:0:0:
216,268,49970,2,0,L|176:312,1,37.5,4|0,0:3|0:0,0:0:0:0:
148,224,50170,2,0,P|180:194|240:192,1,75,10|0,0:0|0:0,0:0:0:0:
324,144,50570,2,0,P|388:120|408:96,1,75,2|0,0:0|0:0,0:0:0:0:
284,52,50970,5,2,0:0:0:0:
172,116,51170,1,0,0:0:0:0:
55,52,51370,1,2,0:0:0:0:
40,192,51570,1,0,0:0:0:0:
40,192,51670,1,0,0:0:0:0:
40,192,51770,2,0,L|32:236,3,37.5,10|0|0|0,0:0|0:0|0:0|0:0,0:0:0:0:
36,276,52170,5,2,0:0:0:0:
64,316,52270,1,0,0:0:0:0:
108,336,52370,1,0,0:0:0:0:
156,340,52470,1,0,0:0:0:0:
204,328,52570,5,4,0:0:0:0:
320,264,52770,1,0,0:0:0:0:
320,264,52870,1,0,0:0:0:0:
320,264,52970,2,0,P|328:224|324:184,1,60
240,148,53370,2,0,B|200:180|200:180|144:188,1,90,10|0,0:0|0:0,0:0:0:0:
164,104,53770,2,0,B|204:72|204:72|248:68,1,90
336,68,54170,6,0,P|376:64|408:40,2,60
242,68,54770,1,4,3:0:0:0:
242,68,54970,2,0,P|178:84|144:76,1,90,10|0,0:0|0:0,0:0:0:0:
92,124,55370,2,0,P|136:150|180:152,1,90
200,148,55770,5,4,0:3:0:0:
216,272,55970,2,0,L|220:308,1,30
216,252,56170,2,0,P|264:256|292:236,1,60,0|4,0:0|0:3,0:0:0:0:
360,240,56570,2,0,P|408:232|464:252,1,90,10|0,0:0|0:0,0:0:0:0:
508,288,56970,2,0,P|490:233|496:180,1,90,2|0,0:0|0:0,0:0:0:0:
416,124,57370,6,0,L|352:108,1,60
112,128,57770,2,0,L|184:112,1,60
248,104,58070,1,0,0:0:0:0:
248,104,58170,5,10,0:0:0:0:
184,196,58370,1,0,0:0:0:0:
268,272,58570,1,2,0:0:0:0:
324,172,58770,1,0,0:0:0:0:
408,244,58970,6,0,B|432:212|432:212|428:168,1,60,4|0,0:0|0:0,0:0:0:0:
430,192,59270,1,0,0:0:0:0:
430,192,59370,2,0,L|416:116,1,60
303,49,59770,2,0,L|320:156,1,90,10|0,0:0|0:0,0:0:0:0:
324,156,60170,2,0,P|264:148|222:178,1,90
240,176,60570,6,0,P|244:232|240:252,2,60
108,216,61170,1,4,3:0:0:0:
108,216,61370,2,0,P|96:148|96:104,1,90,10|0,0:0|0:0,0:0:0:0:
64,60,61770,2,0,P|120:84|176:76,1,90
208,48,62170,5,4,0:3:0:0:
328,80,62370,2,0,P|352:88|376:88,1,30
308,76,62570,2,0,P|292:116|296:156,1,60,0|4,0:0|0:3,0:0:0:0:
320,272,62970,2,0,P|272:248|208:248,1,90,10|0,0:0|0:0,0:0:0:0:
224,248,63370,2,0,P|177:266|144:268,1,60,2|0,0:0|0:0,0:0:0:0:
256,192,63770,12,0,64970,0:0:0:0:
184,48,65370,5,4,0:0:0:0:
264,96,65570,1,0,0:0:0:0:
280,104,65670,1,0,0:0:0:0:
296,112,65770,2,0,P|280:160|280:192,1,60
368,200,66070,1,0,0:0:0:0:
368,200,66170,2,0,P|384:152|376:108,1,90,10|0,0:0|0:0,0:0:0:0:
378,113,66570,2,0,P|354:61|312:32,1,90
314,32,66970,6,0,P|263:43|232:36,1,60
144,28,67370,1,0,0:0:0:0:
68,104,67570,1,4,0:3:0:0:
132,176,67770,2,0,B|176:192|176:192|236:180,1,90,10|0,0:0|0:0,0:0:0:0:
218,183,68170,2,0,P|261:165|320:172,1,90
372,192,68570,5,4,0:3:0:0:
424,308,68770,2,0,B|428:332|428:332|428:348,1,30
420,288,68970,2,0,P|376:308|344:312,1,60,0|4,0:0|0:3,0:0:0:0:
288,340,69270,1,0,0:0:0:0:
288,340,69370,2,0,P|232:316|192:328,1,90,10|0,0:0|0:0,0:0:0:0:
205,321,69770,2,0,P|213:272|200:208,1,90,2|0,0:0|0:0,0:0:0:0:
164,164,70170,6,0,P|205:141|228:112,1,60
352,120,70570,2,0,P|311:143|290:170,1,60
286,226,70870,1,0,0:0:0:0:
286,226,70970,5,10,0:0:0:0:
398,206,71170,1,0,0:0:0:0:
166,206,71370,1,2,0:0:0:0:
288,236,71570,1,0,0:0:0:0:
264,80,71770,6,0,P|208:60|184:60,1,60,4|0,0:0|0:0,0:0:0:0:
164,60,72070,1,0,0:0:0:0:
124,80,72170,2,0,P|112:120|96:144,1,60
68,164,72470,1,0,0:0:0:0:
68,164,72570,2,0,P|112:172|160:216,1,90,10|0,0:0|0:0,0:0:0:0:
224,200,72970,2,0,P|268:160|308:156,1,90
368,192,73370,6,0,L|388:256,2,60
344,80,73970,1,4,0:3:0:0:
240,120,74170,2,0,P|192:128|136:96,1,90,10|0,0:0|0:0,0:0:0:0:
92,44,74570,2,0,P|64:88|68:144,1,90
84,200,74970,5,4,0:3:0:0:
176,280,75170,1,0,0:0:0:0:
180,260,75270,1,0,0:0:0:0:
184,240,75370,2,0,P|204:196|232:172,1,60,0|4,0:0|0:3,0:0:0:0:
252,152,75670,1,0,0:0:0:0:
304,172,75770,2,0,P|352:184|412:168,1,90,10|0,0:0|0:0,0:0:0:0:
399,72,76170,2,0,P|351:60|292:80,1,90,2|0,0:0|0:0,0:0:0:0:
192,112,76570,5,4,0:0:0:0:
256,192,76670,12,4,78170,0:0:0:0:
80,180,91170,5,0,0:0:0:0:
140,136,91370,1,0,0:0:0:0:
208,168,91570,1,0,0:0:0:0:
252,108,91770,1,2,0:0:0:0:
184,80,91970,1,0,0:0:0:0:
140,136,92170,1,0,0:0:0:0:
208,168,92370,1,0,0:0:0:0:
364,240,92770,6,0,P|344:264|328:272,2,37.5
404,172,93370,2,0,L|400:128,1,37.5,2|0,0:0|0:0,0:0:0:0:
320,92,93770,2,0,L|324:144,1,37.5
112,208,94370,5,0,0:0:0:0:
76,272,94570,1,0,0:0:0:0:
132,324,94770,1,0,0:0:0:0:
208,248,94970,1,2,0:0:0:0:
192,144,95170,1,0,0:0:0:0:
96,104,95370,1,0,0:0:0:0:
112,208,95570,1,0,0:0:0:0:
264,96,95770,6,0,L|304:64,1,37.5
388,104,96170,2,0,L|348:136,1,37.5
148,96,96570,2,0,L|199:95,1,37.5,2|0,0:0|0:0,0:0:0:0:
248,176,96970,2,0,L|196:178,1,37.5
152,320,97570,5,0,0:0:0:0:
232,348,97770,1,0,0:0:0:0:
364,248,97970,1,2,0:0:0:0:
360,236,98370,5,0,0:0:0:0:
276,216,98570,1,0,0:0:0:0:
172,100,98770,1,2,0:0:0:0:
168,88,99170,5,0,0:0:0:0:
248,116,99370,1,0,0:0:0:0:
392,40,99570,1,2,0:0:0:0:
400,64,99970,5,0,0:0:0:0:
328,100,100170,1,0,0:0:0:0:
156,32,100370,1,2,0:0:0:0:
452,336,100970,5,2,0:0:0:0:
456,320,101370,2,0,P|464:288|464:272,1,37.5,2|0,0:0|0:0,0:0:0:0:
404,184,101770,2,0,P|396:200|396:224,1,37.5,2|0,0:0|0:0,0:0:0:0:
352,324,102170,2,0,P|328:284|296:272,1,75,2|0,0:0|0:0,0:0:0:0:
188,212,102770,2,0,P|232:200|256:168,1,75,2|0,0:0|0:0,0:0:0:0:
268,48,103370,1,2,0:0:0:0:
332,96,103570,1,0,0:0:0:0:
396,48,103770,6,0,B|436:76|436:76|444:128,1,89.9999972534181,8|0,0:0|0:0,0:0:0:0:
360,192,104370,1,8,0:0:0:0:
268,168,104570,2,0,L|208:184,1,44.999998626709,10|0,0:0|0:0,0:0:0:0:
248,96,104970,2,0,L|312:80,1,44.999998626709,8|0,0:0|0:0,0:0:0:0:
224,24,105370,6,0,B|176:32|176:32|152:72,1,89.9999972534181,8|0,0:0|0:0,0:0:0:0:
152,192,105970,1,8,0:0:0:0:
235,97,106170,1,10,0:0:0:0:
308,200,106370,1,0,0:0:0:0:
152,192,106570,1,8,0:0:0:0:
148,280,106770,1,8,0:0:0:0:
148,280,106870,1,8,0:0:0:0:
148,280,106970,6,0,B|180:284|196:312|196:312|224:312|236:288,1,89.9999972534181,8|0,0:0|0:0,0:0:0:0:
284,232,107570,1,8,0:0:0:0:
356,176,107770,2,0,P|384:188|408:208,1,44.999998626709,10|0,0:0|0:0,0:0:0:0:
292,100,108170,2,0,P|252:80|244:72,1,44.999998626709,8|0,0:0|0:0,0:0:0:0:
176,40,108570,6,0,B|148:52|120:40|120:40|92:56|104:84,1,89.9999972534181,8|0,0:0|0:0,0:0:0:0:
116,164,109170,1,8,0:0:0:0:
224,128,109370,1,10,0:0:0:0:
308,200,109570,1,8,0:0:0:0:
308,200,109670,1,8,0:0:0:0:
308,200,109770,1,8,0:0:0:0:
316,40,109970,1,8,0:0:0:0:
400,32,110170,6,0,P|428:52|456:56,1,44.999998626709,8|0,0:0|0:0,0:0:0:0:
356,104,110570,2,0,P|332:120|304:128,1,44.999998626709,0|8,0:0|0:0,0:0:0:0:
388,216,110970,1,10,0:0:0:0:
308,296,111170,1,0,0:0:0:0:
200,260,111370,2,0,P|143:260|120:252,1,67.4999979400635,8|0,0:0|0:0,0:0:0:0:
112,252,111770,6,0,P|136:192|140:156,1,89.9999972534181,8|0,0:0|0:0,0:0:0:0:
96,84,112370,1,8,0:0:0:0:
60,168,112570,1,10,0:0:0:0:
188,96,112770,1,0,0:0:0:0:
268,140,112970,1,8,0:0:0:0:
348,96,113170,1,8,0:0:0:0:
348,96,113270,1,8,0:0:0:0:
348,96,113370,6,0,P|384:100|408:108,1,44.999998626709,8|0,0:0|0:0,0:0:0:0:
436,188,113770,2,0,P|396:184|380:176,1,44.999998626709,0|8,0:0|0:0,0:0:0:0:
268,140,114170,1,10,0:0:0:0:
156,84,114370,1,0,0:0:0:0:
76,180,114570,2,0,P|64:224|72:260,1,67.4999979400635,8|0,0:0|0:0,0:0:0:0:
80,272,114970,6,0,B|124:248|124:248|184:248,1,89.9999972534181,8|0,0:0|0:0,0:0:0:0:
280,264,115570,1,8,0:0:0:0:
344,176,115770,2,0,L|332:116,1,44.999998626709,10|0,0:0|0:0,0:0:0:0:
408,48,116170,2,0,L|420:108,1,44.999998626709
448,244,116570,5,6,0:0:0:0:
448,244,116970,1,2,0:0:0:0:
276,332,117370,2,0,L|200:328,1,52.4999983978272,10|0,0:0|0:0,0:0:0:0:
164,236,117770,2,0,L|228:240,1,52.4999983978272,10|0,0:0|0:0,0:0:0:0:
284,120,118170,2,0,L|160:116,1,104.999996795654,10|2,0:0|0:0,0:0:0:0:
124,48,118770,1,8,0:0:0:0:
124,48,118970,2,0,P|92:100|104:160,1,104.999996795654,10|10,0:0|0:0,0:0:0:0:
136,260,119570,1,8,0:0:0:0:
156,260,119670,1,8,0:0:0:0:
176,260,119770,5,2,0:0:0:0:
400,344,120170,1,2,0:0:0:0:
252,176,120570,2,0,L|228:116,1,52.4999983978272,10|0,0:0|0:0,0:0:0:0:
144,204,120970,2,0,L|168:264,1,52.4999983978272,10|0,0:0|0:0,0:0:0:0:
152,80,121370,2,0,P|192:48|268:40,1,104.999996795654,10|2,0:0|0:0,0:0:0:0:
336,92,121970,1,8,0:0:0:0:
428,40,122170,1,10,0:0:0:0:
456,156,122370,6,0,L|484:196,2,26.2499991989136,8|8|2,0:0|0:0|0:0,0:0:0:0:
440,164,122670,1,8,0:0:0:0:
428,176,122770,1,8,0:0:0:0:
412,188,122870,1,8,0:0:0:0:
396,200,122970,6,0,L|336:248,1,60,6|2,0:0|0:0,0:0:0:0:
228,200,123370,2,0,L|280:156,1,60,2|10,0:0|0:0,0:0:0:0:
336,44,123770,1,10,0:0:0:0:
224,80,123970,1,2,0:0:0:0:
116,28,124170,1,10,0:0:0:0:
60,136,124370,1,2,0:0:0:0:
48,256,124570,6,0,L|32:324,1,60,10|2,0:0|0:0,0:0:0:0:
156,208,124970,2,0,L|168:284,1,60,2|10,0:0|0:0,0:0:0:0:
264,336,125370,1,10,0:0:0:0:
384,340,125570,1,2,0:0:0:0:
444,236,125770,1,10,0:0:0:0:
368,156,125970,1,10,0:0:0:0:
368,156,126070,1,10,0:0:0:0:
368,156,126170,6,0,L|356:100,3,33.7499989700318,10|2|2|2,0:0|0:0|0:0|0:0,0:0:0:0:
272,184,126570,2,0,L|268:232,3,33.7499989700318,10|2|2|2,0:0|0:0|0:0|0:0,0:0:0:0:
192,136,126970,2,0,L|184:96,3,33.7499989700318,10|2|2|2,0:0|0:0|0:0|0:0,0:0:0:0:
148,48,127370,5,10,0:0:0:0:
84,52,127470,1,2,0:0:0:0:
44,100,127570,1,2,0:0:0:0:
36,164,127670,1,2,0:0:0:0:
68,220,127770,5,2,0:0:0:0:
68,220,128170,5,2,0:0:0:0:
172,260,128370,1,2,0:0:0:0:
260,200,128570,1,2,0:0:0:0:
68,220,128970,6,0,B|114:251|114:251|157:228|157:228|227:264|269:187,1,225
368,180,129370,6,0,P|332:140|288:124,1,75,4|0,0:0|0:0,0:0:0:0:
168,48,129770,2,0,P|204:88|248:104,1,75
459,60,130170,2,0,P|392:29|320:42,1,150,10|0,0:0|0:0,0:0:0:0:
222,97,130770,1,0,0:0:0:0:
124,200,130970,6,0,L|115:283,1,75
222,97,131370,1,0,0:0:0:0:
337,169,131570,2,0,L|332:252,1,75,4|10,0:3|0:0,0:0:0:0:
248,352,131970,2,0,P|196:310|189:274,1,75
75,163,132370,1,2,0:0:0:0:
244,200,132570,6,0,P|268:146|263:101,1,75,4|0,0:3|0:0,0:0:0:0:
112,20,132970,2,0,P|88:74|93:119,1,75,0|4,0:0|0:3,0:0:0:0:
268,272,133370,2,0,P|341:280|399:236,1,150,10|0,0:0|0:0,0:0:0:0:
300,88,133970,1,0,0:0:0:0:
160,200,134170,6,0,L|86:213,1,75
244,268,134570,2,0,L|318:255,1,75
392,244,134870,1,0,0:0:0:0:
392,244,134970,1,10,0:0:0:0:
456,116,135170,2,0,P|428:76|380:64,2,75,0|0|2,0:0|0:0|0:0,0:0:0:0:
330,53,135770,6,0,P|281:46|238:54,1,75,4|0,0:0|0:0,0:0:0:0:
132,144,136170,2,0,P|181:151|224:143,1,75
452,188,136570,2,0,P|411:215|307:227,1,150,10|0,0:0|0:0,0:0:0:0:
92,156,137170,1,0,0:0:0:0:
109,33,137370,6,0,L|184:40,1,75
336,124,137770,1,0,0:0:0:0:
256,248,137970,1,4,0:3:0:0:
176,124,138170,1,10,0:0:0:0:
328,40,138370,2,0,L|416:32,1,75
376,144,138770,2,0,L|301:150,1,75,2|4,0:0|0:3,0:0:0:0:
288,152,139370,5,0,0:0:0:0:
208,72,139570,1,4,0:3:0:0:
120,144,139770,2,0,P|56:156|16:144,2,75,10|0|0,0:0|0:0|0:0,0:0:0:0:
208,72,140370,1,0,0:0:0:0:
244,180,140570,6,0,L|242:221,3,37.5
296,236,140970,2,0,L|296:278,3,37.5
324,316,141370,5,0,0:0:0:0:
372,300,141470,1,0,0:0:0:0:
408,264,141570,1,0,0:0:0:0:
424,220,141670,1,0,0:0:0:0:
432,160,141770,5,0,0:0:0:0:
400,108,141870,1,0,0:0:0:0:
348,80,141970,1,0,0:0:0:0:
288,80,142070,1,0,0:0:0:0:
232,104,142170,6,0,P|182:114|132:103,1,75,4|0,0:0|0:0,0:0:0:0:
348,80,142570,2,0,P|398:70|448:81,1,75
272,204,142970,2,0,P|208:224|116:212,1,150,10|0,0:0|0:0,0:0:0:0:
32,156,143570,1,0,0:0:0:0:
148,64,143770,6,0,P|184:55|221:57,1,75
276,156,144170,1,0,0:0:0:0:
384,192,144370,1,4,0:3:0:0:
424,88,144570,1,10,0:0:0:0:
448,292,144770,2,0,L|480:372,1,75
384,192,145170,2,0,L|416:112,1,75,2|4,0:0|0:3,0:0:0:0:
324,40,145570,5,0,0:0:0:0:
288,148,145770,2,0,P|240:116|224:80,1,75,0|4,0:0|0:3,0:0:0:0:
52,132,146170,2,0,P|44:184|72:276,1,150,10|0,0:0|0:0,0:0:0:0:
168,348,146770,1,0,0:0:0:0:
256,192,146970,5,0,0:0:0:0:
373,243,147170,2,0,L|370:332,2,75
409,183,147670,1,0,0:0:0:0:
409,183,147770,1,10,0:0:0:0:
326,115,147970,2,0,P|282:91|258:59,1,75
159,16,148370,1,2,0:0:0:0:
130,132,148570,6,0,P|74:148|26:140,1,75,4|0,0:0|0:0,0:0:0:0:
122,248,148970,2,0,P|178:264|226:256,1,75
430,164,149370,2,0,P|360:142|289:163,1,150,10|0,0:0|0:0,0:0:0:0:
201,243,149970,1,0,0:0:0:0:
285,331,150170,2,0,P|355:352|426:332,1,150
394,215,150770,5,4,0:3:0:0:
274,208,150970,1,10,0:0:0:0:
392,52,151170,1,0,0:0:0:0:
464,144,151370,1,0,0:0:0:0:
213,135,151570,1,2,0:0:0:0:
296,49,151770,1,4,0:3:0:0:
304,50,152170,5,0,0:0:0:0:
221,136,152370,1,4,0:3:0:0:
98,74,152570,2,0,L|78:165,2,75,10|0|0,0:0|0:0|0:0,0:0:0:0:
153,200,153170,2,0,L|173:291,1,75,2|0,0:0|0:0,0:0:0:0:
77,351,153570,5,0,0:0:0:0:
271,296,153770,2,0,P|307:288|344:294,1,75,2|0,0:0|0:0,0:0:0:0:
422,332,154070,1,0,0:0:0:0:
422,332,154170,1,8,0:0:0:0:
469,221,154370,1,2,0:0:0:0:
431,66,154570,1,0,0:0:0:0:
370,169,154770,1,0,0:0:0:0:
340,60,154970,6,0,L|279:66,1,56.2500021457673,4|0,0:0|0:0,0:0:0:0:
199,155,155370,2,0,L|254:149,1,56.2500021457673
161,74,155770,2,0,L|100:80,1,56.2500021457673,2|0,0:0|0:0,0:0:0:0:
20,169,156170,2,0,L|75:163,1,56.2500021457673
196,236,156570,5,0,0:0:0:0:
184,280,156770,1,0,0:0:0:0:
328,280,156970,1,0,0:0:0:0:
316,236,157170,1,0,0:0:0:0:
220,144,157370,5,2,0:0:0:0:
172,120,157570,1,0,0:0:0:0:
252,48,157770,1,0,0:0:0:0:
300,72,157970,1,2,0:0:0:0:
344,152,158170,6,0,P|368:128|376:104,1,56.2500021457673
231,213,158570,2,0,P|262:213|292:195,1,56.2500021457673
114,167,158970,2,0,P|133:190|164:198,1,56.2500021457673,2|0,0:0|0:0,0:0:0:0:
80,49,159370,2,0,P|71:78|77:110,1,56.2500021457673
217,39,159770,6,0,L|162:33,1,56.2500021457673
272,96,160170,2,0,L|232:140,1,56.2500021457673
352,144,160570,2,0,L|352:204,1,56.2500021457673,2|0,0:0|0:0,0:0:0:0:
448,160,160970,2,0,L|469:217,1,56.2500021457673,0|2,0:0|0:0,0:0:0:0:
392,272,161370,5,0,0:0:0:0:
332,324,161570,1,0,0:0:0:0:
268,272,161770,2,0,L|209:276,1,56.2500021457673
87,275,162170,5,2,0:0:0:0:
147,327,162370,1,0,0:0:0:0:
211,275,162570,2,0,L|269:283,1,56.2500021457673
324,188,162970,6,0,L|338:131,1,56.2500021457673
263,63,163370,2,0,L|249:117,1,56.2500021457673
160,172,163770,1,2,0:0:0:0:
52,192,163970,2,0,P|60:216|78:245,1,56.2500021457673
237,242,164370,2,0,P|251:218|260:191,1,56.2500021457673,2|0,0:0|0:0,0:0:0:0:
260,72,164770,5,0,0:0:0:0:
320,128,164970,1,0,0:0:0:0:
392,84,165170,1,0,0:0:0:0:
448,156,165370,2,0,L|463:215,2,56.2500021457673,2|0|0,0:0|0:0|0:0,0:0:0:0:
360,216,165970,6,0,L|350:273,1,56.2500021457673,2|0,0:0|0:0,0:0:0:0:
264,324,166370,1,0,0:0:0:0:
74,245,166570,2,0,P|159:257|250:226,1,168.750006437302,2|2,0:0|0:0,0:0:0:0:
300,168,167370,1,0,0:0:0:0:
192,91,167570,1,0,0:0:0:0:
312,42,167770,6,0,P|336:46|370:39,1,56.2500021457673
414,153,168170,2,0,P|398:177|394:206,1,56.2500021457673
284,288,168570,2,0,P|264:272|175:263,1,112.500004291535,2|0,0:0|0:0,0:0:0:0:
87,239,169170,1,0,0:0:0:0:
36,141,169370,2,0,P|56:125|141:113,1,112.500004291535
232,160,169970,2,0,L|289:177,1,56.2500021457673,0|2,0:0|0:0,0:0:0:0:
372,108,170370,2,0,L|312:92,1,56.2500021457673
405,27,170770,2,0,L|462:41,1,56.2500021457673,2|0,0:0|0:0,0:0:0:0:
459,40,171370,5,0,0:0:0:0:
431,137,171570,1,0,0:0:0:0:
367,216,171770,2,0,L|338:329,1,112.500004291535,2|0,0:0|0:0,0:0:0:0:
318,136,172370,1,0,0:0:0:0:
219,191,172570,2,0,L|202:249,1,56.2500021457673
136,136,172970,2,0,L|155:77,2,56.2500021457673,0|0|2,0:0|0:0|0:0,0:0:0:0:
72,228,173570,2,0,P|80:260|143:320,1,112.500004291535,0|2,0:0|0:0,0:0:0:0:
233,335,174170,5,0,0:0:0:0:
352,240,174570,2,0,L|297:229,1,56.2500021457673
244,136,174970,2,0,B|302:141|302:141|355:108,1,112.500004291535,2|0,0:0|0:0,0:0:0:0:
252,32,175570,1,0,0:0:0:0:
144,64,175770,6,0,L|102:175,1,112.500004291535
73,266,176370,1,0,0:0:0:0:
174,231,176570,1,2,0:0:0:0:
270,260,176770,2,0,P|310:272|333:270,1,56.2500021457673
352,136,177170,2,0,P|312:124|290:124,1,56.2500021457673,2|0,0:0|0:0,0:0:0:0:
297,123,177770,5,0,0:0:0:0:
220,48,177970,1,0,0:0:0:0:
124,108,178170,2,0,P|96:120|68:121,2,56.2500021457673,2|0|0,0:0|0:0|0:0,0:0:0:0:
220,168,178770,2,0,P|224:200|221:230,1,56.2500021457673,2|0,0:0|0:0,0:0:0:0:
160,296,179170,5,0,0:0:0:0:
160,296,179370,2,0,P|194:264|313:272,1,168.750006437302,2|2,0:0|0:0,0:0:0:0:
387,334,180170,1,0,0:0:0:0:
404,196,180370,1,0,0:0:0:0:
344,96,180570,1,2,0:0:0:0:
