osu file format v14

[General]
AudioFilename: Hyper Potions - Porta Vista.mp3
AudioLeadIn: 0
PreviewTime: 26170
Countdown: 0
SampleSet: Soft
StackLeniency: 0.7
Mode: 0
LetterboxInBreaks: 0
WidescreenStoryboard: 0

[Editor]
Bookmarks: 14170,26970,52570,78170,90970,103770,116570,129370,148570,180570
DistanceSpacing: 1.2
BeatDivisor: 4
GridSize: 4
TimelineZoom: 1

[Metadata]
Title:Porta Vista
TitleUnicode:Porta Vista
Artist:Hyper Potions
ArtistUnicode:Hyper Potions
Creator:jyu
Version:Advanced
Source:
Tags:monstercat alpacacokelat anrefm edm future bass
BeatmapID:744707
BeatmapSetID:328682

[Difficulty]
HPDrainRate:4
CircleSize:3.6
OverallDifficulty:4
ApproachRate:5
SliderMultiplier:1.1
SliderTickRate:1

[Events]
//Background and Video events
0,0,"bg.png",0,0
//Break Periods
2,78370,89770
2,155170,166570
//Storyboard Layer 0 (Background)
//Storyboard Layer 1 (Fail)
//Storyboard Layer 2 (Pass)
//Storyboard Layer 3 (Foreground)
//Storyboard Sound Samples

[TimingPoints]
1370,400,4,2,1,65,1,0
26070,-100,4,2,1,30,0,0
26970,-100,4,1,1,80,0,1
38170,-100,4,2,1,30,0,0
39770,-100,4,1,1,80,0,1
52570,-100,4,1,2,70,0,0
63770,-100,4,2,2,30,0,0
65370,-100,4,1,2,70,0,0
76570,-100,4,2,1,30,0,0
90970,-133.333333333333,4,2,1,30,0,0
100570,-133.333333333333,4,2,2,30,0,0
103770,-100,4,2,1,65,0,0
116570,-100,4,2,4,55,0,0
127770,-100,4,2,1,30,0,0
129370,-100,4,1,1,80,0,1
140570,-100,4,1,1,30,0,0
142170,-100,4,1,1,80,0,1
154970,-100,4,1,1,20,0,0
167770,-100,4,2,2,70,0,0

[Colours]
Combo1 : 253,227,104
Combo2 : 28,176,240
Combo3 : 162,255,68
Combo4 : 128,255,255

[HitObjects]
72,160,14170,6,0,P|124:172|184:164,1,110,12|0,0:0|0:0,0:0:0:0:
288,88,14970,2,0,P|341:75|395:82,1,110,10|8,0:0|0:0,0:0:0:0:
464,196,15770,6,0,B|475:257|475:257|456:312,1,110,8|0,0:0|0:0,0:0:0:0:
404,340,16370,1,8,0:0:0:0:
340,356,16570,2,0,P|285:362|236:339,1,110,10|8,0:0|0:0,0:0:0:0:
144,244,17370,6,0,B|130:209|130:209|138:125,1,110,8|0,0:0|0:0,0:0:0:0:
252,72,18170,2,0,B|266:107|266:107|258:191,1,110,10|8,0:0|0:0,0:0:0:0:
252,312,18970,6,0,P|299:330|376:308,1,110,8|0,0:0|0:0,0:0:0:0:
400,272,19570,1,8,0:0:0:0:
368,216,19770,2,0,P|321:198|244:220,1,110,10|8,0:0|0:0,0:0:0:0:
140,252,20570,6,0,L|120:180,1,55,12|0,0:0|0:0,0:0:0:0:
164,148,20970,2,0,L|144:76,1,55,0|8,0:0|0:0,0:0:0:0:
164,32,21370,2,0,B|204:48|204:48|240:32|288:48,1,110,10|8,0:0|0:0,0:0:0:0:
348,148,22170,6,0,B|308:132|308:132|272:148|224:132,1,110,8|0,0:0|0:0,0:0:0:0:
180,120,22770,1,8,0:0:0:0:
116,112,22970,2,0,P|84:156|100:220,1,110,10|8,0:0|0:0,0:0:0:0:
256,192,23770,12,0,26070,0:0:0:0:
152,96,26970,6,0,P|180:64|264:72,1,110,4|0,0:0|0:0,0:0:0:0:
292,108,27570,1,0,0:0:0:0:
348,144,27770,2,0,P|400:144|444:100,1,110,10|0,0:0|0:0,0:0:0:0:
444,240,28570,6,0,P|392:252|320:240,1,110
272,228,29170,1,4,0:3:0:0:
208,208,29370,2,0,P|144:204|92:224,1,110,10|0,0:0|0:0,0:0:0:0:
56,96,30170,6,0,P|100:80|232:80,2,165,4|2|2,0:3|0:0|0:0,0:0:0:0:
60,228,31770,2,0,L|96:288,1,55,2|0,0:0|0:0,0:0:0:0:
144,312,32170,1,2,0:0:0:0:
260,252,32570,2,0,B|292:244|292:244|368:276,1,110,10|2,0:0|0:0,0:0:0:0:
428,160,33370,6,0,L|316:112,1,110,4|0,0:0|0:0,0:0:0:0:
268,88,33970,1,0,0:0:0:0:
204,80,34170,2,0,P|168:92|92:64,1,110,10|0,0:0|0:0,0:0:0:0:
96,204,34970,6,0,P|132:192|208:220,1,110
256,248,35570,1,4,0:3:0:0:
304,292,35770,2,0,P|354:312|407:299,1,110,10|0,0:0|0:0,0:0:0:0:
428,168,36570,6,0,B|432:124|412:88|412:88|356:76|316:92,2,165,4|2|0,0:3|0:0|0:0,0:0:0:0:
360,280,38170,2,0,B|332:232|344:168|344:168|264:180|272:248|272:248|228:280|180:240,1,330
60,204,39770,6,0,P|76:164|144:120,1,110,4|0,0:0|0:0,0:0:0:0:
188,100,40370,1,0,0:0:0:0:
252,84,40570,2,0,L|372:76,1,110,10|0,0:0|0:0,0:0:0:0:
352,212,41370,6,0,L|242:219,1,110
204,272,41970,1,4,0:3:0:0:
248,324,42170,2,0,L|358:317,1,110,10|0,0:0|0:0,0:0:0:0:
424,204,42970,6,0,B|444:168|420:152|420:152|460:100|416:56,2,165,4|2|2,0:3|0:0|0:0,0:0:0:0:
292,200,44570,2,0,L|224:196,1,55,2|0,0:0|0:0,0:0:0:0:
172,188,44970,1,2,0:0:0:0:
124,64,45370,1,10,0:0:0:0:
256,56,45770,1,2,0:0:0:0:
388,36,46170,6,0,P|452:68|464:120,1,110,4|0,0:0|0:0,0:0:0:0:
456,168,46770,1,0,0:0:0:0:
428,228,46970,1,10,0:0:0:0:
320,300,47370,1,0,0:0:0:0:
188,292,47770,6,0,P|144:268|116:204,1,110
112,152,48370,1,4,0:3:0:0:
120,88,48570,1,10,0:0:0:0:
244,44,48970,1,0,0:0:0:0:
368,88,49370,6,0,B|400:104|480:80|480:80|444:140,2,165,4|2|2,0:3|0:0|0:0,0:0:0:0:
236,68,50970,2,0,L|168:76,2,55,2|0|2,0:0|0:0|0:0,0:0:0:0:
312,176,51770,1,10,0:0:0:0:
248,292,52170,1,2,0:0:0:0:
124,248,52570,6,0,P|100:192|100:144,1,110,4|0,0:0|0:0,0:0:0:0:
196,52,53370,2,0,P|248:68|312:52,1,110,10|0,0:0|0:0,0:0:0:0:
432,60,54170,6,0,L|492:76,2,55
384,104,54770,1,4,0:3:0:0:
332,148,54970,2,0,P|300:164|220:156,1,110,10|0,0:0|0:0,0:0:0:0:
148,56,55770,6,0,P|180:40|260:48,1,110,4|0,0:3|0:0,0:0:0:0:
312,76,56370,1,4,0:3:0:0:
368,112,56570,2,0,B|396:132|396:132|396:220,1,110,8|0,0:0|0:0,0:0:0:0:
288,296,57370,6,0,L|224:312,1,55
216,244,57770,2,0,L|162:257,1,55
96,244,58170,2,0,B|44:216|44:216|32:160,1,110,10|2,0:0|0:0,0:0:0:0:
36,100,58770,1,0,0:0:0:0:
72,44,58970,5,4,0:0:0:0:
188,108,59370,1,0,0:0:0:0:
304,48,59770,2,0,P|352:48|424:92,1,110,10|0,0:0|0:0,0:0:0:0:
452,200,60570,6,0,L|468:260,2,55
392,168,61170,1,4,0:3:0:0:
336,204,61370,2,0,P|296:224|220:212,1,110,10|0,0:0|0:0,0:0:0:0:
112,164,62170,6,0,B|152:168|152:168|200:104|272:132,2,165,4|4|0,0:3|0:3|0:0,0:0:0:0:
108,296,63770,2,0,B|224:308|224:308|264:252|320:260|320:260|432:272,1,330
408,140,65370,6,0,L|295:130,1,110,4|0,0:0|0:0,0:0:0:0:
232,124,65970,1,0,0:0:0:0:
168,132,66170,2,0,L|58:141,1,110,10|0,0:0|0:0,0:0:0:0:
112,264,66970,6,0,P|140:292|168:308,1,55
216,320,67370,2,0,P|255:319|286:311,1,55,0|4,0:0|0:3,0:0:0:0:
324,280,67770,1,10,0:0:0:0:
388,164,68170,1,0,0:0:0:0:
364,32,68570,6,0,P|320:48|256:152,2,165,4|4|0,0:3|0:3|0:0,0:0:0:0:
440,140,70170,2,0,L|448:216,1,55
444,260,70570,2,0,L|400:308,1,55
345,324,70970,2,0,P|323:289|244:269,1,110,10|2,0:0|0:0,0:0:0:0:
194,275,71570,1,0,0:0:0:0:
136,241,71770,5,4,0:0:0:0:
106,112,72170,1,0,0:0:0:0:
224,48,72570,2,0,P|272:60|352:52,1,110,10|0,0:0|0:0,0:0:0:0:
440,132,73370,6,0,P|440:172|432:196,1,55
400,240,73770,2,0,P|384:288|392:316,2,55,0|4|10,0:0|0:3|0:0,0:0:0:0:
312,144,74570,1,0,0:0:0:0:
188,188,74970,6,0,B|184:216|152:216|152:216|112:216|112:216|80:188|80:188|32:188,2,165,4|4|0,0:3|0:3|0:0,0:0:0:0:
204,56,76570,1,4,0:1:0:0:
256,192,76770,12,4,78170,0:1:0:0:
92,72,90970,6,0,P|72:112|104:232,1,165.000006294251,0|2,0:0|0:0,0:0:0:0:
192,200,92170,2,0,P|232:184|352:216,1,165.000006294251
420,148,93370,2,0,P|384:116|348:104,1,82.5000031471254,2|0,0:0|0:0,0:0:0:0:
260,64,94170,6,0,B|224:68|184:44|184:44|136:80,2,123.750004720688
360,52,95770,2,0,L|455:41,1,82.5000031471254
421,142,96570,2,0,L|338:150,1,82.5000031471254,2|0,0:0|0:0,0:0:0:0:
256,208,97370,6,0,P|232:236|108:244,1,165.000006294251,0|2,0:0|0:0,0:0:0:0:
24,200,98570,2,0,B|48:152|104:148|104:148|92:72,1,165.000006294251
184,40,99770,2,0,L|199:124,1,82.5000031471254,2|0,0:0|0:0,0:0:0:0:
212,220,100570,5,2,0:0:0:0:
360,88,101370,1,0,0:0:0:0:
424,164,101770,2,0,P|436:216|400:328,1,165.000006294251,2|0,0:0|0:0,0:0:0:0:
308,340,102970,1,2,0:0:0:0:
212,320,103370,1,0,0:0:0:0:
128,264,103770,6,0,L|156:152,1,110,12|0,0:0|0:0,0:0:0:0:
280,112,104570,2,0,L|264:184,2,55,10|0|8,0:0|0:0|0:0,0:0:0:0:
380,24,105370,2,0,P|428:32|480:88,1,110,8|0,0:0|0:0,0:0:0:0:
480,136,105970,1,8,0:0:0:0:
448,196,106170,2,0,L|424:308,1,110,10|8,0:0|0:0,0:0:0:0:
368,340,106770,1,8,0:0:0:0:
308,316,106970,5,8,0:0:0:0:
176,336,107370,1,0,0:0:0:0:
84,244,107770,2,0,L|64:172,1,55,10|0,0:0|0:0,0:0:0:0:
68,124,108170,1,8,0:0:0:0:
180,56,108570,6,0,P|220:80|284:64,1,110,8|0,0:0|0:0,0:0:0:0:
344,56,109170,1,8,0:0:0:0:
404,80,109370,1,10,0:0:0:0:
440,136,109570,2,0,L|456:196,1,55,0|8,0:0|0:0,0:0:0:0:
448,256,109970,1,0,0:0:0:0:
396,296,110170,6,0,P|348:312|276:300,2,110,8|0|10,0:0|0:0|0:0,0:0:0:0:
332,180,111370,1,8,0:0:0:0:
200,180,111770,2,0,P|152:184|100:148,1,110,8|0,0:0|0:0,0:0:0:0:
92,88,112370,1,8,0:0:0:0:
132,36,112570,2,0,L|248:36,1,110,8|8,0:0|0:0,0:0:0:0:
300,68,113170,1,8,0:0:0:0:
360,44,113370,6,0,P|392:80|412:156,2,110,8|0|10,0:0|0:0|0:0,0:0:0:0:
260,128,114570,1,8,0:0:0:0:
128,128,114970,2,0,P|84:148|48:220,1,110,8|0,0:0|0:0,0:0:0:0:
88,252,115570,1,8,0:0:0:0:
148,280,115770,2,0,B|200:300|200:300|268:276,1,110,10|0,0:0|0:0,0:0:0:0:
360,208,116570,5,6,0:0:0:0:
380,76,116970,1,2,0:0:0:0:
248,56,117370,1,10,0:0:0:0:
228,188,117770,1,2,0:0:0:0:
144,288,118170,5,2,0:0:0:0:
68,180,118570,1,2,0:0:0:0:
156,80,118970,1,10,0:0:0:0:
288,64,119370,1,2,0:0:0:0:
404,124,119770,6,0,P|439:170|439:225,1,110,2|2,0:0|0:0,0:0:0:0:
309,213,120570,2,0,P|296:269|254:304,1,110,10|2,0:0|0:0,0:0:0:0:
161,213,121370,2,0,P|117:217|53:189,1,110,2|2,0:0|0:0,0:0:0:0:
41,129,121970,1,8,0:0:0:0:
65,69,122170,2,0,P|89:49|121:37,1,55,10|0,0:0|0:0,0:0:0:0:
173,21,122570,2,0,P|221:37|249:41,1,55,10|0,0:0|0:0,0:0:0:0:
284,68,122970,6,0,L|360:72,1,55,10|2,0:0|0:0,0:0:0:0:
372,128,123370,2,0,L|448:132,1,55,2|10,0:0|0:0,0:0:0:0:
476,176,123770,1,10,0:0:0:0:
392,276,124170,1,10,0:0:0:0:
268,316,124570,6,0,L|220:352,2,55,10|2|2,0:0|0:0|0:0,0:0:0:0:
308,264,125170,1,10,0:0:0:0:
308,200,125370,2,0,L|324:92,1,110,10|10,0:0|0:0,0:0:0:0:
256,192,126170,12,0,127770,0:0:0:0:
52,220,129370,6,0,P|96:232|168:216,1,110,4|0,0:0|0:0,0:0:0:0:
212,184,129970,1,0,0:0:0:0:
272,156,130170,2,0,P|325:144|378:156,2,110,10|0|0,0:0|0:0|0:0,0:0:0:0:
264,288,131370,1,0,0:0:0:0:
264,288,131570,2,0,P|317:300|370:288,2,110,4|2|2,0:3|0:0|0:0,0:0:0:0:
208,256,132570,5,4,0:3:0:0:
108,168,132970,1,0,0:0:0:0:
152,116,133170,1,4,0:3:0:0:
196,68,133370,2,0,L|320:48,1,110,10|0,0:0|0:0,0:0:0:0:
436,72,134170,2,0,P|424:120|376:164,1,110
316,176,134770,2,0,P|284:208|268:272,2,110,0|2|2,0:0|0:0|0:0,0:0:0:0:
360,124,135770,5,4,0:0:0:0:
252,48,136170,1,0,0:0:0:0:
188,56,136370,1,0,0:0:0:0:
124,72,136570,2,0,P|84:108|64:176,1,110,10|0,0:0|0:0,0:0:0:0:
112,284,137370,1,0,0:0:0:0:
240,244,137770,1,0,0:0:0:0:
240,244,137970,2,0,P|284:240|352:260,2,110,4|2|2,0:3|0:0|0:0,0:0:0:0:
180,268,138970,6,0,B|156:236|156:236|152:164,1,110,4|0,0:3|0:0,0:0:0:0:
164,100,139570,1,4,0:3:0:0:
204,48,139770,2,0,L|280:36,1,55,10|0,0:0|0:0,0:0:0:0:
272,104,140170,2,0,L|352:108,1,55
384,140,140570,6,0,B|400:220|400:220|328:268|260:204|260:204|252:288|216:300,1,330
112,232,142170,6,0,P|128:176|116:116,1,110,4|0,0:0|0:0,0:0:0:0:
88,68,142770,1,0,0:0:0:0:
152,68,142970,2,0,P|204:76|268:56,1,110,10|0,0:0|0:0,0:0:0:0:
352,152,143770,2,0,P|300:144|236:164,1,110
232,224,144370,2,0,B|220:272|252:296|252:296|244:348,2,110,4|2|2,0:3|0:0|0:0,0:0:0:0:
245,158,145370,5,4,0:3:0:0:
180,44,145770,1,0,0:0:0:0:
120,72,145970,1,4,0:3:0:0:
72,120,146170,2,0,P|40:176|44:224,1,110,10|0,0:0|0:0,0:0:0:0:
84,272,146770,1,0,0:0:0:0:
144,296,146970,2,0,P|212:292|264:260,1,110
316,272,147570,2,0,P|365:294|420:294,2,110,0|2|2,0:0|0:0|0:0,0:0:0:0:
288,212,148570,6,0,B|272:168|292:148|292:148|352:128,1,110,4|0,0:0|0:0,0:0:0:0:
396,132,149170,1,0,0:0:0:0:
460,140,149370,2,0,P|468:188|456:252,2,110,10|0|0,0:0|0:0|0:0,0:0:0:0:
380,244,150570,1,0,0:0:0:0:
380,244,150770,2,0,L|380:364,2,110,4|2|2,0:3|0:0|0:0,0:0:0:0:
368,180,151770,5,4,0:3:0:0:
236,184,152170,1,0,0:0:0:0:
172,188,152370,1,4,0:3:0:0:
108,200,152570,2,0,P|96:172|96:140,2,55,10|0|0,0:0|0:0|0:0,0:0:0:0:
132,260,153170,2,0,P|168:284|248:276,1,110,2|0,0:0|0:0,0:0:0:0:
300,276,153770,6,0,B|352:212|276:176|348:104,1,165,2|2,0:0|0:0,0:0:0:0:
372,68,154570,1,0,0:0:0:0:
244,32,154970,1,4,0:0:0:0:
224,64,167770,6,0,L|344:76,1,110
252,180,168570,2,0,L|142:169,2,110,2|0|0,0:0|0:0|0:0,0:0:0:0:
376,224,169770,1,0,0:0:0:0:
376,224,169970,2,0,B|376:264|376:264|356:288|356:288|356:328,2,110,2|0|2,0:0|0:0|0:0,0:0:0:0:
392,160,170970,5,0,0:0:0:0:
304,60,171370,2,0,P|264:48|192:64,1,110,0|2,0:0|0:0,0:0:0:0:
140,180,172170,2,0,P|180:192|252:176,1,110
376,160,172970,1,0,0:0:0:0:
376,160,173170,2,0,P|408:202|411:265,2,110,2|2|2,0:0|0:0|0:0,0:0:0:0:
324,120,174170,5,0,0:0:0:0:
284,248,174570,1,0,0:0:0:0:
152,252,174970,2,0,P|98:240|51:212,1,110,2|0,0:0|0:0,0:0:0:0:
48,80,175770,2,0,P|84:56|156:40,1,110
208,64,176370,2,0,P|268:80|320:72,2,110,2|2|2,0:0|0:0|0:0,0:0:0:0:
144,76,177370,6,0,P|128:116|136:192,1,110
240,256,178170,2,0,L|308:272,2,55,2|0|0,0:0|0:0|0:0,0:0:0:0:
172,260,178770,2,0,P|136:280|64:256,1,110
44,204,179370,2,0,B|24:152|80:108|80:108|160:100,1,165,2|2,0:0|0:0,0:0:0:0:
200,88,180170,5,0,0:0:0:0:
324,44,180570,1,2,0:0:0:0:
