osu file format v14

[General]
AudioFilename: Hyper Potions - Porta Vista.mp3
AudioLeadIn: 0
PreviewTime: 26170
Countdown: 0
SampleSet: Soft
StackLeniency: 0.7
Mode: 0
LetterboxInBreaks: 0
WidescreenStoryboard: 0

[Editor]
Bookmarks: 14170,26970,39770,52570,65370,78170,90970,129370,148570,154970,180570
DistanceSpacing: 1
BeatDivisor: 4
GridSize: 4
TimelineZoom: 1

[Metadata]
Title:Porta Vista
TitleUnicode:Porta Vista
Artist:Hyper Potions
ArtistUnicode:Hyper Potions
Creator:jyu
Version:Basic
Source:
Tags:monstercat alpacacokelat anrefm edm future bass
BeatmapID:728958
BeatmapSetID:328682

[Difficulty]
HPDrainRate:2
CircleSize:3
OverallDifficulty:2
ApproachRate:3
SliderMultiplier:1
SliderTickRate:1

[Events]
//Background and Video events
0,0,"bg.png",0,0
//Break Periods
2,78370,89470
2,155170,166330
//Storyboard Layer 0 (Background)
//Storyboard Layer 1 (Fail)
//Storyboard Layer 2 (Pass)
//Storyboard Layer 3 (Foreground)
//Storyboard Sound Samples

[TimingPoints]
1370,400,4,2,1,65,1,0
26970,-100,4,1,1,80,0,1
38170,-100,4,1,1,30,0,0
39770,-100,4,1,1,80,0,1
52570,-100,4,1,2,70,0,0
90970,-100,4,2,1,30,0,0
101770,-100,4,2,2,30,0,0
103370,-100,4,2,1,30,0,0
103770,-100,4,2,1,65,0,0
116570,-100,4,2,4,55,0,0
127770,-100,4,2,4,20,0,0
129370,-100,4,1,1,80,0,1
140570,-100,4,1,1,30,0,0
142170,-100,4,1,1,80,0,1
154970,-100,4,1,1,50,0,0
167770,-100,4,2,2,70,0,0

[Colours]
Combo1 : 253,227,104
Combo2 : 28,176,240
Combo3 : 162,255,68
Combo4 : 128,255,255

[HitObjects]
80,68,14170,6,0,P|124:80|192:64,1,100,12|0,0:0|0:0,0:0:0:0:
276,52,14970,2,0,P|324:43|372:55,1,100,10|8,0:0|0:0,0:0:0:0:
440,128,15770,5,8,0:0:0:0:
337,299,16570,2,0,B|287:316|287:316|231:299,1,100,10|8,0:0|0:0,0:0:0:0:
160,243,17370,6,0,L|144:139,1,100,8|0,0:0|0:0,0:0:0:0:
220,78,18170,2,0,L|235:176,1,100,10|8,0:0|0:0,0:0:0:0:
323,224,18970,5,8,0:0:0:0:
457,76,19770,1,10,0:0:0:0:
363,41,20170,1,8,0:0:0:0:
298,117,20570,6,0,B|258:125|258:125|190:105,1,100,8|0,0:0|0:0,0:0:0:0:
175,205,21370,2,0,B|215:197|215:197|283:217,1,100,10|8,0:0|0:0,0:0:0:0:
341,285,22170,6,0,P|397:289|473:173,1,200,8|10,0:0|0:0,0:0:0:0:
426,95,23370,1,8,0:0:0:0:
332,56,23770,6,0,P|276:72|220:64,2,100,8|8|10,0:0|0:0|0:0,0:0:0:0:
426,95,24970,1,8,0:0:0:0:
400,192,25370,2,0,B|368:228|432:296|400:344,1,150,8|8,0:0|0:0,0:0:0:0:
160,312,26970,6,0,P|144:240|232:148,1,200,4|10,0:0|0:0,0:0:0:0:
316,128,28170,1,0,0:0:0:0:
344,32,28570,2,0,P|384:56|384:200,1,200,0|10,0:0|0:0,0:0:0:0:
308,256,29770,1,0,0:0:0:0:
208,252,30170,6,0,B|152:248|152:248|52:272,2,150,4|4|0,0:3|0:3|0:0,0:0:0:0:
308,256,31770,2,0,P|372:252|452:136,1,200,0|10,0:0|0:0,0:0:0:0:
388,76,32970,1,2,0:0:0:0:
292,44,33370,6,0,B|200:28|152:48|152:48|104:100,1,200,4|10,0:0|0:0,0:0:0:0:
44,164,34570,1,0,0:0:0:0:
96,248,34970,2,0,P|148:292|236:320,2,150,0|4|0,0:0|0:3|0:0,0:0:0:0:
168,180,36570,6,0,P|224:196|324:188,2,150,4|4|0,0:3|0:3|0:0,0:0:0:0:
108,100,38170,1,0,0:0:0:0:
480,232,39770,6,0,P|460:268|304:304,1,200,4|10,0:0|0:0,0:0:0:0:
232,252,40970,1,0,0:0:0:0:
144,300,41370,2,0,B|112:232|168:172|168:172|124:112,1,200,0|10,0:0|0:0,0:0:0:0:
220,68,42570,1,0,0:0:0:0:
316,36,42970,6,0,L|472:64,2,150,4|4|0,0:3|0:3|0:0,0:0:0:0:
248,112,44570,2,0,L|92:140,2,150
324,176,46170,6,0,B|364:224|448:212|448:212|452:296,1,200,4|10,0:0|0:0,0:0:0:0:
364,332,47370,1,0,0:0:0:0:
268,352,47770,6,0,B|192:356|192:356|112:324,2,150,0|4|0,0:0|0:3|0:0,0:0:0:0:
285,253,49370,2,0,B|216:225|216:225|140:229,2,150,4|4|0,0:3|0:3|0:0,0:0:0:0:
376,212,50970,6,0,P|384:168|360:112,1,100,2|0,0:0|0:0,0:0:0:0:
280,64,51770,1,10,0:0:0:0:
196,116,52170,1,2,0:0:0:0:
104,76,52570,6,0,P|76:112|56:260,1,200,4|10,0:0|0:0,0:0:0:0:
250,309,54170,2,0,L|356:336,2,100,0|0|10,0:0|0:0|0:0,0:0:0:0:
184,120,55770,6,0,B|144:100|140:56|140:56|92:60|77:81,2,150,4|4|2,0:3|0:3|0:0,0:0:0:0:
284,120,57370,2,0,B|324:100|328:56|328:56|376:60|404:96,2,150,0|2|2,0:0|0:0|0:0,0:0:0:0:
228,204,58970,6,0,P|196:248|296:256,1,200,4|10,0:0|0:0,0:0:0:0:
146,132,60570,2,0,P|107:186|106:322,1,200,0|10,0:0|0:0,0:0:0:0:
301,290,62170,6,0,B|353:294|353:294|397:322|397:322|449:326,2,150,4|4|0,0:3|0:3|0:0,0:0:0:0:
38,321,65370,5,4,0:0:0:0:
136,340,65770,2,0,P|200:344|236:332,1,100,0|10,0:0|0:0,0:0:0:0:
403,227,66970,2,0,P|406:175|393:118,1,100
324,58,67770,1,10,0:0:0:0:
126,91,68570,6,0,B|114:173|114:173|64:228,2,150,4|4|2,0:3|0:3|0:0,0:0:0:0:
215,138,70170,2,0,B|227:219|227:219|277:274,2,150,0|2|2,0:0|0:0|0:0,0:0:0:0:
282,63,71770,6,0,B|334:91|334:91|402:43|474:99,1,200,4|10,0:0|0:0,0:0:0:0:
355,259,73370,2,0,L|175:151,1,200,0|10,0:0|0:0,0:0:0:0:
358,59,74970,6,0,B|390:35|410:35|446:83|458:83|506:51,2,150,4|4|2,0:3|0:3|0:0,0:0:0:0:
268,103,76570,1,4,0:1:0:0:
256,192,76770,12,4,78170,0:1:0:0:
72,80,90970,6,0,P|112:92|280:80,1,200,0|2,0:0|0:0,0:0:0:0:
364,56,92170,2,0,B|424:96|424:96|376:152|408:224,1,200
452,304,93370,1,2,0:0:0:0:
256,332,94170,6,0,P|296:276|304:192,2,150
156,320,95770,2,0,P|164:224|244:132,1,200,0|2,0:0|0:0,0:0:0:0:
400,64,97370,6,0,B|400:124|454:173|454:173|432:220|388:228,1,200,0|2,0:0|0:0,0:0:0:0:
304,232,98570,2,0,B|240:216|196:308|112:264,1,200
48,192,99770,1,2,0:0:0:0:
204,68,100570,6,0,B|272:24|352:32|352:32|432:72|448:160,2,300,0|2|2,0:0|0:0|0:0,0:0:0:0:
132,136,103370,1,0,0:0:0:0:
184,224,103770,6,0,B|232:236|232:236|296:220,2,100,12|0|10,0:0|0:0|0:0,0:0:0:0:
92,180,104970,1,8,0:0:0:0:
104,84,105370,2,0,P|196:48|296:88,1,200,8|10,0:0|0:0,0:0:0:0:
428,224,106970,6,0,P|456:268|456:324,2,100,8|0|10,0:0|0:0|0:0,0:0:0:0:
328,236,108170,1,8,0:0:0:0:
232,264,108570,2,0,P|196:280|40:236,1,200,8|10,0:0|0:0,0:0:0:0:
100,52,110170,6,0,B|152:55|152:55|216:36,1,100,8|0,0:0|0:0,0:0:0:0:
297,44,110970,1,10,0:0:0:0:
389,80,111370,1,8,0:0:0:0:
469,140,111770,2,0,B|428:185|376:178|376:178|420:224|389:284,1,200,8|10,0:0|0:0,0:0:0:0:
209,321,113370,6,0,P|157:333|97:317,2,100,8|0|10,0:0|0:0|0:0,0:0:0:0:
257,233,114570,1,8,0:0:0:0:
342,180,114970,2,0,B|291:112|211:143|211:143|162:100,1,200,8|10,0:0|0:0,0:0:0:0:
75,82,116170,1,0,0:0:0:0:
68,180,116570,6,0,L|48:284,1,100,2|2,0:0|0:0,0:0:0:0:
148,260,117370,2,0,L|228:320,1,100,10|2,0:0|0:0,0:0:0:0:
322,287,118170,1,2,0:0:0:0:
366,92,118970,2,0,P|300:91|262:111,1,100,10|2,0:0|0:0,0:0:0:0:
172,132,119770,6,0,B|120:124|120:124|72:88,2,100,2|2|10,0:0|0:0|0:0,0:0:0:0:
244,60,120970,1,2,0:0:0:0:
343,49,121370,1,2,0:0:0:0:
377,245,122170,2,0,P|317:236|272:208,1,100,10|2,0:0|0:0,0:0:0:0:
200,160,122970,5,2,0:0:0:0:
100,148,123370,1,2,0:0:0:0:
36,224,123770,2,0,P|40:268|84:308,1,100,10|2,0:0|0:0,0:0:0:0:
176,284,124570,2,0,P|232:272|288:284,1,100,2|2,0:0|0:0,0:0:0:0:
368,304,125370,2,0,P|404:270|410:222,1,100,10|2,0:0|0:0,0:0:0:0:
256,192,126170,12,0,127770,0:0:0:0:
96,120,129370,6,0,P|112:160|172:200,1,100,4|0,0:0|0:0,0:0:0:0:
256,180,130170,2,0,B|320:200|360:180|360:180|456:212,1,200,10|0,0:0|0:0,0:0:0:0:
460,308,131370,2,0,L|360:276,1,100,0|10,0:0|0:0,0:0:0:0:
264,284,132170,1,0,0:0:0:0:
188,216,132570,6,0,L|220:116,1,100,4|0,0:3|0:0,0:0:0:0:
308,80,133370,2,0,P|357:84|406:72,1,100,10|0,0:0|0:0,0:0:0:0:
448,164,134170,2,0,B|360:196|288:176|288:176|292:224,1,200,0|10,0:0|0:0,0:0:0:0:
332,304,135370,1,0,0:0:0:0:
232,292,135770,6,0,L|128:280,1,100,4|0,0:0|0:0,0:0:0:0:
68,204,136570,1,10,0:0:0:0:
100,108,136970,1,0,0:0:0:0:
168,36,137370,2,0,B|216:28|220:68|220:68|276:28|348:44,1,200,0|10,0:0|0:0,0:0:0:0:
420,108,138570,1,0,0:0:0:0:
420,208,138970,6,0,B|444:240|444:240|444:304|444:304|468:352,2,150,4|4|0,0:3|0:3|0:0,0:0:0:0:
64,88,142170,6,0,P|48:120|52:188,1,100,4|0,0:0|0:0,0:0:0:0:
132,236,142970,2,0,P|184:224|240:232,1,100,10|0,0:0|0:0,0:0:0:0:
320,272,143770,1,0,0:0:0:0:
404,220,144170,1,0,0:0:0:0:
424,124,144570,2,0,L|352:44,1,100,10|0,0:0|0:0,0:0:0:0:
260,36,145370,6,0,B|228:64|228:64|152:64,1,100,4|0,0:3|0:0,0:0:0:0:
76,96,146170,2,0,B|56:148|56:148|64:208,1,100,10|0,0:0|0:0,0:0:0:0:
148,240,146970,2,0,B|168:188|168:188|160:128,2,100,0|0|10,0:0|0:0|0:0,0:0:0:0:
80,312,148170,1,0,0:0:0:0:
180,332,148570,6,0,P|244:344|280:328,1,100,4|0,0:0|0:0,0:0:0:0:
352,268,149370,2,0,P|364:204|348:168,1,100,10|0,0:0|0:0,0:0:0:0:
300,88,150170,2,0,B|232:44|188:64|188:64|172:96|104:104,1,200,0|10,0:0|0:0,0:0:0:0:
20,84,151370,1,0,0:0:0:0:
32,184,151770,6,0,B|36:260|36:260|96:316,2,150,4|4|0,0:3|0:3|0:0,0:0:0:0:
38,84,153370,1,0,0:0:0:0:
138,104,153770,2,0,P|194:124|322:60,1,200,2|2,0:0|0:0,0:0:0:0:
408,32,154970,1,4,0:0:0:0:
52,92,167770,6,0,P|100:100|164:92,1,100
244,56,168570,2,0,P|280:44|444:104,1,200,2|0,0:0|0:0,0:0:0:0:
356,272,170170,1,0,0:0:0:0:
264,232,170570,1,0,0:0:0:0:
168,260,170970,6,0,P|128:260|68:232,1,100
64,136,171770,2,0,B|122:119|165:125|165:125|209:148|252:204,1,200,2|0,0:0|0:0,0:0:0:0:
364,348,173370,1,0,0:0:0:0:
440,284,173770,1,0,0:0:0:0:
460,184,174170,6,0,L|444:76,1,100
344,80,174970,2,0,L|358:178,2,100,2|0|0,0:0|0:0|0:0,0:0:0:0:
252,40,176170,1,0,0:0:0:0:
168,92,176570,2,0,B|136:124|136:124|68:128,1,100
88,28,177370,5,0,0:0:0:0:
200,196,178170,2,0,P|244:200|308:192,2,100,2|0|0,0:0|0:0|0:0,0:0:0:0:
152,284,179370,2,0,P|260:296|360:276,1,200,2|0,0:0|0:0,0:0:0:0:
416,204,180570,1,2,0:0:0:0:
