osu file format v14

[General]
AudioFilename: audio.mp3
AudioLeadIn: 0
PreviewTime: 89000
Countdown: 0
SampleSet: Normal
StackLeniency: 0.7
Mode: 0
LetterboxInBreaks: 0
WidescreenStoryboard: 0

[Editor]
Bookmarks: 68800,69000,69200,69400,69600,113900,114200,114800,208000
DistanceSpacing: 1
BeatDivisor: 4
GridSize: 4
TimelineZoom: 1.2

[Metadata]
Title:Littleroot Town
TitleUnicode:Littleroot Town
Artist:Hyper Potions
ArtistUnicode:Hyper Potions
Creator:Pikablu127
Version:Expert
Source:Pokemon Ruby / Sapphire / Emerald Pokemon Omega Ruby / Alpha Sapphire
Tags:Pokemon Littleroot_Town Nintendo Ruby Sapphire Emerald Omega Alpha Japan Gameboy Advance 3DS Remix
BeatmapID:2083615
BeatmapSetID:978458

[Difficulty]
HPDrainRate:6
CircleSize:4.5
OverallDifficulty:8
ApproachRate:8.5
SliderMultiplier:1.49999990463257
SliderTickRate:1

[Events]
//Background and Video events
0,0,"Map Background.jpg",0,0
//Break Periods
//Storyboard Layer 0 (Background)
//Storyboard Layer 1 (Fail)
//Storyboard Layer 2 (Pass)
//Storyboard Layer 3 (Foreground)
//Storyboard Sound Samples

[TimingPoints]
25600,400,4,1,0,30,1,0
63900,-100,4,1,0,35,0,0
70300,-100,4,1,0,40,0,0
73500,-100,4,2,0,50,0,0
83100,-100,4,3,0,60,0,0
89700,-83.3333333333333,4,1,0,70,0,0
139900,-100,4,3,0,75,0,0
140800,-100,4,1,0,80,0,1
146295,-80,4,1,0,85,0,1
148500,-100,4,1,0,80,0,1
165700,-100,4,2,0,65,0,0

[Colours]
Combo1 : 255,128,128
Combo2 : 255,0,0
Combo3 : 255,128,0
Combo4 : 255,255,0
Combo5 : 0,255,64
Combo6 : 0,255,255
Combo7 : 0,0,255
Combo8 : 128,0,255

[HitObjects]
84,195,25600,5,4,0:1:0:0:
312,271,26200,5,0,0:0:0:0:
397,199,26400,1,0,0:1:0:0:
312,271,26600,1,0,0:0:0:0:
397,199,26800,1,8,0:0:0:0:
352,103,27000,2,0,L|249:124,1,74.9999952316285,0|4,0:0|0:1,0:0:0:0:
262,44,27400,2,0,L|159:65,1,74.9999952316285,0|8,0:0|0:0,0:0:0:0:
119,105,27800,5,0,0:0:0:0:
168,191,28000,1,0,0:0:0:0:
241,249,28200,1,0,0:0:0:0:
325,238,28400,1,8,0:0:0:0:
385,173,28600,1,0,0:0:0:0:
391,89,28800,6,8,L|256:19,1,149.999990463257,4|8,0:1|0:0,0:0:0:0:
388,236,29600,2,4,L|240:299,1,149.999990463257,0|8,0:1|0:0,0:0:0:0:
129,317,30200,1,0,0:0:0:0:
59,214,30400,1,4,0:1:0:0:
97,101,30600,1,0,0:0:0:0:
178,43,30800,2,8,B|256:78|256:78,1,74.9999952316285,8|0,0:0|0:0,0:0:0:0:
190,156,31200,1,0,0:0:0:0:
380,301,31600,5,8,0:0:0:0:
339,223,31800,1,0,0:0:0:0:
304,144,32000,2,0,P|266:79|192:67,1,149.999990463257,4|8,0:1|0:0,0:0:0:0:
198,66,32800,6,0,L|91:66,1,74.9999952316285,0|0,0:1|0:0,0:0:0:0:
202,137,33200,2,0,L|282:137,1,74.9999952316285,8|0,0:0|0:0,0:0:0:0:
258,231,33600,6,0,P|107:230|100:194,1,224.999985694885,4|0,0:1|0:0,0:0:0:0:
104,112,34400,5,0,0:0:0:0:
169,72,34600,1,0,0:0:0:0:
237,98,34800,1,8,0:0:0:0:
255,167,35000,5,0,0:0:0:0:
376,65,35200,2,0,P|460:180|341:246,1,299.999980926514,4|0,0:1|0:1,0:0:0:0:
175,272,36400,5,8,0:0:0:0:
114,183,36600,1,0,0:0:0:0:
114,183,36800,1,4,0:1:0:0:
164,111,37000,5,0,0:0:0:0:
170,119,37100,1,0,0:0:0:0:
170,119,37200,1,8,0:0:0:0:
213,58,37400,5,0,0:0:0:0:
289,49,37600,2,0,L|371:90,1,74.9999952316285,0|0,0:0|0:0,0:0:0:0:
442,89,38000,1,8,0:0:0:0:
408,210,38200,1,0,0:0:0:0:
330,283,38400,6,0,P|165:281|157:236,1,224.999985694885,4|0,0:1|0:0,0:0:0:0:
231,190,39200,1,0,0:1:0:0:
302,150,39400,5,0,0:0:0:0:
360,210,39600,1,8,0:0:0:0:
360,210,39800,1,0,0:0:0:0:
185,119,40200,1,0,0:0:0:0:
336,38,40600,5,0,0:0:0:0:
243,35,40800,1,0,0:0:0:0:
243,35,41000,1,0,0:0:0:0:
146,71,41200,1,8,0:0:0:0:
103,167,41400,1,0,0:0:0:0:
177,226,41600,6,8,L|337:273,2,149.999990463257,4|8|0,0:1|0:0|0:1,0:0:0:0:
103,167,42800,2,8,L|34:200,2,74.9999952316285,8|0|4,0:0|0:0|0:1,0:0:0:0:
200,128,43400,5,0,0:0:0:0:
292,96,43600,1,8,0:0:0:0:
380,72,43800,1,0,0:0:0:0:
448,119,44000,2,0,P|496:182|449:238,1,149.999990463257
421,180,44600,1,0,0:0:0:0:
304,128,44800,5,4,0:1:0:0:
304,128,45000,1,0,0:0:0:0:
189,111,45200,5,8,0:0:0:0:
189,111,45400,1,0,0:0:0:0:
120,188,45600,1,0,0:1:0:0:
202,215,45800,1,0,0:0:0:0:
83,270,46000,1,8,0:0:0:0:
172,306,46200,1,0,0:0:0:0:
257,277,46400,2,0,P|324:207|338:152,1,149.999990463257,4|8,0:1|0:0,0:0:0:0:
337,157,47000,1,0,0:0:0:0:
254,110,47200,5,0,0:0:0:0:
257,277,47400,1,0,0:0:0:0:
177,160,47600,1,8,0:0:0:0:
337,157,47800,1,0,0:0:0:0:
256,192,48000,5,4,0:1:0:0:
256,192,48100,12,0,50400,0:0:0:0:
162,97,50800,5,8,0:0:0:0:
200,79,51000,1,0,0:0:0:0:
233,66,51200,2,8,P|373:99|442:240,1,299.999980926514,4|0,0:1|0:1,0:0:0:0:
385,281,52200,2,0,L|293:281,2,74.9999952316285,0|8|0,0:0|0:0|0:0,0:0:0:0:
263,202,52800,5,4,0:1:0:0:
263,202,53000,1,0,0:0:0:0:
403,170,53400,1,0,0:0:0:0:
403,170,53600,5,0,0:0:0:0:
334,87,54000,1,8,0:0:0:0:
242,110,54200,1,0,0:0:0:0:
242,110,54300,1,0,0:0:0:0:
242,110,54400,2,4,P|138:64|103:216,1,299.999980926514,4|0,0:1|0:1,0:0:0:0:
93,206,55400,5,0,0:0:0:0:
142,286,55600,1,8,0:0:0:0:
214,339,55800,1,0,0:0:0:0:
304,343,56000,1,4,0:1:0:0:
304,343,56200,1,0,0:0:0:0:
328,240,56400,1,8,0:0:0:0:
438,219,56600,1,0,0:0:0:0:
438,219,56800,5,0,0:0:0:0:
375,105,57200,2,8,L|375:24,2,74.9999952316285,8|0|4,0:0|0:0|0:1,0:0:0:0:
228,113,58000,2,0,B|189:152|190:212|230:245,1,149.999990463257,8|0,0:0|0:1,0:0:0:0:
300,289,58600,5,0,0:0:0:0:
392,150,58800,1,8,0:0:0:0:
464,293,59000,1,0,0:0:0:0:
294,176,59200,1,4,0:1:0:0:
491,175,59400,1,0,0:0:0:0:
390,298,59600,1,8,0:0:0:0:
394,84,59800,5,0,0:0:0:0:
394,84,60000,2,4,L|297:82,1,74.9999952316285,0|0,0:0|0:0,0:0:0:0:
212,90,60400,1,8,0:0:0:0:
112,146,60600,1,0,0:0:0:0:
77,239,60700,1,0,0:0:0:0:
77,239,60800,2,8,P|209:332|335:285,1,299.999980926514,4|0,0:1|0:1,0:0:0:0:
395,225,61800,5,0,0:0:0:0:
459,134,62000,1,8,0:0:0:0:
507,229,62200,1,0,0:0:0:0:
304,109,62400,1,4,0:1:0:0:
304,109,62600,1,0,0:0:0:0:
198,57,63000,5,0,0:0:0:0:
198,57,63200,1,0,0:0:0:0:
116,115,63400,1,0,0:0:0:0:
81,209,63600,1,8,0:0:0:0:
113,298,63800,1,0,0:0:0:0:
197,347,64000,6,8,L|335:264,1,149.999990463257,4|8,0:1|0:0,0:0:0:0:
397,339,64600,1,0,0:0:0:0:
493,295,64800,1,0,0:1:0:0:
455,194,65000,1,0,0:0:0:0:
346,209,65200,1,8,0:0:0:0:
397,339,65400,1,0,0:0:0:0:
270,339,65600,5,4,0:1:0:0:
158,280,65801,2,0,P|178:342|113:348,1,149.999990463257,0|0,0:0|0:0,0:0:0:0:
38,313,66400,1,0,0:0:0:0:
85,231,66800,6,0,L|17:181,2,74.9999952316285,8|0|4,0:0|0:0|0:1,0:0:0:0:
138,137,67600,5,8,0:0:0:0:
257,192,68000,1,0,0:1:0:0:
402,232,68400,5,8,0:0:0:0:
402,232,68600,1,0,0:0:0:0:
479,281,68800,5,4,0:1:0:0:
417,322,69000,1,0,0:0:0:0:
343,328,69200,1,8,0:0:0:0:
275,299,69400,1,0,0:0:0:0:
230,240,69600,1,0,0:0:0:0:
130,310,70000,5,8,0:0:0:0:
70,241,70200,1,0,0:0:0:0:
76,130,70400,6,8,L|189:263,1,149.999990463257,4|8,0:1|0:0,0:0:0:0:
188,319,71200,5,0,0:1:0:0:
295,320,71400,1,0,0:0:0:0:
186,203,71600,1,8,0:0:0:0:
295,202,71800,1,0,0:0:0:0:
104,262,72000,2,8,L|432:262,1,299.999980926514,4|0,0:1|0:0,0:0:0:0:
338,168,73000,6,0,L|270:123,1,74.9999952316285,0|8,0:0|0:0,0:0:0:0:
207,203,73400,1,0,0:0:0:0:
90,157,73600,1,4,1:1:0:0:
368,74,74800,1,8,0:0:0:0:
467,107,75000,1,0,0:0:0:0:
451,197,75200,6,8,P|463:331|309:333,1,299.999980926514,4|0,1:1|0:0,0:0:0:0:
309,251,76400,6,8,L|229:288,2,74.9999952316285,8|0|4,0:0|0:0|1:1,0:0:0:0:
156,291,77400,5,0,0:0:0:0:
75,247,77600,1,4,1:1:0:0:
107,191,77800,5,0,0:0:0:0:
188,235,78000,1,8,0:0:0:0:
223,180,78200,5,0,0:0:0:0:
142,136,78400,1,4,1:1:0:0:
83,103,78600,6,8,L|234:110,1,149.999990463257,0|0,0:0|0:0,0:0:0:0:
232,109,79200,1,4,1:1:0:0:
106,200,79600,1,8,0:0:0:0:
188,275,79800,1,0,0:0:0:0:
299,311,80000,1,4,1:1:0:0:
473,102,80400,1,8,0:0:0:0:
474,232,80800,5,4,1:1:0:0:
366,190,81200,1,8,0:0:0:0:
366,190,81400,1,0,0:0:0:0:
270,247,81600,1,4,1:1:0:0:
270,247,81800,1,0,0:0:0:0:
166,192,82000,1,8,0:0:0:0:
166,192,82200,1,0,0:0:0:0:
95,118,82400,2,8,P|49:72|20:129,1,149.999990463257,4|8,1:1|0:0,0:0:0:0:
65,183,83000,1,0,0:0:0:0:
28,272,83200,6,0,L|28:355,1,74.9999952316285,4|0,1:1|0:0,0:0:0:0:
157,99,83600,2,0,L|102:49,1,74.9999952316285,8|0,1:2|0:0,0:0:0:0:
213,204,84000,2,0,L|273:263,1,74.9999952316285,4|0,1:1|0:0,0:0:0:0:
81,157,84400,2,0,L|0:170,1,74.9999952316285,8|0,1:2|0:0,0:0:0:0:
215,98,84800,2,0,L|145:52,1,74.9999952316285,4|0,1:1|0:0,0:0:0:0:
339,219,85200,2,0,L|316:318,1,74.9999952316285,8|0,1:2|0:0,0:0:0:0:
368,105,85600,2,0,L|433:50,1,74.9999952316285,4|0,1:1|0:0,0:0:0:0:
425,56,85900,1,8,1:2:0:0:
240,122,86200,1,0,0:0:0:0:
83,164,86400,5,4,1:1:0:0:
92,200,86500,1,0,0:0:0:0:
108,234,86600,1,8,0:0:0:0:
130,264,86700,1,8,0:0:0:0:
157,289,86800,1,8,0:1:0:0:
189,309,86900,1,0,0:0:0:0:
224,323,87000,5,4,0:0:0:0:
261,329,87100,1,0,0:0:0:0:
298,329,87200,1,8,0:0:0:0:
335,321,87300,1,8,0:0:0:0:
369,306,87400,1,8,0:0:0:0:
401,286,87500,1,0,0:0:0:0:
427,259,87600,5,4,0:0:0:0:
475,153,87800,5,0,0:0:0:0:
127,273,89000,5,0,0:0:0:0:
257,88,89200,1,8,0:1:0:0:
379,276,89400,1,0,0:0:0:0:
255,190,89600,5,4,0:3:0:0:
329,192,90200,1,0,0:0:0:0:
401,276,90400,1,8,0:1:0:0:
183,192,90600,1,0,0:0:0:0:
111,276,90800,1,8,0:1:0:0:
256,276,91000,5,0,0:0:0:0:
427,154,91400,1,0,0:0:0:0:
321,282,91800,1,0,0:0:0:0:
216,300,92000,1,8,0:1:0:0:
126,225,92200,1,0,0:0:0:0:
135,125,92400,1,8,0:1:0:0:
216,56,92600,1,0,0:0:0:0:
301,55,92800,6,8,L|465:135,2,179.999983062745,4|8|8,0:3|0:1|0:1,0:0:0:0:
363,147,94000,1,8,0:1:0:0:
235,291,94200,1,0,0:0:0:0:
177,132,94400,1,4,0:3:0:0:
63,259,94600,1,0,0:0:0:0:
297,195,94800,5,8,0:1:0:0:
250,68,95000,1,0,0:0:0:0:
381,186,95200,2,8,P|349:257|250:280,1,179.999983062745,8|8,0:1|0:1,0:0:0:0:
161,333,95800,1,0,0:0:0:0:
74,278,96000,2,8,L|74:185,3,89.9999915313724,4|0|8|0,0:3|0:0|0:1|0:0,0:0:0:0:
140,142,96800,5,8,0:1:0:0:
233,236,97000,1,0,0:0:0:0:
140,142,97200,1,8,0:1:0:0:
56,65,97400,1,0,0:0:0:0:
378,256,97600,2,8,L|460:189,3,89.9999915313724,4|0|8|0,0:3|0:0|0:1|0:0,0:0:0:0:
372,142,98400,5,8,0:1:0:0:
279,236,98600,1,0,0:0:0:0:
372,142,98800,1,8,0:1:0:0:
456,65,99000,1,0,0:0:0:0:
140,242,99200,1,4,0:3:0:0:
89,55,100400,5,8,0:1:0:0:
151,117,100600,1,0,0:0:0:0:
176,215,100800,2,0,P|151:277|229:347,1,179.999983062745,4|8,0:3|0:1,0:0:0:0:
334,352,101400,1,0,0:0:0:0:
417,210,101600,1,8,0:1:0:0:
256,194,101800,6,8,L|256:77,2,89.9999915313724,0|8|0,0:0|0:1|0:0,0:0:0:0:
256,315,102400,1,4,0:3:0:0:
256,194,103000,1,0,0:0:0:0:
141,90,103200,1,8,0:1:0:0:
256,194,103400,1,0,0:0:0:0:
361,82,103600,1,8,0:1:0:0:
256,192,103800,5,0,0:0:0:0:
125,316,104200,2,8,L|260:187,1,179.999983062745,0|0,0:0|0:0,0:0:0:0:
319,122,104800,1,8,0:1:0:0:
329,230,105000,1,0,0:0:0:0:
419,293,105200,1,8,0:1:0:0:
496,233,105400,1,0,0:0:0:0:
495,120,105600,5,4,0:3:0:0:
314,84,106000,1,8,0:1:0:0:
169,35,106400,2,8,L|43:204,1,179.999983062745,8|8,0:1|0:1,0:0:0:0:
61,179,107000,1,0,0:0:0:0:
54,268,107200,1,4,0:3:0:0:
100,344,107400,1,0,0:0:0:0:
190,351,107600,5,8,0:1:0:0:
276,331,107800,1,0,0:0:0:0:
325,252,108000,2,8,L|361:152,3,89.9999915313724,8|0|8|0,0:1|0:0|0:1|0:0,0:0:0:0:
246,111,108800,1,4,0:3:0:0:
417,22,109600,1,8,0:1:0:0:
363,152,109800,1,0,0:0:0:0:
478,98,110000,1,8,0:1:0:0:
435,240,110200,5,0,0:0:0:0:
435,240,110400,2,0,L|244:303,1,179.999983062745,4|8,0:3|0:1,0:0:0:0:
131,263,111200,1,8,0:1:0:0:
129,351,111400,1,0,0:0:0:0:
133,165,111600,1,8,0:1:0:0:
131,263,111800,5,0,0:0:0:0:
215,308,112000,2,8,L|396:263,2,179.999983062745,4|8|8,0:3|0:1|0:1,0:0:0:0:
216,234,113200,1,8,0:1:0:0:
289,351,113400,1,0,0:0:0:0:
330,232,113600,6,4,L|441:232,1,89.9999915313724,4|0,0:3|0:0,0:0:0:0:
416,164,113900,6,4,L|310:164,1,89.9999915313724,4|0,0:3|0:0,0:0:0:0:
320,88,114200,6,4,B|459:88,1,134.999987297059,4|0,0:3|0:0,0:0:0:0:
496,86,114700,5,0,0:0:0:0:
407,22,114800,1,4,0:3:0:0:
320,88,115000,1,0,0:0:0:0:
256,187,115200,2,8,L|256:86,4,89.9999915313724,4|0|8|0|8,0:3|0:0|0:1|0:0|0:1,0:0:0:0:
179,226,116200,1,0,0:0:0:0:
74,291,116400,5,8,0:1:0:0:
184,344,116600,1,0,0:0:0:0:
333,226,117000,1,0,0:0:0:0:
438,291,117200,5,8,0:1:0:0:
328,344,117400,1,0,0:0:0:0:
249,293,117600,1,8,0:1:0:0:
155,338,117800,1,0,0:0:0:0:
66,285,118000,5,8,0:1:0:0:
34,188,118200,1,0,0:0:0:0:
81,78,118400,2,8,B|192:221,1,179.999983062745,4|8,0:3|0:1,0:0:0:0:
217,293,119200,1,8,0:1:0:0:
310,300,119600,5,8,0:1:0:0:
335,121,119800,1,0,0:0:0:0:
220,260,120000,5,4,0:3:0:0:
421,173,120200,1,0,0:0:0:0:
234,165,120400,5,8,0:1:0:0:
412,258,120600,1,0,0:0:0:0:
313,78,120800,5,8,0:1:0:0:
167,143,121200,1,8,0:1:0:0:
230,266,121400,1,0,0:0:0:0:
126,267,121600,2,8,L|27:267,3,89.9999915313724,4|0|8|0,0:3|0:0|0:1|0:0,0:0:0:0:
230,266,122400,1,8,0:1:0:0:
292,332,122600,5,0,0:0:0:0:
381,341,122800,1,8,0:1:0:0:
461,298,123000,1,0,0:0:0:0:
481,216,123200,2,8,P|462:295|381:340,1,179.999983062745,4|8,0:3|0:1,0:0:0:0:
237,340,124000,5,8,0:1:0:0:
168,275,124200,1,0,0:0:0:0:
194,200,124400,1,8,0:1:0:0:
270,145,124600,1,0,0:0:0:0:
352,125,124800,2,8,P|258:150|183:211,1,179.999983062745,4|8,0:3|0:1,0:0:0:0:
95,265,125600,5,8,0:1:0:0:
95,265,126000,1,8,0:1:0:0:
42,336,126200,1,0,0:0:0:0:
133,342,126400,1,4,0:3:0:0:
352,141,127000,1,0,0:0:0:0:
352,141,127200,1,8,0:1:0:0:
354,246,127400,5,0,0:0:0:0:
354,246,127500,1,0,0:0:0:0:
354,246,127600,1,8,0:1:0:0:
354,246,127700,1,0,0:0:0:0:
354,246,127800,1,0,0:0:0:0:
354,246,127900,1,0,0:0:0:0:
337,281,128000,5,4,0:3:0:0:
155,252,128600,5,0,0:0:0:0:
57,196,128800,1,8,0:1:0:0:
155,252,129000,1,0,0:0:0:0:
57,196,129200,1,8,0:1:0:0:
155,252,129400,1,0,0:0:0:0:
302,254,129800,5,0,0:0:0:0:
259,85,130200,1,0,0:0:0:0:
356,87,130400,1,8,0:1:0:0:
444,133,130600,1,0,0:0:0:0:
495,227,130800,1,8,0:1:0:0:
465,308,131000,1,0,0:0:0:0:
365,351,131200,1,4,0:3:0:0:
254,347,131600,5,8,0:1:0:0:
169,199,132000,1,8,0:1:0:0:
326,102,132400,1,8,0:1:0:0:
406,134,132600,1,0,0:0:0:0:
470,196,132800,1,4,0:3:0:0:
468,278,133000,1,0,0:0:0:0:
421,352,133200,6,0,L|316:353,1,89.9999915313724,8|0,0:1|0:0,0:0:0:0:
214,297,133600,1,8,0:1:0:0:
41,107,134000,1,8,0:1:0:0:
128,73,134200,1,0,0:0:0:0:
207,77,134400,2,8,L|265:259,1,179.999983062745,4|8,0:3|0:1,0:0:0:0:
201,315,135200,5,8,0:1:0:0:
316,326,135400,1,0,0:0:0:0:
404,280,135600,1,8,0:1:0:0:
461,215,135800,1,0,0:0:0:0:
457,142,136000,2,8,L|269:142,1,179.999983062745,4|8,0:3|0:1,0:0:0:0:
199,138,136800,5,8,0:1:0:0:
114,140,137000,1,0,0:0:0:0:
37,142,137200,1,8,0:1:0:0:
34,223,137400,1,0,0:0:0:0:
122,225,137600,2,8,P|106:310|31:353,2,179.999983062745,4|8|8,0:3|0:1|0:1,0:0:0:0:
275,292,138800,1,8,0:1:0:0:
388,317,139000,1,0,0:0:0:0:
447,226,139200,2,8,L|266:191,1,179.999983062745,4|8,0:3|0:1,0:0:0:0:
212,228,139800,1,0,0:0:0:0:
324,112,140000,5,8,0:1:0:0:
255,192,140800,5,4,0:3:0:0:
391,237,141200,1,0,0:0:0:0:
422,97,141600,2,8,L|246:46,1,149.999990463257,2|0,0:0|0:0,0:0:0:0:
188,34,142400,1,4,0:3:0:0:
80,52,142800,1,0,0:0:0:0:
50,131,143000,6,8,L|50:226,1,74.9999952316285,0|2,0:0|0:0,0:0:0:0:
127,209,143400,2,0,L|127:125,1,74.9999952316285,0|0,0:0|0:0,0:0:0:0:
203,134,143800,2,8,L|203:218,1,74.9999952316285,0|4,0:0|0:3,0:0:0:0:
209,306,144400,5,0,0:0:0:0:
325,290,144600,1,0,0:0:0:0:
358,210,144800,1,2,0:0:0:0:
409,109,145000,5,0,0:0:0:0:
409,29,145200,1,0,0:0:0:0:
409,109,145400,1,0,0:0:0:0:
312,110,146000,1,0,0:0:0:0:
312,110,146200,1,0,0:0:0:0:
296,34,146400,2,8,P|423:64|471:129,1,187.499988079071,2|0,0:0|0:0,0:0:0:0:
441,219,147000,5,0,0:0:0:0:
348,284,147200,2,8,P|236:273|178:183,1,187.499988079071,4|0,0:3|0:0,0:0:0:0:
164,132,147800,1,0,0:0:0:0:
201,54,148000,2,8,P|287:11|394:76,1,187.499988079071,2|0,0:0|0:0,0:0:0:0:
416,139,148600,1,0,0:0:0:0:
430,242,148800,6,8,L|331:242,1,74.9999952316285,4|0,0:3|0:0,0:0:0:0:
352,329,149200,2,8,L|430:329,1,74.9999952316285,0|0,0:0|0:0,0:0:0:0:
252,347,149600,1,2,0:0:0:0:
322,212,150000,1,0,0:0:0:0:
167,200,150400,2,8,P|278:31|363:54,1,299.999980926514,4|2,0:3|0:0,0:0:0:0:
438,193,151400,5,0,0:0:0:0:
479,274,151600,1,0,0:0:0:0:
416,339,151800,1,0,0:0:0:0:
328,293,152000,1,4,0:3:0:0:
360,210,152600,1,0,0:0:0:0:
446,157,152800,1,2,0:0:0:0:
445,77,153200,6,12,L|259:77,1,149.999990463257,0|4,0:0|0:3,0:0:0:0:
172,78,154000,1,0,0:0:0:0:
172,11,154400,1,8,0:0:0:0:
172,78,154600,1,0,0:0:0:0:
174,152,154800,1,0,0:0:0:0:
174,253,155200,5,4,0:3:0:0:
176,341,155600,1,8,0:0:0:0:
302,267,156000,2,8,L|385:267,1,74.9999952316285,0|0,0:0|0:0,0:0:0:0:
411,341,156400,2,8,L|487:341,1,74.9999952316285,4|0,0:3|0:0,0:0:0:0:
484,266,156800,1,8,0:0:0:0:
366,121,157200,5,0,0:0:0:0:
428,63,157400,1,0,0:0:0:0:
428,63,157600,1,4,0:3:0:0:
366,121,157800,1,0,0:0:0:0:
356,192,158000,2,8,L|206:192,1,149.999990463257,8|0,0:0|0:0,0:0:0:0:
131,195,158800,5,4,0:3:0:0:
247,78,159000,1,0,0:0:0:0:
482,310,159600,1,0,0:0:0:0:
481,179,160000,2,8,B|396:192|396:192|394:269,1,149.999990463257,4|8,0:3|0:0,0:0:0:0:
492,276,160600,5,0,0:0:0:0:
492,368,160800,1,0,0:0:0:0:
146,280,161200,1,4,0:3:0:0:
73,349,161400,1,0,0:0:0:0:
200,350,161600,1,8,0:0:0:0:
146,280,161800,5,0,0:0:0:0:
73,349,162000,1,0,0:0:0:0:
200,350,162200,1,0,0:0:0:0:
146,280,162400,1,4,0:3:0:0:
150,143,162800,1,8,0:0:0:0:
161,65,163200,2,8,P|251:2|352:131,1,299.999980926514,0|8,0:0|0:0,0:0:0:0:
494,124,164200,5,0,0:0:0:0:
491,215,164400,1,0,0:0:0:0:
392,213,164600,1,0,0:0:0:0:
392,123,164800,1,4,0:3:0:0:
125,191,165400,5,0,0:0:0:0:
220,117,165600,1,0,0:0:0:0:
365,269,165800,1,0,0:0:0:0:
359,87,166000,1,4,0:3:0:0:
266,242,166200,1,0,0:0:0:0:
456,122,166400,5,8,0:2:0:0:
402,73,166600,1,0,0:0:0:0:
335,35,166800,1,0,0:0:0:0:
264,26,167000,1,0,0:0:0:0:
189,27,167200,5,8,0:2:0:0:
115,37,167400,1,0,0:0:0:0:
70,97,167600,1,0,0:0:0:0:
133,144,167800,1,0,0:0:0:0:
198,104,168000,6,0,L|281:105,1,74.9999952316285,8|0,0:2|0:0,0:0:0:0:
373,103,168400,2,0,L|373:199,1,74.9999952316285
372,252,168800,2,0,P|372:345|372:348,1,74.9999952316285,8|0,0:0|0:0,0:0:0:0:
272,245,169200,2,0,L|271:150,1,74.9999952316285
180,161,169600,6,0,L|73:161,1,74.9999952316285,8|0,0:2|0:0,0:0:0:0:
83,237,170000,2,0,L|185:237,1,74.9999952316285,8|0,0:2|0:0,0:0:0:0:
160,108,170400,2,0,L|66:108,1,74.9999952316285,8|0,0:2|0:0,0:0:0:0:
239,109,170800,2,0,L|330:109,1,74.9999952316285,8|0,0:2|0:0,0:0:0:0:
418,108,171200,5,8,0:2:0:0:
484,187,171400,1,0,0:0:0:0:
418,108,171600,1,8,0:2:0:0:
392,258,171800,2,0,L|309:307,1,74.9999952316285,0|8,0:0|0:2,0:0:0:0:
237,239,172200,1,0,0:0:0:0:
145,55,172400,6,0,L|195:122,1,74.9999952316285,8|0,0:2|0:0,0:0:0:0:
126,190,172800,1,8,0:2:0:0:
267,130,173000,1,0,0:0:0:0:
241,245,173200,2,0,L|190:162,1,74.9999952316285,8|0,0:2|0:0,0:0:0:0:
148,87,173600,5,8,0:2:0:0:
126,190,173800,2,0,L|61:251,1,74.9999952316285,0|8,0:0|0:2,0:0:0:0:
23,178,174200,1,0,0:0:0:0:
38,99,174400,6,0,L|76:17,1,74.9999952316285,8|0,0:2|0:0,0:0:0:0:
154,32,174800,2,0,L|197:115,1,74.9999952316285,8|0,0:2|0:0,0:0:0:0:
255,192,175200,2,0,L|364:192,2,74.9999952316285,8|0|8,0:2|0:0|0:2,0:0:0:0:
256,70,175800,5,0,0:0:0:0:
376,72,176000,1,8,0:2:0:0:
478,69,176200,1,0,0:0:0:0:
493,235,176400,2,0,L|383:235,1,74.9999952316285,8|0,0:2|0:0,0:0:0:0:
343,165,176800,2,0,L|232:165,1,74.9999952316285,8|0,0:2|0:0,0:0:0:0:
328,87,177200,5,8,0:2:0:0:
216,93,177400,1,0,0:0:0:0:
59,195,177600,1,8,0:2:0:0:
177,192,177800,1,0,0:0:0:0:
59,270,178000,6,0,L|59:193,1,74.9999952316285,8|0,0:2|0:0,0:0:0:0:
177,267,178400,2,0,L|177:190,1,74.9999952316285,0|0,0:0|0:0,0:0:0:0:
175,108,178800,5,8,0:2:0:0:
329,192,179000,1,0,0:0:0:0:
477,270,179200,1,0,0:0:0:0:
338,290,179400,1,0,0:0:0:0:
329,111,179600,1,8,0:2:0:0:
210,115,179800,5,0,0:0:0:0:
121,201,180000,1,0,0:0:0:0:
277,292,180200,1,0,0:0:0:0:
36,163,180400,1,8,0:0:0:0:
169,73,180600,1,0,0:0:0:0:
362,157,180800,5,0,0:0:0:0:
485,71,181000,1,0,0:0:0:0:
256,68,181200,1,8,0:2:0:0:
362,157,181400,1,0,0:0:0:0:
465,263,181600,5,8,0:2:0:0:
311,266,181800,1,0,0:0:0:0:
211,191,182000,1,8,0:2:0:0:
125,270,182200,1,0,0:0:0:0:
60,171,182400,6,0,L|15:101,1,74.9999952316285,8|0,0:2|0:0,0:0:0:0:
257,166,182800,2,0,L|302:96,1,74.9999952316285,8|0,0:2|0:0,0:0:0:0:
80,70,183200,2,0,L|120:133,1,74.9999952316285,8|0,0:2|0:0,0:0:0:0:
237,65,183600,2,0,L|196:128,1,74.9999952316285,8|0,0:2|0:0,0:0:0:0:
60,213,184000,6,0,L|19:276,1,74.9999952316285,8|0,0:2|0:0,0:0:0:0:
257,218,184400,2,0,L|297:281,1,74.9999952316285,8|0,0:2|0:0,0:0:0:0:
80,314,184801,2,0,L|120:250,1,74.9999952316285,8|0,0:2|0:0,0:0:0:0:
237,319,185201,2,0,L|196:255,1,74.9999952316285,8|0,0:2|0:0,0:0:0:0:
158,158,185600,5,8,0:2:0:0:
222,91,185800,2,0,L|291:48,1,74.9999952316285,0|8,0:0|0:2,0:0:0:0:
378,47,186200,1,0,0:0:0:0:
325,124,186400,6,0,L|388:163,1,74.9999952316285,8|0,0:2|0:0,0:0:0:0:
452,230,186799,1,8,0:2:0:0:
369,296,187000,1,0,0:0:0:0:
265,257,187200,5,8,0:2:0:0:
201,190,187400,2,0,L|132:147,1,74.9999952316285,0|8,0:0|0:2,0:0:0:0:
49,215,187800,1,0,0:0:0:0:
138,302,188000,5,8,0:2:0:0:
201,190,188200,2,0,L|270:147,1,74.9999952316285,0|8,0:0|0:2,0:0:0:0:
330,86,188600,1,0,0:0:0:0:
324,257,188800,5,8,0:2:0:0:
388,190,189000,2,0,L|457:147,1,74.9999952316285,0|8,0:0|0:2,0:0:0:0:
283,171,189400,1,0,0:0:0:0:
347,104,189600,2,0,L|416:61,1,74.9999952316285,8|0,0:2|0:0,0:0:0:0:
451,150,190000,2,0,L|387:189,1,74.9999952316285,8|0,0:2|0:0,0:0:0:0:
226,141,190400,5,8,0:2:0:0:
314,192,190600,1,0,0:0:0:0:
226,242,190800,1,8,0:2:0:0:
316,283,191000,1,0,0:0:0:0:
229,333,191200,1,8,0:2:0:0:
317,384,191400,1,0,0:0:0:0:
431,327,191600,2,0,L|431:251,1,74.9999952316285,8|0,0:2|0:0,0:0:0:0:
370,177,192000,6,0,L|306:125,1,74.9999952316285,8|0,0:2|0:0,0:0:0:0:
226,64,192400,1,8,0:2:0:0:
227,153,192600,1,0,0:0:0:0:
231,250,192800,2,0,L|231:325,1,74.9999952316285,8|0,0:2|0:0,0:0:0:0:
343,313,193200,2,0,L|397:253,1,74.9999952316285,8|0,0:2|0:0,0:0:0:0:
466,157,193600,5,8,0:2:0:0:
402,87,193800,1,0,0:0:0:0:
331,21,194000,1,8,0:2:0:0:
238,35,194200,2,0,L|172:87,1,74.9999952316285,0|8,0:0|0:2,0:0:0:0:
100,121,194600,1,0,0:0:0:0:
53,207,194800,1,8,0:2:0:0:
118,286,195000,1,0,0:0:0:0:
222,232,195200,5,8,0:2:0:0:
323,139,195400,1,0,0:0:0:0:
421,53,195600,1,8,0:2:0:0:
449,188,195800,1,0,0:0:0:0:
268,266,196000,5,8,0:2:0:0:
323,139,196200,1,0,0:0:0:0:
211,85,196400,1,8,0:2:0:0:
150,199,196600,1,0,0:0:0:0:
230,339,196800,5,8,0:2:0:0:
356,245,197000,1,0,0:0:0:0:
261,236,197200,6,8,L|189:180,2,74.9999952316285,8|0|8,0:2|0:0|0:2,0:0:0:0:
138,128,197800,1,0,0:0:0:0:
212,68,198000,1,8,0:2:0:0:
274,139,198200,2,8,L|277:230,2,74.9999952316285,0|0|0,0:0|0:0|0:0,0:0:0:0:
397,280,198800,5,8,0:2:0:0:
253,291,199000,1,0,0:0:0:0:
115,283,199200,5,0,0:0:0:0:
189,174,199400,1,0,0:0:0:0:
75,120,199600,1,8,0:2:0:0:
176,62,199800,2,8,L|266:24,1,74.9999952316285,0|0,0:0|0:0,0:0:0:0:
328,127,200200,5,0,0:0:0:0:
243,239,200400,1,8,0:0:0:0:
141,156,200600,2,8,L|216:92,1,74.9999952316285,0|0,0:0|0:0,0:0:0:0:
275,47,201000,1,0,0:0:0:0:
426,181,201200,5,8,0:2:0:0:
279,121,201400,2,8,L|272:16,2,74.9999952316285,0|8|0,0:0|0:2|0:0,0:0:0:0:
119,92,202000,1,8,0:2:0:0:
91,185,202200,1,0,0:0:0:0:
159,274,202400,6,8,L|250:316,1,74.9999952316285,8|0,0:2|0:0,0:0:0:0:
293,204,202800,2,8,L|381:238,1,74.9999952316285,8|0,0:2|0:0,0:0:0:0:
378,124,203200,1,8,0:2:0:0:
283,47,203400,1,0,0:0:0:0:
169,67,203600,1,8,0:2:0:0:
81,130,203800,5,0,0:0:0:0:
143,213,204000,2,8,L|241:210,1,74.9999952316285,8|0,0:2|0:0,0:0:0:0:
256,192,204400,12,0,208000,0:0:0:0:
