osu file format v14

[General]
AudioFilename: audio.mp3
AudioLeadIn: 0
PreviewTime: 76602
Countdown: 0
SampleSet: Soft
StackLeniency: 0.4
Mode: 0
LetterboxInBreaks: 0
WidescreenStoryboard: 0

[Editor]
Bookmarks: 12173,21664,23020,33868,44715,55563,66410,77258,88105,98953,109800,120648,131495,143698,154546
DistanceSpacing: 2.7
BeatDivisor: 4
GridSize: 16
TimelineZoom: 1.9

[Metadata]
Title:Jungle Cruise
TitleUnicode:Jungle Cruise
Artist:Hyper Potions
ArtistUnicode:Hyper Potions
Creator:hypercyte
Version:Insane
Source:
Tags:hypercute haipa happy dance electronic instrumental shiba inu hyperpotions ian kevin
BeatmapID:2442755
BeatmapSetID:1171007

[Difficulty]
HPDrainRate:6
CircleSize:4.4
OverallDifficulty:8
ApproachRate:9
SliderMultiplier:1.74
SliderTickRate:1

[Events]
//Background and Video events
0,0,"hyper pot bg.jpg",0,0
//Break Periods
2,120870,130917
//Storyboard Layer 0 (Background)
//Storyboard Layer 1 (Fail)
//Storyboard Layer 2 (Pass)
//Storyboard Layer 3 (Foreground)
//Storyboard Layer 4 (Overlay)
//Storyboard Sound Samples

[TimingPoints]
1348,338.983050847458,4,2,44,44,1,0
1348,-117.647058823529,4,2,44,44,0,0
9483,-117.647058823529,4,2,44,44,0,0
11856,-181.818181818181,4,2,44,44,0,0
12110,-181.818181818181,4,2,44,5,0,0
12195,-117.647058823529,4,2,44,44,0,0
21686,-153.846153846153,4,2,44,34,0,0
22364,-153.846153846153,4,2,44,44,0,0
22703,-153.846153846153,4,2,44,54,0,0
23042,-117.647058823529,4,2,44,54,0,0
23720,-153.846153846154,4,2,44,54,0,0
33805,-153.846153846154,4,2,44,5,0,0
33890,-117.64705882353,4,2,44,54,0,0
34568,-153.846153846154,4,2,44,54,0,0
44737,-181.818181818181,4,2,44,64,0,0
54144,-181.818181818181,4,2,44,5,0,0
54229,-227.272727272727,4,2,44,64,0,0
55585,-83.3333333333333,4,2,44,74,0,1
56517,-83.3333333333333,4,2,44,5,0,1
56602,-83.3333333333333,4,2,44,74,0,1
56686,-83.3333333333333,4,2,44,5,0,1
56771,-83.3333333333333,4,2,44,74,0,1
57873,-83.3333333333333,4,2,44,5,0,1
57958,-83.3333333333333,4,2,44,74,0,1
58212,-83.3333333333333,4,2,44,5,0,1
58297,-83.3333333333333,4,2,44,74,0,1
61941,-83.3333333333333,4,2,44,5,0,1
62025,-83.3333333333333,4,2,44,74,0,1
62110,-83.3333333333333,4,2,44,5,0,1
62195,-83.3333333333333,4,2,44,74,0,1
62280,-83.3333333333333,4,2,44,74,0,1
65670,-83.3333333333333,4,2,44,5,0,1
65754,-83.3333333333333,4,2,44,74,0,1
67364,-83.3333333333333,4,2,44,5,0,1
67449,-83.3333333333333,4,2,44,74,0,1
67534,-83.3333333333333,4,2,44,5,0,1
67619,-83.3333333333333,4,2,44,74,0,1
68720,-83.3333333333333,4,2,44,5,0,1
68805,-83.3333333333333,4,2,44,74,0,1
69059,-83.3333333333333,4,2,44,5,0,1
69144,-83.3333333333333,4,2,44,74,0,1
70076,-83.3333333333333,4,2,44,5,0,1
70161,-83.3333333333333,4,2,44,74,0,1
70246,-83.3333333333333,4,2,44,5,0,1
70331,-83.3333333333333,4,2,44,74,0,1
71093,-83.3333333333333,4,2,44,5,0,1
71178,-83.3333333333333,4,2,44,74,0,1
72110,-83.3333333333333,4,2,44,5,0,1
72195,-83.3333333333333,4,2,44,74,0,1
74314,-83.3333333333333,4,2,44,5,0,1
74398,-83.3333333333333,4,2,44,74,0,1
74483,-83.3333333333333,4,2,44,5,0,1
74568,-83.3333333333333,4,2,44,74,0,1
75839,-83.3333333333333,4,2,44,5,0,1
75924,-83.3333333333333,4,2,44,74,0,1
76602,-83.3333333333333,4,2,44,64,0,0
76941,-227.272727272727,4,2,44,64,0,0
77195,-227.272727272727,4,2,44,5,0,0
77280,-83.3333333333333,4,2,44,74,0,0
77534,-83.3333333333333,4,2,44,5,0,0
77619,-83.3333333333333,4,2,44,74,0,0
77873,-83.3333333333333,4,2,44,5,0,0
77958,-83.3333333333333,4,2,44,74,0,0
79059,-83.3333333333333,4,2,44,5,0,0
79144,-83.3333333333333,4,2,44,74,0,0
79314,-133.333333333333,4,2,44,74,0,0
79992,-83.3333333333333,4,2,44,74,0,0
80246,-83.3333333333333,4,2,44,5,0,0
80331,-83.3333333333333,4,2,44,74,0,0
80585,-83.3333333333333,4,2,44,5,0,0
80670,-83.3333333333333,4,2,44,74,0,0
80839,-83.3333333333333,4,2,44,5,0,0
80924,-83.3333333333333,4,2,44,74,0,0
81093,-83.3333333333333,4,2,44,5,0,0
81178,-83.3333333333333,4,2,44,74,0,0
82025,-133.333333333333,4,2,44,74,0,0
82703,-83.3333333333333,4,2,44,74,0,0
82958,-83.3333333333333,4,2,44,5,0,0
83042,-83.3333333333333,4,2,44,74,0,0
83297,-83.3333333333333,4,2,44,5,0,0
83381,-133.333333333333,4,2,44,74,0,0
83720,-83.3333333333333,4,2,44,74,0,0
84653,-83.3333333333333,4,2,44,5,0,0
84737,-100,4,2,44,74,0,0
87449,-227.272727272727,4,2,44,64,0,0
88127,-90.9090909090909,4,2,44,64,0,0
88381,-90.9090909090909,4,2,44,5,0,0
88466,-90.9090909090909,4,2,44,64,0,0
88636,-100,4,2,44,64,0,0
98339,-100,4,2,44,5,0,0
98975,-117.647058823529,4,2,44,54,0,0
99992,-153.846153846153,4,2,44,54,0,0
109822,-117.647058823529,4,2,44,54,0,0
110839,-133.333333333333,4,2,44,54,0,0
131517,-153.846153846153,4,2,44,64,0,0
138042,-142.857142857143,4,2,44,64,0,0
138805,-133.333333333333,4,2,44,64,0,0
139653,-125,4,2,44,64,0,0
142703,-227.272727272727,4,2,44,54,0,0
143720,-83.3333333333333,4,2,44,74,0,1
143975,-83.3333333333333,4,2,44,5,0,1
144059,-83.3333333333333,4,2,44,74,0,1
144653,-83.3333333333333,4,2,44,5,0,1
144737,-83.3333333333333,4,2,44,74,0,1
144822,-83.3333333333333,4,2,44,5,0,1
144907,-83.3333333333333,4,2,44,74,0,1
144992,-83.3333333333333,4,2,44,74,0,1
146009,-83.3333333333333,4,2,44,5,0,1
146093,-83.3333333333333,4,2,44,74,0,1
146348,-83.3333333333333,4,2,44,5,0,1
146432,-83.3333333333333,4,2,44,74,0,1
150076,-83.3333333333333,4,2,44,5,0,1
150161,-83.3333333333333,4,2,44,74,0,1
150246,-83.3333333333333,4,2,44,5,0,1
150331,-83.3333333333333,4,2,44,74,0,1
154822,-83.3333333333333,4,2,44,5,0,1
154907,-83.3333333333333,4,2,44,74,0,1
155500,-83.3333333333333,4,2,44,5,0,1
155585,-83.3333333333333,4,2,44,74,0,1
155670,-83.3333333333333,4,2,44,5,0,1
155754,-83.3333333333333,4,2,44,74,0,1
156856,-83.3333333333333,4,2,44,5,0,1
156941,-83.3333333333333,4,2,44,74,0,1
157195,-83.3333333333333,4,2,44,5,0,1
157280,-83.3333333333333,4,2,44,74,0,1
158212,-83.3333333333333,4,2,44,5,0,1
158297,-83.3333333333333,4,2,44,74,0,1
158381,-83.3333333333333,4,2,44,5,0,1
158466,-83.3333333333333,4,2,44,74,0,1
159568,-83.3333333333333,4,2,44,5,0,1
159653,-83.3333333333333,4,2,44,74,0,1
159907,-83.3333333333333,4,2,44,5,0,1
159992,-83.3333333333333,4,2,44,74,0,1
162958,-83.3333333333333,4,2,44,5,0,1
163042,-83.3333333333333,4,2,44,74,0,1
165076,-227.272727272727,4,2,44,74,0,0
165415,-227.272727272727,4,2,44,44,0,0

[Colours]
Combo1 : 221,227,136
Combo2 : 168,236,207
Combo3 : 154,204,228

[HitObjects]
161,147,1348,6,0,B|198:131|237:175|215:181|249:225|299:206,1,147.900002820969,12|8,0:0|0:1,0:0:0:0:
128,78,1856,2,0,P|123:128|147:151,1,73.9500014104843,2|0,0:0|0:0,0:0:0:0:
232,129,2195,2,0,P|241:94|223:62,1,73.9500014104843,2|8,0:0|0:1,0:0:0:0:
97,223,2534,1,0,0:0:0:0:
173,254,2703,6,0,P|228:242|253:239,2,73.9500014104843,2|2|10,0:0|0:0|0:1,0:0:0:0:
329,167,3212,1,2,0:0:0:0:
426,256,3381,5,8,0:1:0:0:
426,256,3551,1,8,0:1:0:0:
426,256,3720,2,0,P|462:226|457:194,1,73.9500014104843,8|0,0:1|0:0,0:0:0:0:
353,339,4059,6,0,P|257:310|198:301,1,147.900002820969,8|8,0:0|0:1,0:0:0:0:
105,376,4568,2,0,P|96:356|125:312,1,73.9500014104843,2|0,0:0|0:0,0:0:0:0:
224,240,4907,2,0,P|233:260|204:304,1,73.9500014104843,2|8,0:0|0:1,0:0:0:0:
112,174,5246,5,8,0:0:0:0:
114,100,5415,1,2,0:0:0:0:
172,54,5585,1,2,0:0:0:0:
245,61,5754,1,10,0:1:0:0:
171,32,5924,2,0,P|111:21|96:15,1,73.9500014104843,10|0,0:0|0:0,0:0:0:0:
320,30,6263,5,8,0:1:0:0:
320,30,6432,1,8,0:1:0:0:
320,30,6602,1,8,0:1:0:0:
390,122,6771,6,0,P|368:190|358:276,1,147.900002820969,8|8,0:0|0:1,0:0:0:0:
470,160,7280,2,0,P|426:146|416:118,1,73.9500014104843,2|0,0:0|0:0,0:0:0:0:
458,46,7619,2,0,P|493:52|511:82,1,73.9500014104843,2|8,0:0|0:1,0:0:0:0:
448,273,7958,1,0,0:0:0:0:
365,243,8127,6,0,P|326:251|291:256,2,73.9500014104843,2|2|10,0:0|0:0|0:1,0:0:0:0:
182,219,8636,1,2,0:0:0:0:
147,299,8805,5,8,0:1:0:0:
147,299,8975,1,8,0:1:0:0:
147,299,9144,2,0,P|101:303|88:326,1,73.9500014104843,8|0,0:1|0:0,0:0:0:0:
204,74,9483,6,0,P|188:122|182:221,1,147.900002820969,8|8,0:0|0:1,0:0:0:0:
72,79,9992,2,0,P|95:53|134:48,1,73.9500014104843,10|0,0:0|0:0,0:0:0:0:
264,105,10331,2,0,P|228:100|203:73,1,73.9500014104843,2|8,0:0|0:1,0:0:0:0:
352,71,10670,5,2,0:0:0:0:
389,134,10839,1,2,0:0:0:0:
371,206,11009,1,10,0:0:0:0:
419,261,11178,1,10,0:1:0:0:
392,351,11348,2,2,P|399:305|399:269,1,73.9500014104843,0|2,0:0|0:0,0:0:0:0:
258,249,11686,5,2,0:0:0:0:
258,249,11771,1,2,0:0:0:0:
258,249,11856,2,0,B|272:275|272:291|272:291|276:269|292:252,1,71.7750021903992,2|0,0:3|0:0,0:0:0:0:
244,226,12195,6,0,B|206:223|169:257|200:263|159:295|115:290,1,147.900002820969,12|8,0:0|0:1,0:0:0:0:
251,371,12703,2,0,B|270:339|270:339|241:299,1,73.9500014104843,2|8,0:0|0:0,0:0:0:0:
119,290,13042,2,0,B|100:322|100:322|129:362,1,73.9500014104843,2|8,0:0|0:1,0:0:0:0:
172,155,13381,1,0,0:0:0:0:
72,70,13551,5,10,0:0:0:0:
40,144,13720,1,2,0:0:0:0:
72,70,13890,1,10,0:1:0:0:
246,111,14059,1,2,0:0:0:0:
285,39,14229,5,8,0:1:0:0:
285,39,14398,1,8,0:1:0:0:
285,39,14568,2,0,P|331:33|354:73,1,73.9500014104843,8|0,0:1|0:0,0:0:0:0:
289,252,14907,6,0,P|277:201|232:80,1,147.900002820969,8|8,0:0|0:1,0:0:0:0:
229,295,15415,2,0,P|271:286|279:254,1,73.9500014104843,2|8,0:0|0:0,0:0:0:0:
185,185,15754,2,0,P|143:194|135:226,1,73.9500014104843,2|8,0:0|0:1,0:0:0:0:
219,311,16093,1,0,0:0:0:0:
373,201,16263,5,10,0:0:0:0:
413,271,16432,1,2,0:0:0:0:
371,341,16602,1,10,0:1:0:0:
329,271,16771,2,0,P|333:232|334:198,1,73.9500014104843,2|8,0:0|0:0,0:0:0:0:
149,359,17110,5,8,0:1:0:0:
149,359,17280,1,8,0:1:0:0:
149,359,17449,1,8,0:1:0:0:
80,307,17619,6,0,B|66:268|87:228|105:247|127:216|119:169,1,147.900002820969,8|8,0:0|0:1,0:0:0:0:
10,330,18127,2,0,P|47:343|85:314,1,73.9500014104843,2|8,0:0|0:0,0:0:0:0:
102,166,18466,2,0,P|65:153|27:182,1,73.9500014104843,2|8,0:0|0:1,0:0:0:0:
194,279,18805,1,0,0:0:0:0:
294,222,18975,5,10,0:0:0:0:
360,270,19144,1,2,0:0:0:0:
294,222,19314,1,10,0:1:0:0:
360,101,19483,1,2,0:0:0:0:
290,43,19653,5,8,0:1:0:0:
290,43,19822,1,8,0:1:0:0:
290,43,19992,2,0,L|210:56,1,73.9500014104843,8|0,0:1|0:0,0:0:0:0:
70,113,20331,5,10,0:0:0:0:
153,149,20500,1,8,0:0:0:0:
304,182,20670,5,10,0:1:0:0:
221,229,20839,1,8,0:0:0:0:
71,264,21009,5,10,0:0:0:0:
154,300,21178,1,8,0:0:0:0:
304,324,21348,5,10,0:1:0:0:
221,371,21517,1,8,0:0:0:0:
317,316,21686,6,0,L|380:332,2,56.5499974113466,2|2|2,0:0|0:0|0:0,0:0:0:0:
317,316,22195,1,0,0:0:0:0:
245,262,22364,5,0,3:0:0:0:
237,253,22449,5,0,3:0:0:0:
235,241,22534,5,0,3:0:0:0:
239,230,22619,5,0,3:0:0:0:
259,221,22703,5,0,3:0:0:0:
278,209,22788,5,0,3:0:0:0:
291,184,22873,5,0,3:0:0:0:
289,155,22958,5,0,3:0:0:0:
269,132,23042,6,0,B|233:115|190:154|216:164|176:197|135:178,2,147.900002820969,12|8|8,0:0|0:0|0:1,0:0:0:0:
269,132,24059,6,0,P|278:106|267:81,1,56.5499974113466,2|2,0:0|0:0,0:0:0:0:
400,257,24568,1,10,0:0:0:0:
400,257,24737,1,10,0:0:0:0:
375,140,25076,2,0,L|364:74,1,56.5499974113466,10|2,0:1|0:0,0:0:0:0:
225,261,25585,5,8,0:0:0:0:
225,261,25670,1,8,0:0:0:0:
225,261,25754,1,8,0:0:0:0:
273,316,25924,1,8,0:1:0:0:
324,367,26093,1,8,0:0:0:0:
208,242,26432,2,0,P|154:259|81:276,1,113.099994822693,8|0,0:1|0:0,0:0:0:0:
62,384,26941,6,0,P|43:342|98:299,1,113.099994822693,8|10,0:0|0:0,0:0:0:0:
90,169,27449,1,2,0:0:0:0:
90,169,27619,2,0,P|88:137|17:106,1,113.099994822693,10|10,0:0|0:0,0:0:0:0:
121,50,28127,1,2,0:0:0:0:
205,93,28297,5,10,0:0:0:0:
205,93,28381,1,8,0:0:0:0:
205,93,28466,1,8,0:0:0:0:
273,65,28636,1,8,0:0:0:0:
333,105,28805,2,0,P|421:89|468:86,1,113.099994822693,8|8,0:0|0:1,0:0:0:0:
333,231,29483,6,0,P|331:258|344:283,1,56.5499974113466,2|2,0:0|0:0,0:0:0:0:
493,310,29992,1,10,0:0:0:0:
493,310,30161,1,10,0:0:0:0:
356,365,30500,1,10,0:1:0:0:
356,365,30670,2,0,P|286:357|229:353,1,113.099994822693,10|8,0:0|0:0,0:0:0:0:
141,365,31178,6,0,P|148:322|125:302,1,56.5499974113466,10|8,0:0|0:1,0:0:0:0:
14,270,31517,2,0,P|7:227|30:207,1,56.5499974113466,2|8,0:0|0:0,0:0:0:0:
149,165,31856,2,0,P|156:122|133:102,1,56.5499974113466,10|0,0:1|0:0,0:0:0:0:
22,70,32195,2,0,P|15:27|38:7,1,56.5499974113466,2|8,0:0|0:0,0:0:0:0:
252,20,32534,6,0,P|261:53|248:77,2,56.5499974113466,2|10|2,0:0|0:0|0:0,0:0:0:0:
149,165,33042,2,0,P|184:154|210:153,1,56.5499974113466,10|8,0:0|0:1,0:0:0:0:
365,232,33381,5,2,0:0:0:0:
365,232,33466,1,2,0:0:0:0:
365,232,33551,2,0,B|385:208|398:202|398:202|377:200|356:188,1,84.8249961170198,2|0,0:0|0:0,0:0:0:0:
353,252,33890,6,0,B|348:299|383:325|394:306|425:337|415:382,2,147.900002820969,12|8|8,0:0|0:0|0:1,0:0:0:0:
438,78,34907,2,0,P|453:114|438:148,1,56.5499974113466,2|2,0:0|0:0,0:0:0:0:
254,208,35415,1,10,0:0:0:0:
254,208,35585,2,0,P|177:194|128:193,1,113.099994822693,10|10,0:0|0:1,0:0:0:0:
276,200,36093,1,2,0:0:0:0:
101,303,36432,5,8,0:0:0:0:
101,303,36517,1,8,0:0:0:0:
101,303,36602,1,8,0:0:0:0:
22,304,36771,1,8,0:0:0:0:
99,321,36941,2,0,P|168:309|236:308,1,113.099994822693,8|8,0:0|0:1,0:0:0:0:
391,335,37619,1,2,0:0:0:0:
391,335,37788,1,10,0:0:0:0:
446,238,38127,5,10,0:0:0:0:
385,186,38297,1,2,0:0:0:0:
404,109,38466,2,0,L|472:98,1,56.5499974113466,10|0,0:0|0:0,0:0:0:0:
244,177,38805,5,10,0:0:0:0:
244,177,38975,1,2,0:0:0:0:
157,133,39144,5,10,0:0:0:0:
157,133,39229,1,8,0:0:0:0:
157,133,39314,1,8,0:0:0:0:
86,167,39483,1,8,0:0:0:0:
100,245,39653,2,0,P|91:292|90:363,1,113.099994822693,8|8,0:0|0:1,0:0:0:0:
207,372,40331,2,0,P|210:344|198:316,1,56.5499974113466,2|2,0:0|0:0,0:0:0:0:
274,181,40839,1,10,0:0:0:0:
274,181,41009,2,0,P|330:193|346:255,1,113.099994822693,10|10,0:0|0:1,0:0:0:0:
311,310,41517,1,10,0:0:0:0:
450,224,41856,5,8,0:0:0:0:
450,224,42025,2,0,P|437:181|442:157,1,56.5499974113466,8|8,0:1|0:0,0:0:0:0:
449,75,42364,2,0,B|399:105|399:105|333:79,2,113.099994822693,2|10|2,0:0|0:1|0:0,0:0:0:0:
279,28,43212,1,8,0:0:0:0:
279,28,43381,5,8,0:0:0:0:
215,85,43551,1,8,0:0:0:0:
134,47,43720,1,8,0:0:0:0:
59,100,43890,1,8,0:0:0:0:
134,30,44059,1,8,0:1:0:0:
216,107,44229,1,8,0:1:0:0:
289,20,44398,5,8,0:0:0:0:
321,10,44483,1,8,0:0:0:0:
354,15,44568,1,8,0:0:0:0:
384,30,44653,1,8,0:0:0:0:
401,58,44737,6,0,P|380:125|374:169,1,95.7000029205323,12|0,0:0|0:0,0:0:0:0:
493,234,45246,2,0,B|448:234|422:260|444:266|408:299|350:293,1,143.550004380798,2|0,0:0|0:0,0:0:0:0:
226,218,45924,5,0,0:0:0:0:
226,218,46093,2,0,P|229:271|225:330,1,95.7000029205323,2|0,0:0|0:0,0:0:0:0:
130,144,46602,2,0,P|131:78|138:29,1,95.7000029205323,2|0,0:0|0:0,0:0:0:0:
309,142,47110,5,0,0:0:0:0:
309,142,47280,1,0,0:0:0:0:
383,99,47449,2,0,P|389:62|334:28,1,95.7000029205323,2|0,0:0|0:0,0:0:0:0:
337,233,47958,2,0,P|348:304|357:333,2,95.7000029205323,2|2|2,0:0|0:0|0:0,0:0:0:0:
268,130,48805,5,0,0:0:0:0:
139,204,49144,1,0,0:0:0:0:
0,281,49483,1,0,0:0:0:0:
145,219,49822,5,0,0:0:0:0:
145,219,49992,1,0,0:0:0:0:
82,140,50161,2,0,P|73:94|58:33,1,95.7000029205323,2|0,0:0|0:0,0:0:0:0:
171,242,50670,2,0,P|156:298|146:337,1,95.7000029205323,2|0,0:0|0:0,0:0:0:0:
228,176,51178,6,0,B|223:166|226:151|226:151|214:164|198:169,1,47.8500014602662
332,278,51517,2,0,P|395:249|423:238,1,95.7000029205323,2|0,0:0|0:0,0:0:0:0:
239,356,52025,2,0,P|188:336|184:289,2,95.7000029205323,2|2|2,0:0|0:0|0:0,0:0:0:0:
86,194,52873,6,0,P|96:131|96:85,1,95.7000029205323,2|0,0:0|0:0,0:0:0:0:
249,26,53381,2,0,P|287:34|296:53,1,47.8500014602662,2|0,0:0|0:0,0:0:0:0:
245,152,53720,2,0,P|207:144|198:125,1,47.8500014602662,2|0,0:0|0:0,0:0:0:0:
82,50,54059,2,0,B|92:41|92:41|114:44,1,23.9250007301331,2|0,0:0|0:0,0:0:0:0:
427,195,54568,6,0,B|417:212|416:232|416:232|408:214|390:204,1,76.5600023364259,2|0,0:0|0:0,0:0:0:0:
391,128,55076,5,2,0:0:0:0:
391,128,55246,5,2,0:0:0:0:
391,128,55415,5,2,0:0:0:0:
266,322,55585,6,0,B|204:330|162:281|196:263|161:213|91:228,1,208.79999362793,12|8,0:0|0:0,0:0:0:0:
98,227,56093,1,0,0:0:0:0:
213,84,56263,6,0,B|230:120|230:120|194:232,1,156.599995220947,10|0,0:1|0:0,0:0:0:0:
196,78,56602,2,0,P|209:43|234:39,1,52.1999984069825,2|0,0:0|0:0,0:0:0:0:
351,73,56771,2,0,P|372:147|272:228,1,208.79999362793,10|0,0:0|0:0,0:0:0:0:
36,265,57280,6,0,B|52:240|45:211|45:211|58:240|91:250,1,104.399996813965,10|0,0:0|0:0,0:0:0:0:
216,351,57619,2,0,B|247:323|218:277|218:277|169:280|162:319,1,156.599995220947,10|0,0:1|0:0,0:0:0:0:
237,367,57958,2,0,B|284:364|318:342|297:335|334:308|381:308,1,156.599995220947,2|0,0:0|0:0,0:0:0:0:
387,317,58297,5,8,0:0:0:0:
285,251,58466,1,0,0:0:0:0:
387,317,58636,1,8,0:0:0:0:
461,210,58805,6,0,P|453:118|454:-9,1,208.79999362793,2|0,0:0|0:0,0:0:0:0:
447,199,59314,2,0,P|398:227|349:187,1,104.399996813965,2|8,0:0|0:0,0:0:0:0:
210,150,59653,1,8,0:1:0:0:
287,88,59822,1,0,0:0:0:0:
186,160,59992,6,0,P|109:151|70:151,1,104.399996813965,10|0,0:0|0:0,0:0:0:0:
263,4,60331,2,0,P|281:73|257:100,1,104.399996813965,10|8,0:1|0:0,0:0:0:0:
82,252,60670,2,0,P|60:206|83:161,1,104.399996813965,2|0,0:0|0:0,0:0:0:0:
267,315,61009,6,0,B|322:301|322:301|418:304|418:304|483:285,1,208.79999362793,8|8,0:0|0:0,0:0:0:0:
402,216,61517,1,0,0:0:0:0:
248,329,61686,2,0,P|177:323|78:317,1,156.599995220947,10|0,0:1|0:0,0:0:0:0:
267,315,62025,2,0,B|277:285|277:285|243:258,1,52.1999984069825,2|0,0:0|0:0,0:0:0:0:
140,167,62195,6,0,P|217:199|263:88,1,208.79999362793,10|0,0:0|0:0,0:0:0:0:
121,157,62703,2,0,P|106:218|152:216,1,104.399996813965,10|0,0:0|0:0,0:0:0:0:
174,352,63042,2,0,P|214:298|273:317,1,104.399996813965,10|0,0:1|0:0,0:0:0:0:
355,217,63381,2,0,P|409:269|463:291,1,104.399996813965,2|0,0:0|0:0,0:0:0:0:
452,76,63720,6,0,B|437:42|401:48|401:48|234:87,1,208.79999362793,10|8,0:0|0:1,0:0:0:0:
103,32,64229,1,10,0:0:0:0:
131,122,64398,1,8,0:1:0:0:
122,115,64737,6,0,B|109:173|109:173|121:275|121:275|109:330,1,208.79999362793,10|8,0:0|0:1,0:0:0:0:
83,192,65246,1,2,0:1:0:0:
152,260,65415,2,0,P|219:253|353:241,1,156.599995220947,10|0,0:0|0:0,0:0:0:0:
307,244,65754,5,10,0:1:0:0:
354,168,65924,1,2,0:0:0:0:
229,165,66093,1,2,0:0:0:0:
323,333,66263,1,2,0:0:0:0:
447,208,66432,6,0,B|487:153|452:94|424:128|406:52|441:7,1,208.79999362793,12|8,0:0|0:0,0:0:0:0:
512,56,66941,1,0,0:0:0:0:
333,163,67110,6,0,P|244:148|154:141,1,156.599995220947,10|0,0:1|0:0,0:0:0:0:
357,98,67449,2,0,P|364:112|357:147,1,52.1999984069825,2|0,0:0|0:0,0:0:0:0:
243,232,67619,2,0,P|229:321|321:375,1,208.79999362793,10|0,0:0|0:0,0:0:0:0:
451,272,68127,6,0,P|391:290|396:324,1,104.399996813965,8|0,0:0|0:0,0:0:0:0:
297,156,68466,2,0,B|341:151|354:111|354:111|341:151|378:182,1,156.599995220947,8|0,0:1|0:0,0:0:0:0:
280,167,68805,2,0,B|231:167|206:136|231:130|188:87|137:90,1,156.599995220947,8|0,0:1|0:0,0:0:0:0:
57,66,69144,6,0,P|71:129|79:187,1,104.399996813965,10|0,0:0|0:0,0:0:0:0:
178,309,69483,2,0,P|164:246|156:188,1,104.399996813965,10|0,0:0|0:0,0:0:0:0:
255,42,69822,2,0,B|292:40|345:61|310:81|349:105|403:98,1,156.599995220947,10|0,0:1|0:0,0:0:0:0:
405,106,70161,2,0,P|427:78|420:46,1,52.1999984069825,2|0,0:0|0:0,0:0:0:0:
238,54,70331,6,0,P|246:122|251:178,1,104.399996813965,10|8,0:0|0:1,0:0:0:0:
256,238,70670,1,0,0:0:0:0:
145,160,70839,6,0,B|92:170|70:205|96:222|62:265|23:261,1,156.599995220947,10|0,0:0|0:0,0:0:0:0:
0,150,71178,2,0,P|44:150|80:198,1,104.399996813965,10|8,0:1|0:0,0:0:0:0:
192,305,71517,2,0,P|241:283|254:228,1,104.399996813965,2|0,0:0|0:0,0:0:0:0:
381,48,71856,6,0,P|394:124|413:220,1,156.599995220947,10|0,0:0|0:0,0:0:0:0:
418,210,72195,2,0,P|425:153|432:96,1,104.399996813965,10|0,0:0|0:0,0:0:0:0:
244,63,72534,5,10,0:1:0:0:
150,74,72703,1,2,0:0:0:0:
90,146,72873,1,2,0:0:0:0:
81,239,73042,1,10,0:0:0:0:
84,117,73212,6,0,P|72:74|50:13,1,104.399996813965,10|0,0:1|0:0,0:0:0:0:
212,286,73551,1,8,0:0:0:0:
212,286,73720,2,0,P|225:227|248:167,1,104.399996813965,2|8,0:0|0:1,0:0:0:0:
385,62,74059,2,0,B|423:93|450:60|450:60|406:82|414:131,1,156.599995220947,2|0,0:0|0:0,0:0:0:0:
421,135,74398,2,0,P|441:114|433:73,1,52.1999984069825,2|0,0:0|0:0,0:0:0:0:
315,18,74568,6,0,P|262:74|273:206,1,208.79999362793,10|0,0:0|0:0,0:0:0:0:
335,125,75076,1,10,0:0:0:0:
125,79,75246,2,0,P|73:98|49:150,1,104.399996813965,10|0,0:1|0:0,0:0:0:0:
264,294,75585,6,0,P|361:272|432:266,1,156.599995220947,10|0,0:0|0:0,0:0:0:0:
431,273,75924,1,8,0:1:0:0:
332,159,76093,1,8,0:1:0:0:
245,303,76263,2,0,P|245:349|294:389,1,104.399996813965,10|0,0:0|0:0,0:0:0:0:
210,117,76602,5,10,0:1:0:0:
210,117,76771,1,2,0:0:0:0:
183,191,76941,6,0,B|210:203|210:203|239:186,1,57.4200017523194,2|0,0:0|0:0,0:0:0:0:
155,176,77280,6,0,B|103:170|84:211|112:227|86:266|37:256,1,156.599995220947,10|0,0:0|0:0,0:0:0:0:
37,176,77619,6,0,B|88:170|107:211|79:227|105:266|154:256,1,156.599995220947,10|0,0:0|0:0,0:0:0:0:
248,256,77958,5,0,3:3:0:0:
273,251,78042,1,0,3:3:0:0:
291,271,78127,1,0,3:3:0:0:
291,296,78212,1,0,3:3:0:0:
271,311,78297,1,0,3:3:0:0:
246,306,78381,1,0,3:3:0:0:
233,282,78466,6,0,B|232:217|278:193|300:220|348:187|339:116,1,208.79999362793,10|8,0:0|0:1,0:0:0:0:
416,236,78975,2,0,P|412:198|416:170,1,52.1999984069825,10|0,0:0|0:0,0:0:0:0:
491,163,79144,5,8,0:0:0:0:
491,163,79229,1,8,0:0:0:0:
491,163,79314,2,0,P|496:206|490:268,2,97.8750037336351,8|8|8,0:1|0:1|0:1,0:0:0:0:
254,54,79992,6,0,B|290:35|290:35|362:69|362:69|399:51,1,156.599995220947,10|0,0:0|0:0,0:0:0:0:
394,53,80331,6,0,B|362:38|362:38|290:72|290:72|254:54,1,156.599995220947,10|0,0:0|0:0,0:0:0:0:
112,68,80670,6,0,P|175:71|186:112,1,104.399996813965,8|0,0:1|0:0,0:0:0:0:
254,54,80924,2,0,P|235:99|185:101,1,104.399996813965,8|0,0:0|0:0,0:0:0:0:
223,286,81178,6,0,B|267:214|212:177|196:193|151:149|195:86,1,208.79999362793,10|8,0:0|0:1,0:0:0:0:
155,236,81686,2,0,B|166:173|215:180|216:197|264:195|271:138,1,156.599995220947,10|0,0:0|0:0,0:0:0:0:
133,248,82025,6,0,P|89:243|31:240,2,97.8750037336351,8|8|8,0:1|0:1|0:1,0:0:0:0:
318,350,82703,6,0,B|352:322|352:322|349:252|349:252|308:225,1,156.599995220947,10|0,0:0|0:0,0:0:0:0:
313,228,83042,6,0,B|279:256|279:256|282:326|282:326|323:353,1,156.599995220947,10|0,0:0|0:0,0:0:0:0:
408,377,83381,6,0,P|461:363|508:354,1,97.8750037336351,8|8,0:1|0:1,0:0:0:0:
397,369,83890,6,0,P|458:312|412:194,1,208.79999362793,10|8,0:0|0:1,0:0:0:0:
474,362,84398,6,0,P|415:361|382:279,1,156.599995220947,10|0,0:0|0:0,0:0:0:0:
382,280,84737,5,8,0:1:0:0:
481,142,84907,1,8,0:0:0:0:
356,101,85076,1,2,0:0:0:0:
372,176,85246,1,2,0:0:0:0:
176,250,85415,6,0,P|141:243|81:236,1,87,14|0,0:0|0:0,0:0:0:0:
280,315,85754,2,0,P|315:308|375:301,1,87,10|0,0:0|0:0,0:0:0:0:
167,371,86093,2,0,P|132:364|72:357,1,87,10|0,0:1|0:0,0:0:0:0:
256,294,86432,5,10,0:0:0:0:
256,294,86602,1,2,0:0:0:0:
170,169,86771,5,10,0:0:0:0:
260,64,86941,1,10,0:1:0:0:
307,126,87110,1,10,0:0:0:0:
260,64,87280,1,10,0:0:0:0:
318,140,87449,6,0,L|356:150,3,38.2800011682129,10|0|0|0,0:1|0:0|0:0|0:0,0:0:0:0:
200,185,88127,6,0,B|152:205|152:205|119:235|119:235|76:254,1,143.550004380798,12|0,0:0|0:0,0:0:0:0:
68,265,88466,1,8,0:0:0:0:
215,270,88636,2,0,P|237:234|223:195,1,87,2|8,0:0|0:1,0:0:0:0:
63,96,88975,2,0,P|40:131|55:171,1,87,2|0,0:0|0:0,0:0:0:0:
242,50,89314,1,8,0:0:0:0:
380,135,89483,5,10,0:1:0:0:
428,71,89653,1,2,0:0:0:0:
369,154,89822,1,10,0:0:0:0:
356,330,89992,2,0,P|339:289|310:238,1,87,2|8,0:0|0:1,0:0:0:0:
472,222,90331,2,0,P|513:228|543:275,2,87,2|0|0,0:0|0:0|0:0,0:0:0:0:
243,334,90839,6,0,P|200:349|145:350,1,87,8|0,0:0|0:0,0:0:0:0:
16,367,91178,1,8,0:0:0:0:
6,290,91348,2,0,P|23:310|0:379,1,87,2|8,0:0|0:1,0:0:0:0:
40,139,91686,2,0,B|80:129|127:153|101:168|150:195|204:180,1,174,0|8,0:0|0:0,0:0:0:0:
330,99,92195,5,10,0:1:0:0:
282,160,92364,1,10,0:1:0:0:
298,236,92534,1,10,0:0:0:0:
370,263,92703,1,2,0:0:0:0:
370,263,92873,5,8,0:1:0:0:
298,236,93042,5,8,0:0:0:0:
282,160,93212,1,2,0:0:0:0:
330,99,93381,1,2,0:0:0:0:
185,29,93551,6,0,P|116:45|81:49,1,87,8|0,0:0|0:0,0:0:0:0:
12,113,93890,1,8,0:0:0:0:
150,121,94059,2,0,P|192:128|234:139,1,87,2|8,0:0|0:1,0:0:0:0:
345,171,94398,2,0,P|357:138|314:95,1,87,2|0,0:0|0:0,0:0:0:0:
234,139,94737,1,8,0:0:0:0:
341,286,94907,5,10,0:1:0:0:
403,253,95076,1,2,0:0:0:0:
326,293,95246,1,10,0:0:0:0:
163,223,95415,2,0,P|91:232|65:235,1,87,2|8,0:0|0:1,0:0:0:0:
239,282,95754,2,0,P|282:287|325:292,2,87,2|0|0,0:0|0:0|0:0,0:0:0:0:
66,136,96263,6,0,P|72:89|108:71,1,87,8|0,0:0|0:0,0:0:0:0:
194,71,96602,1,8,0:1:0:0:
125,245,96771,2,0,P|140:166|65:135,1,174,10|0,0:0|0:0,0:0:0:0:
127,269,97280,2,0,P|183:278|206:260,1,87,8|0,0:0|0:0,0:0:0:0:
317,136,97619,5,10,0:0:0:0:
389,165,97788,1,10,0:1:0:0:
405,241,97958,1,10,0:0:0:0:
362,307,98127,1,2,0:0:0:0:
362,307,98297,6,0,L|331:303,1,21.75,10|0,0:1|0:0,0:0:0:0:
340,304,98975,6,0,B|293:299|267:334|286:345|255:376|210:366,2,147.900002820969,12|8|8,0:0|0:0|0:1,0:0:0:0:
476,354,99992,5,2,0:0:0:0:
476,354,100161,1,2,0:0:0:0:
374,197,100500,5,8,0:0:0:0:
409,122,100670,1,8,0:0:0:0:
293,21,101009,5,10,0:1:0:0:
293,21,101178,2,0,P|262:11|237:7,1,56.5499974113466,2|0,0:0|0:0,0:0:0:0:
145,73,101517,5,8,0:0:0:0:
139,92,101602,1,8,0:0:0:0:
153,104,101686,2,0,P|191:96|213:94,2,56.5499974113466,8|8|8,0:0|0:1|0:0,0:0:0:0:
62,227,102364,1,8,0:1:0:0:
62,227,102703,5,2,0:0:0:0:
85,304,102873,1,10,0:0:0:0:
270,240,103212,5,10,0:0:0:0:
295,321,103381,1,2,0:0:0:0:
253,245,103551,2,0,P|227:249|211:279,1,56.5499974113466,10|8,0:0|0:1,0:0:0:0:
382,163,103890,5,10,0:0:0:0:
357,244,104059,1,2,0:0:0:0:
400,153,104229,5,10,0:0:0:0:
399,136,104314,1,8,0:0:0:0:
391,120,104398,2,0,P|381:87|375:60,2,56.5499974113466,8|8|8,0:0|0:0|0:0,0:0:0:0:
492,282,105076,1,8,0:1:0:0:
386,359,105415,5,2,0:0:0:0:
386,359,105585,1,2,0:0:0:0:
279,254,105924,5,10,0:0:0:0:
213,313,106093,1,10,0:0:0:0:
87,196,106432,5,10,0:1:0:0:
87,196,106602,2,0,L|72:255,1,56.5499974113466,10|0,0:0|0:0,0:0:0:0:
51,330,106941,1,8,0:0:0:0:
102,181,107110,2,0,P|97:128|95:113,1,56.5499974113466,8|8,0:0|0:1,0:0:0:0:
213,39,107449,6,0,P|245:38|264:58,1,56.5499974113466,2|8,0:0|0:0,0:0:0:0:
233,132,107788,2,0,P|205:134|184:117,1,56.5499974113466,10|0,0:1|0:0,0:0:0:0:
364,193,108127,1,2,0:0:0:0:
364,193,108297,2,0,P|396:180|417:176,1,56.5499974113466,8|0,0:0|0:0,0:0:0:0:
279,314,108636,5,10,0:0:0:0:
206,284,108805,1,2,0:0:0:0:
103,338,108975,2,0,P|58:331|38:330,1,56.5499974113466,10|0,0:0|0:0,0:0:0:0:
18,252,109314,5,2,0:0:0:0:
26,231,109398,1,2,0:0:0:0:
47,222,109483,1,2,0:0:0:0:
129,247,109653,1,2,0:0:0:0:
199,147,109822,6,0,B|204:100|169:74|158:93|127:62|137:17,2,147.900002820969,12|8|8,0:0|0:0|0:1,0:0:0:0:
306,264,110839,5,2,0:0:0:0:
306,264,111009,2,0,P|363:254|424:297,1,130.50000497818,2|10,0:0|0:0,0:0:0:0:
416,372,111517,2,0,P|400:341|414:309,1,65.2500024890901,10|0,0:0|0:0,0:0:0:0:
504,263,111856,1,10,0:1:0:0:
504,263,112025,1,2,0:0:0:0:
395,124,112364,5,8,0:0:0:0:
395,124,112449,1,8,0:0:0:0:
395,124,112534,1,8,0:0:0:0:
415,42,112703,1,8,0:0:0:0:
369,113,112873,1,8,0:0:0:0:
402,279,113212,1,8,0:1:0:0:
402,279,113551,5,2,0:0:0:0:
335,319,113720,2,0,P|292:315|264:314,1,65.2500024890901,8|0,0:0|0:0,0:0:0:0:
97,210,114059,5,10,0:0:0:0:
98,295,114229,1,2,0:0:0:0:
170,251,114398,1,10,0:0:0:0:
170,251,114737,5,10,0:0:0:0:
98,295,114907,1,2,0:0:0:0:
97,210,115076,5,10,0:0:0:0:
97,210,115161,1,8,0:0:0:0:
97,210,115246,1,8,0:0:0:0:
54,136,115415,1,8,0:0:0:0:
97,71,115585,2,0,P|145:72|245:73,1,130.50000497818,8|8,0:0|0:1,0:0:0:0:
395,50,116263,5,2,0:0:0:0:
395,50,116432,2,0,P|413:91|382:170,1,130.50000497818,2|10,0:0|0:0,0:0:0:0:
300,180,116941,2,0,P|301:146|319:116,1,65.2500024890901,10|0,0:0|0:0,0:0:0:0:
403,56,117280,1,10,0:1:0:0:
403,56,117449,1,2,0:0:0:0:
354,266,117788,5,8,0:0:0:0:
354,266,117958,2,0,P|357:308|364:342,2,65.2500024890901,2|2|2,0:0|0:1|0:0,0:0:0:0:
433,253,118466,2,0,P|438:285|440:317,1,65.2500024890901,10|8,0:0|0:1,0:0:0:0:
381,189,118805,5,2,0:0:0:0:
342,120,118975,1,2,0:0:0:0:
378,50,119144,1,10,0:0:0:0:
423,114,119314,5,2,0:0:0:0:
342,87,119483,1,10,0:0:0:0:
263,120,119653,1,2,0:0:0:0:
186,84,119822,2,0,P|140:94|110:98,1,65.2500024890901,10|8,0:0|0:1,0:0:0:0:
263,120,120161,5,10,0:0:0:0:
342,87,120331,1,2,0:0:0:0:
423,114,120500,1,10,0:0:0:0:
423,114,120585,1,8,0:0:0:0:
423,114,120670,1,8,0:0:0:0:
328,234,131517,5,8,0:0:0:0:
316,245,131686,6,0,P|277:246|244:252,1,56.5499974113466,2|8,0:0|0:1,0:0:0:0:
106,192,132025,2,0,P|125:112|224:100,1,169.64999223404,2|8,0:0|0:1,0:0:0:0:
215,106,132703,1,0,0:0:0:0:
320,38,132873,6,0,P|370:38|445:37,1,113.099994822693,2|8,0:0|0:1,0:0:0:0:
504,109,133381,2,0,P|475:110|433:114,1,56.5499974113466,2|0,0:0|0:0,0:0:0:0:
384,167,133720,5,8,0:1:0:0:
384,167,133890,1,8,0:1:0:0:
163,125,134229,5,8,0:0:0:0:
150,132,134398,6,0,P|139:170|152:197,1,56.5499974113466,2|8,0:0|0:1,0:0:0:0:
229,295,134737,2,0,P|295:273|400:270,1,169.64999223404,2|8,0:0|0:1,0:0:0:0:
407,252,135415,1,0,0:0:0:0:
474,100,135585,6,0,B|460:64|422:66|422:66|381:120|432:161,1,169.64999223404,2|2,0:0|0:0,0:0:0:0:
304,284,136432,5,10,0:1:0:0:
238,245,136602,1,8,0:1:0:0:
169,286,136771,5,10,0:1:0:0:
169,286,136856,1,2,0:0:0:0:
169,286,136941,2,0,P|125:287|68:238,2,113.099994822693,2|8|0,0:0|0:1|0:0,0:0:0:0:
238,245,137788,1,2,0:0:0:0:
217,172,137958,1,10,0:1:0:0:
292,102,138127,6,0,B|340:112|340:112|357:126|357:126|420:134,1,121.799996282959,2|2,0:0|0:0,0:0:0:0:
424,114,138636,1,8,0:1:0:0:
256,27,138805,6,0,P|248:63|271:99,1,65.2500024890901,2|0,0:0|0:0,0:0:0:0:
346,202,139144,2,0,P|357:171|348:140,1,65.2500024890901,10|8,0:1|0:1,0:0:0:0:
258,88,139483,1,2,0:0:0:0:
128,165,139653,6,0,P|109:224|151:286,1,139.2,8|8,0:0|0:1,0:0:0:0:
276,225,140161,5,0,3:0:0:0:
293,226,140246,5,0,3:0:0:0:
315,237,140331,5,0,3:0:0:0:
331,256,140415,5,0,3:0:0:0:
348,282,140500,5,0,3:0:0:0:
374,299,140585,5,0,3:0:0:0:
405,299,140670,5,0,3:0:0:0:
437,281,140754,5,0,3:0:0:0:
449,245,140839,5,0,3:0:0:0:
354,173,142703,6,0,B|375:164|384:148|384:148|376:164|381:187,1,76.5600023364259,2|0,0:0|0:0,0:0:0:0:
409,253,143212,6,0,P|433:248|451:248,2,38.2800011682129,2|2|2,0:0|0:0|0:0,0:0:0:0:
401,267,143720,6,0,B|360:286|313:266|333:256|280:230|241:247,1,156.599995220947,8|0,0:0|0:0,0:0:0:0:
242,162,144059,2,0,P|221:212|272:245,1,104.399996813965,8|0,0:0|0:0,0:0:0:0:
51,374,144398,6,0,P|67:306|71:183,1,156.599995220947,10|0,0:1|0:0,0:0:0:0:
60,206,144737,2,0,P|57:177|59:140,1,52.1999984069825,2|0,0:0|0:0,0:0:0:0:
213,65,144907,2,0,B|202:102|162:92|162:92|10:56,1,208.79999362793,10|0,0:0|0:0,0:0:0:0:
241,46,145415,6,0,P|295:53|314:104,1,104.399996813965,10|0,0:0|0:0,0:0:0:0:
407,209,145754,2,0,B|430:174|417:140|417:140|460:170|446:215,1,156.599995220947,10|0,0:1|0:0,0:0:0:0:
385,224,146093,2,0,B|349:242|304:224|324:207|275:191|237:209,1,156.599995220947,10|0,0:1|0:0,0:0:0:0:
222,224,146432,5,8,0:0:0:0:
282,315,146602,1,0,0:0:0:0:
222,224,146771,1,8,0:0:0:0:
333,100,146941,6,0,P|404:108|447:241,1,208.79999362793,2|0,0:0|0:0,0:0:0:0:
322,88,147449,2,0,P|385:85|424:103,1,104.399996813965,0|8,0:0|0:0,0:0:0:0:
181,134,147788,1,0,0:0:0:0:
98,96,147958,1,8,0:1:0:0:
202,141,148127,6,0,P|218:76|189:49,1,104.399996813965,10|0,0:0|0:0,0:0:0:0:
29,182,148466,2,0,P|60:297|83:392,1,208.79999362793,10|0,0:1|0:0,0:0:0:0:
37,324,148975,1,2,0:0:0:0:
190,232,149144,6,0,P|254:254|263:309,1,104.399996813965,8|0,0:0|0:0,0:0:0:0:
341,372,149483,2,0,P|352:316|362:265,1,104.399996813965,8|0,0:0|0:0,0:0:0:0:
464,95,149822,6,0,B|419:94|382:123|418:131|376:170|324:167,1,156.599995220947,10|2,0:1|0:0,0:0:0:0:
322,161,150161,2,0,P|308:135|323:107,1,52.1999984069825,2|0,0:0|0:0,0:0:0:0:
213,33,150331,2,0,P|157:31|124:163,1,208.79999362793,10|0,0:0|0:0,0:0:0:0:
232,43,150839,6,0,P|212:107|246:125,1,104.399996813965,10|0,0:0|0:0,0:0:0:0:
382,201,151178,2,0,P|394:138|347:102,1,104.399996813965,10|0,0:1|0:0,0:0:0:0:
211,252,151517,2,0,P|202:322|215:366,1,104.399996813965,10|0,0:1|0:0,0:0:0:0:
491,384,151856,6,0,P|491:212|483:145,1,208.79999362793,8|0,0:0|0:0,0:0:0:0:
300,188,152364,1,8,0:0:0:0:
333,272,152534,1,8,0:1:0:0:
339,257,152873,6,0,B|286:290|224:251|250:231|195:193|117:235,1,208.79999362793,10|8,0:0|0:1,0:0:0:0:
80,270,153381,1,0,0:1:0:0:
120,139,153551,2,0,P|154:169|143:226,1,104.399996813965,10|0,0:0|0:0,0:0:0:0:
219,361,153890,5,10,0:1:0:0:
293,315,154059,1,2,0:0:0:0:
424,358,154229,1,2,0:0:0:0:
324,208,154398,1,2,0:0:0:0:
435,346,154568,6,0,B|463:306|438:264|418:288|405:233|430:201,1,156.599995220947,12|0,0:0|0:0,0:0:0:0:
404,126,154907,2,0,P|457:161|442:203,1,104.399996813965,8|0,0:0|0:0,0:0:0:0:
264,45,155246,6,0,P|191:58|76:77,1,156.599995220947,10|0,0:1|0:0,0:0:0:0:
96,66,155585,2,0,B|82:44|82:44|100:14,1,52.1999984069825,2|0,0:0|0:0,0:0:0:0:
12,180,155754,2,0,P|92:177|130:291,1,208.79999362793,10|0,0:0|0:0,0:0:0:0:
314,202,156263,6,0,P|370:196|425:196,1,104.399996813965,10|0,0:0|0:0,0:0:0:0:
322,339,156602,2,0,B|276:331|266:291|266:291|276:331|242:362,1,156.599995220947,10|0,0:1|0:0,0:0:0:0:
342,345,156941,2,0,P|430:321|505:310,1,156.599995220947,2|0,0:0|0:0,0:0:0:0:
512,238,157280,6,0,P|506:177|440:156,1,104.399996813965,10|0,0:0|0:0,0:0:0:0:
357,39,157619,2,0,P|343:113|381:141,1,104.399996813965,10|0,0:0|0:0,0:0:0:0:
244,271,157958,6,0,B|201:294|154:272|179:253|134:222|84:243,1,156.599995220947,10|0,0:1|0:0,0:0:0:0:
271,273,158297,2,0,P|292:297|290:331,1,52.1999984069825,2|0,0:0|0:0,0:0:0:0:
203,153,158466,2,0,P|207:60|220:22,1,104.399996813965,10|0,0:0|0:0,0:0:0:0:
271,2,158805,1,8,0:1:0:0:
414,79,158975,6,0,P|410:172|397:210,1,104.399996813965,8|0,0:0|0:0,0:0:0:0:
271,273,159314,2,0,B|292:288|305:345|305:345|292:288|305:259,1,156.599995220947,8|0,0:1|0:0,0:0:0:0:
248,262,159653,2,0,B|214:265|192:285|208:291|181:314|150:314|150:314|157:284|179:280,1,156.599995220947
187,194,159992,6,0,P|177:126|142:111,1,104.399996813965,8|0,0:0|0:0,0:0:0:0:
78,140,160331,2,0,P|75:190|114:221,1,104.399996813965,8|0,0:0|0:0,0:0:0:0:
255,261,160670,5,10,0:1:0:0:
319,208,160839,1,2,0:0:0:0:
402,205,161009,1,2,0:0:0:0:
467,153,161178,1,10,0:0:0:0:
326,110,161348,6,0,P|265:93|220:76,1,104.399996813965,10|0,0:1|0:0,0:0:0:0:
175,15,161686,1,8,0:0:0:0:
64,103,161856,2,0,B|34:147|34:147|72:210,1,104.399996813965,2|8,0:0|0:1,0:0:0:0:
139,193,162195,2,0,B|169:149|169:149|131:86,1,104.399996813965,2|0,0:0|0:0,0:0:0:0:
64,103,162534,1,2,0:0:0:0:
235,228,162703,6,0,P|324:208|432:201,1,156.599995220947,10|0,0:0|0:0,0:0:0:0:
400,184,163042,1,8,0:1:0:0:
325,234,163212,1,10,0:0:0:0:
244,124,163381,2,0,P|245:57|278:30,1,104.399996813965,8|0,0:1|0:0,0:0:0:0:
489,82,163720,6,0,B|471:178|471:178|476:190|476:190|453:297,1,208.79999362793,10|8,0:0|0:1,0:0:0:0:
434,364,164229,1,8,0:1:0:0:
293,265,164398,2,0,B|301:313|301:313|306:322|306:322|313:370,1,104.399996813965,10|0,0:0|0:0,0:0:0:0:
164,198,164737,1,2,0:0:0:0:
205,129,164907,1,2,0:0:0:0:
129,25,165076,6,0,B|121:64|121:64|123:71|123:71|116:105,1,76.5600023364259,2|0,0:0|0:0,0:0:0:0:
