osu file format v14

[General]
AudioFilename: audio.mp3
AudioLeadIn: 0
PreviewTime: 54618
Countdown: 0
SampleSet: Normal
StackLeniency: 0.7
Mode: 1
LetterboxInBreaks: 0
WidescreenStoryboard: 1

[Editor]
Bookmarks: 23090,44782,99014,120706
DistanceSpacing: 2.8
BeatDivisor: 4
GridSize: 8
TimelineZoom: 2

[Metadata]
Title:Jungle Cruise
TitleUnicode:Jungle Cruise
Artist:Hyper Potions
ArtistUnicode:Hyper Potions
Creator:Alwaysyukaz
Version:Inner Oni
Source:
Tags:haipa happy dance electronic instrumental shiba inu chiptune fa featured artist mpg mappers' osu! guild Future Bass EDM
BeatmapID:2566190
BeatmapSetID:982340

[Difficulty]
HPDrainRate:6
CircleSize:2
OverallDifficulty:6
ApproachRate:0
SliderMultiplier:1.4
SliderTickRate:1

[Events]
//Background and Video events
0,0,"BG.jpg",0,0
//Break Periods
//Storyboard Layer 0 (Background)
//Storyboard Layer 1 (Fail)
//Storyboard Layer 2 (Pass)
//Storyboard Layer 3 (Foreground)
//Storyboard Layer 4 (Overlay)
//Storyboard Sound Samples

[TimingPoints]
1340,338.983050847458,4,1,0,70,1,0
20153,-96.1538461538461,4,1,0,70,0,0
20323,-92.5925925925926,4,1,0,70,0,0
20492,-89.2857142857143,4,1,0,70,0,0
20662,-86.2068965517241,4,1,0,70,0,0
20831,-83.3333333333333,4,1,0,70,0,0
21001,-80.6451612903226,4,1,0,70,0,0
21170,-78.125,4,1,0,70,0,0
21340,-75.7575757575758,4,1,0,70,0,0
21509,-73.5294117647059,4,1,0,70,0,0
21678,-71.4285714285714,4,1,0,70,0,0
22017,-71.9424460431655,4,1,0,70,0,0
22187,-72.463768115942,4,1,0,70,0,0
22356,-72.992700729927,4,1,0,70,0,0
22526,-73.5294117647059,4,1,0,70,0,0
22611,-74.0740740740741,4,1,0,70,0,0
22695,-74.6268656716418,4,1,0,70,0,0
22780,-75.187969924812,4,1,0,70,0,0
22865,-75.7575757575758,4,1,0,70,0,0
22950,-76.3358778625954,4,1,0,70,0,0
23034,-76.9230769230769,4,1,0,70,0,0
23204,-83.3333333333333,4,1,0,70,0,0
23373,-90.9090909090909,4,1,0,70,0,0
23712,-100,4,1,0,60,0,0
32865,-98.0392156862745,4,1,0,60,0,0
33034,-96.1538461538461,4,1,0,60,0,0
33204,-92.5925925925926,4,1,0,60,0,0
33373,-89.2857142857143,4,1,0,60,0,0
33458,-86.2068965517241,4,1,0,60,0,0
33543,-83.3333333333333,4,1,0,60,0,0
33712,-80.6451612903226,4,1,0,60,0,0
33882,-78.125,4,1,0,60,0,0
34051,-75.7575757575758,4,1,0,60,0,0
34221,-73.5294117647059,4,1,0,60,0,0
34560,-71.4285714285714,4,1,0,60,0,0
35238,-100,4,1,0,60,0,0
43034,-98.0392156862745,4,1,0,60,0,0
43204,-96.1538461538461,4,1,0,60,0,0
43373,-94.3396226415094,4,1,0,60,0,0
43543,-92.5925925925926,4,1,0,60,0,0
43628,-90.9090909090909,4,1,0,60,0,0
43712,-89.2857142857143,4,1,0,60,0,0
43882,-87.719298245614,4,1,0,60,0,0
44051,-86.2068965517241,4,1,0,60,0,0
44221,-84.7457627118644,4,1,0,60,0,0
44306,-83.3333333333333,4,1,0,60,0,0
44390,-81.9672131147541,4,1,0,60,0,0
44475,-80.6451612903226,4,1,0,60,0,0
44560,-79.3650793650794,4,1,0,60,0,0
44645,-78.125,4,1,0,60,0,0
44729,-76.9230769230769,4,1,0,65,0,0
45068,-83.3333333333333,4,1,0,65,0,0
45238,-90.9090909090909,4,1,0,65,0,0
45746,-100,4,1,0,65,0,0
52356,-96.1538461538461,4,1,0,65,0,0
52695,-92.5925925925926,4,1,0,65,0,0
52865,-89.2857142857143,4,1,0,65,0,0
52950,-86.2068965517241,4,1,0,65,0,0
53034,-83.3333333333333,4,1,0,65,0,0
53204,-80.6451612903226,4,1,0,65,0,0
53373,-78.125,4,1,0,65,0,0
53712,-75.7575757575758,4,1,0,65,0,0
54051,-73.5294117647059,4,1,0,70,0,0
54221,-100,4,1,0,70,0,0
55577,-100,4,1,0,75,0,1
76933,-100,4,1,0,75,0,0
77272,-83.3333333333333,4,1,0,80,0,0
77950,-86.2068965517241,4,1,0,80,0,0
78034,-89.2857142857143,4,1,0,80,0,0
78119,-92.5925925925926,4,1,0,80,0,0
78204,-96.1538461538461,4,1,0,80,0,0
78289,-100,4,1,0,80,0,0
78458,-83.3333333333333,4,1,0,80,0,0
78797,-84.7457627118644,4,1,0,80,0,0
78967,-86.2068965517241,4,1,0,80,0,0
79051,-87.719298245614,4,1,0,80,0,0
79136,-89.2857142857143,4,1,0,80,0,0
79221,-90.9090909090909,4,1,0,80,0,0
79306,-92.5925925925926,4,1,0,80,0,0
79475,-94.3396226415094,4,1,0,80,0,0
79560,-96.1538461538461,4,1,0,80,0,0
79645,-98.0392156862745,4,1,0,80,0,0
79814,-100,4,1,0,80,0,0
79984,-83.3333333333333,4,1,0,80,0,0
81509,-86.2068965517241,4,1,0,80,0,0
81678,-89.2857142857143,4,1,0,80,0,0
81848,-92.5925925925926,4,1,0,80,0,0
81933,-96.1538461538461,4,1,0,80,0,0
82017,-100,4,1,0,80,0,0
82695,-83.3333333333333,4,1,0,80,0,0
84729,-86.2068965517241,4,1,0,80,0,0
84899,-89.2857142857143,4,1,0,80,0,0
84984,-92.5925925925926,4,1,0,80,0,0
85068,-96.1538461538461,4,1,0,80,0,0
85153,-98.0392156862745,4,1,0,80,0,0
85238,-100,4,1,0,80,0,0
85407,-83.3333333333333,4,1,0,80,0,0
85746,-84.0336134453781,4,1,0,80,0,0
85916,-84.7457627118644,4,1,0,80,0,0
86085,-85.4700854700855,4,1,0,80,0,0
86255,-86.2068965517241,4,1,0,80,0,0
86424,-86.9565217391304,4,1,0,80,0,0
86509,-87.719298245614,4,1,0,80,0,0
86594,-88.4955752212389,4,1,0,80,0,0
86678,-89.2857142857143,4,1,0,80,0,0
86763,-90.0900900900901,4,1,0,80,0,0
86933,-90.9090909090909,4,1,0,80,0,0
87102,-91.743119266055,4,1,0,80,0,0
87272,-92.5925925925926,4,1,0,80,0,0
87441,-93.4579439252336,4,1,0,80,0,0
87611,-94.3396226415094,4,1,0,80,0,0
87695,-95.2380952380952,4,1,0,80,0,0
87780,-96.1538461538461,4,1,0,80,0,0
87950,-97.0873786407767,4,1,0,80,0,0
88119,-98.0392156862745,4,1,0,80,0,0
88458,-100,4,1,0,70,0,0
96594,-96.1538461538461,4,1,0,70,0,0
96763,-92.5925925925926,4,1,0,70,0,0
96933,-89.2857142857143,4,1,0,70,0,0
97272,-86.2068965517241,4,1,0,70,0,0
97441,-83.3333333333333,4,1,0,70,0,0
97611,-80.6451612903226,4,1,0,70,0,0
97695,-78.125,4,1,0,70,0,0
97780,-75.7575757575758,4,1,0,70,0,0
97950,-73.5294117647059,4,1,0,70,0,0
98289,-71.4285714285714,4,1,0,70,0,0
98967,-100,4,1,0,60,0,0
108797,-98.0392156862745,4,1,0,60,0,0
108967,-96.1538461538461,4,1,0,60,0,0
109136,-92.5925925925926,4,1,0,60,0,0
109306,-89.2857142857143,4,1,0,60,0,0
109390,-86.2068965517241,4,1,0,60,0,0
109475,-83.3333333333333,4,1,0,60,0,0
109645,-80.6451612903226,4,1,0,60,0,0
109814,-78.125,4,1,0,60,0,0
109984,-75.7575757575758,4,1,0,60,0,0
110153,-73.5294117647059,4,1,0,60,0,0
110492,-71.4285714285714,4,1,0,60,0,0
111170,-100,4,1,0,60,0,0
118967,-98.0392156862745,4,1,0,60,0,0
119136,-96.1538461538461,4,1,0,60,0,0
119306,-94.3396226415094,4,1,0,60,0,0
119475,-92.5925925925926,4,1,0,60,0,0
119560,-90.9090909090909,4,1,0,60,0,0
119645,-89.2857142857143,4,1,0,60,0,0
119814,-87.719298245614,4,1,0,60,0,0
119984,-86.2068965517241,4,1,0,60,0,0
120323,-84.7457627118644,4,1,0,60,0,0
120492,-83.3333333333333,4,1,0,60,0,0
120577,-81.9672131147541,4,1,0,60,0,0
120662,-80.6451612903226,4,1,0,65,0,0
120831,-86.2068965517241,4,1,0,65,0,0
121001,-92.5925925925926,4,1,0,65,0,0
121170,-96.1538461538461,4,1,0,65,0,0
121678,-100,4,1,0,65,0,0
139475,-96.1538461538461,4,1,0,65,0,0
139645,-92.5925925925926,4,1,0,65,0,0
139984,-89.2857142857143,4,1,0,65,0,0
140153,-86.2068965517241,4,1,0,65,0,0
140238,-83.3333333333333,4,1,0,65,0,0
140323,-80.6451612903226,4,1,0,65,0,0
140407,-78.125,4,1,0,65,0,0
140492,-75.7575757575758,4,1,0,65,0,0
140577,-73.5294117647059,4,1,0,65,0,0
140662,-71.4285714285714,4,1,0,65,0,0
140746,-69.4444444444444,4,1,0,65,0,0
140831,-67.5675675675676,4,1,0,70,0,0
141001,-100,4,1,0,70,0,0
143712,-100,4,1,0,75,0,1
165407,-100,4,1,0,75,0,0

[HitObjects]
257,189,1340,5,12,0:0:0:0:
257,189,1509,1,0,0:0:0:0:
257,189,1678,1,0,0:0:0:0:
257,189,1848,1,8,0:0:0:0:
257,189,2187,1,8,0:0:0:0:
257,189,2526,1,0,0:0:0:0:
257,189,2695,1,8,0:0:0:0:
257,189,2865,1,8,0:0:0:0:
257,189,3034,1,0,0:0:0:0:
257,189,3204,1,8,0:0:0:0:
257,189,3373,1,8,0:0:0:0:
257,189,3458,1,8,0:0:0:0:
257,189,3543,1,0,0:0:0:0:
257,189,3712,1,8,0:0:0:0:
257,189,4051,1,0,0:0:0:0:
257,189,4221,1,8,0:0:0:0:
257,189,4390,1,8,0:0:0:0:
257,189,4560,1,0,0:0:0:0:
257,189,4899,1,8,0:0:0:0:
257,189,5068,1,8,0:0:0:0:
257,189,5238,1,0,0:0:0:0:
257,189,5323,1,0,0:0:0:0:
257,189,5407,1,8,0:0:0:0:
257,189,5577,1,8,0:0:0:0:
257,189,5746,1,0,0:0:0:0:
257,189,5916,1,0,0:0:0:0:
257,189,6255,1,8,0:0:0:0:
257,189,6340,1,8,0:0:0:0:
257,189,6424,1,0,0:0:0:0:
257,189,6594,1,8,0:0:0:0:
257,189,6763,1,0,0:0:0:0:
257,189,6933,1,8,0:0:0:0:
257,189,7102,1,8,0:0:0:0:
257,189,7272,1,0,0:0:0:0:
257,189,7611,1,8,0:0:0:0:
257,189,7950,1,0,0:0:0:0:
257,189,8119,1,8,0:0:0:0:
257,189,8289,1,8,0:0:0:0:
257,189,8458,1,0,0:0:0:0:
257,189,8628,1,8,0:0:0:0:
257,189,8797,1,8,0:0:0:0:
257,189,8882,1,8,0:0:0:0:
257,189,8967,1,0,0:0:0:0:
257,189,9136,1,8,0:0:0:0:
257,189,9475,1,0,0:0:0:0:
257,189,9645,1,8,0:0:0:0:
257,189,9814,1,8,0:0:0:0:
257,189,9984,1,0,0:0:0:0:
257,189,10323,1,8,0:0:0:0:
257,189,10492,1,8,0:0:0:0:
257,189,10662,1,0,0:0:0:0:
257,189,10831,1,0,0:0:0:0:
257,189,10916,1,0,0:0:0:0:
257,189,11001,1,8,0:0:0:0:
257,189,11170,1,8,0:0:0:0:
257,189,11340,1,0,0:0:0:0:
257,189,11509,1,0,0:0:0:0:
257,189,11678,1,8,0:0:0:0:
257,189,11763,1,8,0:0:0:0:
257,189,11848,1,8,0:0:0:0:
257,189,12187,1,4,0:0:0:0:
257,189,12356,1,8,0:0:0:0:
257,189,12441,1,8,0:0:0:0:
257,189,12526,1,0,0:0:0:0:
257,189,12611,1,0,0:0:0:0:
257,189,12695,1,8,0:0:0:0:
257,189,12865,1,0,0:0:0:0:
257,189,13034,1,0,0:0:0:0:
257,189,13204,1,8,0:0:0:0:
257,189,13373,1,0,0:0:0:0:
257,189,13458,1,0,0:0:0:0:
257,189,13543,1,8,0:0:0:0:
257,189,13712,1,0,0:0:0:0:
257,189,13882,1,0,0:0:0:0:
257,189,14051,1,8,0:0:0:0:
257,189,14221,1,8,0:0:0:0:
257,189,14306,1,8,0:0:0:0:
257,189,14390,1,8,0:0:0:0:
257,189,14560,1,0,0:0:0:0:
257,189,14899,1,8,0:0:0:0:
257,189,14984,1,8,0:0:0:0:
257,189,15068,1,0,0:0:0:0:
257,189,15238,1,8,0:0:0:0:
257,189,15407,1,0,0:0:0:0:
257,189,15577,1,0,0:0:0:0:
257,189,15746,1,8,0:0:0:0:
257,189,15831,1,0,0:0:0:0:
257,189,15916,1,8,0:0:0:0:
257,189,16001,1,8,0:0:0:0:
257,189,16085,1,0,0:0:0:0:
257,189,16255,1,8,0:0:0:0:
257,189,16424,1,0,0:0:0:0:
257,189,16594,1,8,0:0:0:0:
257,189,16763,1,8,0:0:0:0:
257,189,16933,1,8,0:0:0:0:
257,189,17017,1,8,0:0:0:0:
257,189,17102,1,0,0:0:0:0:
257,189,17272,1,8,0:0:0:0:
257,189,17441,1,0,0:0:0:0:
257,189,17611,1,8,0:0:0:0:
257,189,17695,1,8,0:0:0:0:
257,189,17780,1,0,0:0:0:0:
257,189,17865,1,0,0:0:0:0:
257,189,17950,1,8,0:0:0:0:
257,189,18119,1,0,0:0:0:0:
257,189,18289,1,8,0:0:0:0:
257,189,18458,1,0,0:0:0:0:
257,189,18543,1,0,0:0:0:0:
257,189,18628,1,8,0:0:0:0:
257,189,18797,1,0,0:0:0:0:
257,189,18967,1,8,0:0:0:0:
257,189,19051,1,8,0:0:0:0:
257,189,19136,1,0,0:0:0:0:
257,189,19306,1,8,0:0:0:0:
257,189,19475,1,0,0:0:0:0:
257,189,19645,1,0,0:0:0:0:
257,189,19729,1,8,0:0:0:0:
257,189,19814,1,0,0:0:0:0:
257,189,19899,1,8,0:0:0:0:
257,189,19984,1,8,0:0:0:0:
257,189,20153,1,0,0:0:0:0:
257,189,20323,1,0,0:0:0:0:
257,189,20492,1,0,0:0:0:0:
257,189,20662,1,8,0:0:0:0:
257,189,20831,1,0,0:0:0:0:
257,189,21001,1,0,0:0:0:0:
257,189,21170,1,0,0:0:0:0:
257,189,21340,1,8,0:0:0:0:
257,189,21509,1,0,0:0:0:0:
257,189,21678,1,8,0:0:0:0:
257,189,22017,5,0,0:0:0:0:
257,189,22187,1,0,0:0:0:0:
257,189,22356,1,8,0:0:0:0:
257,189,22526,1,8,0:0:0:0:
257,189,22611,1,8,0:0:0:0:
257,189,22695,1,8,0:0:0:0:
257,189,22780,1,8,0:0:0:0:
257,189,22865,1,8,0:0:0:0:
257,189,22950,1,8,0:0:0:0:
257,189,23034,1,4,0:0:0:0:
257,189,23204,1,4,0:0:0:0:
257,189,23373,1,4,0:0:0:0:
257,189,23712,1,8,0:0:0:0:
257,189,24560,1,0,0:0:0:0:
257,189,24729,1,0,0:0:0:0:
257,189,25068,1,8,0:0:0:0:
257,189,25238,1,0,0:0:0:0:
257,189,25577,1,8,0:0:0:0:
257,189,25662,1,8,0:0:0:0:
257,189,25746,1,0,0:0:0:0:
257,189,25916,1,8,0:0:0:0:
257,189,26085,1,0,0:0:0:0:
257,189,26424,1,8,0:0:0:0:
257,189,26763,1,8,0:0:0:0:
257,189,26933,1,0,0:0:0:0:
257,189,27272,1,0,0:0:0:0:
257,189,27441,1,0,0:0:0:0:
257,189,27526,1,0,0:0:0:0:
257,189,27611,1,8,0:0:0:0:
257,189,27695,1,0,0:0:0:0:
257,189,27780,1,8,0:0:0:0:
257,189,27950,1,8,0:0:0:0:
257,189,28119,1,0,0:0:0:0:
257,189,28289,1,8,0:0:0:0:
257,189,28373,1,8,0:0:0:0:
257,189,28458,1,0,0:0:0:0:
257,189,28628,1,0,0:0:0:0:
257,189,28797,1,0,0:0:0:0:
257,189,29136,1,8,0:0:0:0:
257,189,29984,1,0,0:0:0:0:
257,189,30153,1,0,0:0:0:0:
257,189,30492,1,8,0:0:0:0:
257,189,30662,1,0,0:0:0:0:
257,189,31001,1,0,0:0:0:0:
257,189,31170,1,8,0:0:0:0:
257,189,31340,1,8,0:0:0:0:
257,189,31424,1,8,0:0:0:0:
257,189,31509,1,0,0:0:0:0:
257,189,31678,1,0,0:0:0:0:
257,189,31848,1,8,0:0:0:0:
257,189,32187,1,0,0:0:0:0:
257,189,32356,1,0,0:0:0:0:
257,189,32695,1,0,0:0:0:0:
257,189,32865,1,0,0:0:0:0:
257,189,33034,5,0,0:0:0:0:
257,189,33204,1,8,0:0:0:0:
257,189,33373,1,0,0:0:0:0:
257,189,33458,1,8,0:0:0:0:
257,189,33543,1,8,0:0:0:0:
257,189,33712,1,8,0:0:0:0:
257,189,33882,1,4,0:0:0:0:
257,189,34051,1,4,0:0:0:0:
257,189,34221,1,4,0:0:0:0:
257,189,34560,1,8,0:0:0:0:
257,189,35407,1,0,0:0:0:0:
257,189,35577,1,0,0:0:0:0:
257,189,35916,1,8,0:0:0:0:
257,189,36085,1,0,0:0:0:0:
257,189,36424,1,0,0:0:0:0:
257,189,36509,1,0,0:0:0:0:
257,189,36594,1,8,0:0:0:0:
257,189,36763,1,0,0:0:0:0:
257,189,36933,1,0,0:0:0:0:
257,189,37272,1,8,0:0:0:0:
257,189,37611,1,0,0:0:0:0:
257,189,37780,1,0,0:0:0:0:
257,189,38119,1,8,0:0:0:0:
257,189,38289,1,0,0:0:0:0:
257,189,38373,1,0,0:0:0:0:
257,189,38458,1,8,0:0:0:0:
257,189,38543,1,0,0:0:0:0:
257,189,38628,1,8,0:0:0:0:
257,189,38797,1,0,0:0:0:0:
257,189,38967,1,8,0:0:0:0:
257,189,39136,1,0,0:0:0:0:
257,189,39221,1,0,0:0:0:0:
257,189,39306,1,8,0:0:0:0:
257,189,39475,1,0,0:0:0:0:
257,189,39645,1,0,0:0:0:0:
257,189,39984,1,8,0:0:0:0:
257,189,40831,1,0,0:0:0:0:
257,189,41001,1,0,0:0:0:0:
257,189,41340,1,8,0:0:0:0:
257,189,41509,1,0,0:0:0:0:
257,189,41848,1,0,0:0:0:0:
257,189,42017,1,8,0:0:0:0:
257,189,42187,1,8,0:0:0:0:
257,189,42272,1,8,0:0:0:0:
257,189,42356,1,0,0:0:0:0:
257,189,42526,1,0,0:0:0:0:
257,189,42695,1,8,0:0:0:0:
257,189,43034,1,0,0:0:0:0:
257,189,43204,1,0,0:0:0:0:
257,189,43373,1,8,0:0:0:0:
257,189,43543,1,0,0:0:0:0:
257,189,43628,1,0,0:0:0:0:
257,189,43712,1,8,0:0:0:0:
257,189,43882,1,0,0:0:0:0:
257,189,44051,1,8,0:0:0:0:
257,189,44221,1,0,0:0:0:0:
257,189,44306,1,0,0:0:0:0:
257,189,44390,1,0,0:0:0:0:
257,189,44475,1,8,0:0:0:0:
257,189,44560,1,8,0:0:0:0:
257,189,44645,1,8,0:0:0:0:
257,189,44729,1,0,0:0:0:0:
257,189,45068,1,8,0:0:0:0:
257,189,45238,1,0,0:0:0:0:
257,189,45746,1,8,0:0:0:0:
257,189,45916,1,0,0:0:0:0:
257,189,46085,1,8,0:0:0:0:
257,189,46170,1,0,0:0:0:0:
257,189,46255,1,0,0:0:0:0:
257,189,46424,1,8,0:0:0:0:
257,189,46594,1,0,0:0:0:0:
257,189,47102,1,0,0:0:0:0:
257,189,47272,1,8,0:0:0:0:
257,189,47441,1,0,0:0:0:0:
257,189,47526,1,8,0:0:0:0:
257,189,47611,1,0,0:0:0:0:
257,189,47695,1,8,0:0:0:0:
257,189,47780,1,8,0:0:0:0:
257,189,47950,1,0,0:0:0:0:
257,189,48289,1,8,0:0:0:0:
257,189,48628,2,0,L|206:154,10,35
257,189,49814,1,8,0:0:0:0:
257,189,49984,1,0,0:0:0:0:
257,189,50153,1,8,0:0:0:0:
257,189,50238,1,0,0:0:0:0:
257,189,50323,1,0,0:0:0:0:
257,189,50492,1,8,0:0:0:0:
257,189,50662,1,0,0:0:0:0:
257,189,51170,1,0,0:0:0:0:
257,189,51340,1,8,0:0:0:0:
257,189,51509,1,0,0:0:0:0:
257,189,51594,1,0,0:0:0:0:
257,189,51678,1,8,0:0:0:0:
257,189,51848,1,0,0:0:0:0:
257,189,52017,1,0,0:0:0:0:
257,189,52356,5,8,0:0:0:0:
257,189,52695,1,0,0:0:0:0:
257,189,52865,1,8,0:0:0:0:
257,189,52950,1,8,0:0:0:0:
257,189,53034,1,0,0:0:0:0:
257,189,53204,1,0,0:0:0:0:
257,189,53373,1,8,0:0:0:0:
257,189,53712,1,0,0:0:0:0:
257,189,54051,1,0,0:0:0:0:
257,189,54560,1,8,0:0:0:0:
257,189,54899,1,8,0:0:0:0:
257,189,54984,1,8,0:0:0:0:
257,189,55068,1,0,0:0:0:0:
257,189,55238,1,8,0:0:0:0:
257,189,55407,1,0,0:0:0:0:
257,189,55577,1,12,0:0:0:0:
257,189,55916,1,0,0:0:0:0:
257,189,56085,1,8,0:0:0:0:
257,189,56255,1,8,0:0:0:0:
257,189,56340,1,8,0:0:0:0:
257,189,56424,1,0,0:0:0:0:
257,189,56594,1,8,0:0:0:0:
257,189,56763,1,0,0:0:0:0:
257,189,56848,1,0,0:0:0:0:
257,189,56933,1,8,0:0:0:0:
257,189,57017,1,8,0:0:0:0:
257,189,57102,1,0,0:0:0:0:
257,189,57272,1,8,0:0:0:0:
257,189,57441,1,0,0:0:0:0:
257,189,57611,1,8,0:0:0:0:
257,189,57695,1,8,0:0:0:0:
257,189,57780,1,0,0:0:0:0:
257,189,57865,1,0,0:0:0:0:
257,189,57950,1,8,0:0:0:0:
257,189,58034,1,8,0:0:0:0:
257,189,58119,1,0,0:0:0:0:
257,189,58289,1,0,0:0:0:0:
257,189,58373,1,0,0:0:0:0:
257,189,58458,1,8,0:0:0:0:
257,189,58628,1,0,0:0:0:0:
257,189,58797,1,8,0:0:0:0:
257,189,58882,1,8,0:0:0:0:
257,189,58967,1,8,0:0:0:0:
257,189,59136,1,0,0:0:0:0:
257,189,59306,1,0,0:0:0:0:
257,189,59390,1,0,0:0:0:0:
257,189,59475,1,8,0:0:0:0:
257,189,59560,1,8,0:0:0:0:
257,189,59645,1,0,0:0:0:0:
257,189,59814,1,8,0:0:0:0:
257,189,59984,1,0,0:0:0:0:
257,189,60153,1,8,0:0:0:0:
257,189,60323,1,0,0:0:0:0:
257,189,60407,1,0,0:0:0:0:
257,189,60492,1,8,0:0:0:0:
257,189,60577,1,8,0:0:0:0:
257,189,60662,1,0,0:0:0:0:
257,189,60746,1,0,0:0:0:0:
257,189,60831,1,8,0:0:0:0:
257,189,61001,1,0,0:0:0:0:
257,189,61085,1,0,0:0:0:0:
257,189,61170,1,8,0:0:0:0:
257,189,61340,1,0,0:0:0:0:
257,189,61509,1,8,0:0:0:0:
257,189,61678,1,8,0:0:0:0:
257,189,61848,1,0,0:0:0:0:
257,189,62017,1,0,0:0:0:0:
257,189,62102,1,0,0:0:0:0:
257,189,62187,1,8,0:0:0:0:
257,189,62272,1,0,0:0:0:0:
257,189,62356,1,8,0:0:0:0:
257,189,62526,1,0,0:0:0:0:
257,189,62695,1,8,0:0:0:0:
257,189,62780,1,8,0:0:0:0:
257,189,62865,1,0,0:0:0:0:
257,189,63034,1,8,0:0:0:0:
257,189,63119,1,8,0:0:0:0:
257,189,63204,1,0,0:0:0:0:
257,189,63289,1,0,0:0:0:0:
257,189,63373,1,8,0:0:0:0:
257,189,63543,1,8,0:0:0:0:
257,189,63712,1,0,0:0:0:0:
257,189,63797,1,0,0:0:0:0:
257,189,63882,1,8,0:0:0:0:
257,189,63967,1,8,0:0:0:0:
257,189,64051,1,0,0:0:0:0:
257,189,64221,1,0,0:0:0:0:
257,189,64306,1,0,0:0:0:0:
257,189,64390,1,8,0:0:0:0:
257,189,64560,1,0,0:0:0:0:
257,189,64729,1,0,0:0:0:0:
257,189,64814,1,8,0:0:0:0:
257,189,64899,1,8,0:0:0:0:
257,189,64984,1,0,0:0:0:0:
257,189,65068,1,0,0:0:0:0:
257,189,65238,1,8,0:0:0:0:
257,189,65407,1,0,0:0:0:0:
257,189,65492,1,0,0:0:0:0:
257,189,65577,1,8,0:0:0:0:
257,189,65746,1,8,0:0:0:0:
257,189,65831,1,0,0:0:0:0:
257,189,65916,1,8,0:0:0:0:
257,189,66001,1,8,0:0:0:0:
257,189,66085,1,0,0:0:0:0:
257,189,66170,1,0,0:0:0:0:
257,189,66255,1,8,0:0:0:0:
257,189,66424,1,4,0:0:0:0:
257,189,66763,1,0,0:0:0:0:
257,189,66933,1,0,0:0:0:0:
257,189,67102,1,8,0:0:0:0:
257,189,67272,1,0,0:0:0:0:
257,189,67356,1,0,0:0:0:0:
257,189,67441,1,8,0:0:0:0:
257,189,67526,1,8,0:0:0:0:
257,189,67611,1,0,0:0:0:0:
257,189,67780,1,0,0:0:0:0:
257,189,67950,1,8,0:0:0:0:
257,189,68119,1,8,0:0:0:0:
257,189,68204,1,8,0:0:0:0:
257,189,68289,1,0,0:0:0:0:
257,189,68458,1,8,0:0:0:0:
257,189,68543,1,8,0:0:0:0:
257,189,68628,1,0,0:0:0:0:
257,189,68712,1,0,0:0:0:0:
257,189,68797,1,8,0:0:0:0:
257,189,68967,1,8,0:0:0:0:
257,189,69136,1,0,0:0:0:0:
257,189,69306,1,0,0:0:0:0:
257,189,69390,1,0,0:0:0:0:
257,189,69475,1,8,0:0:0:0:
257,189,69645,1,0,0:0:0:0:
257,189,69814,1,0,0:0:0:0:
257,189,69899,1,8,0:0:0:0:
257,189,69984,1,8,0:0:0:0:
257,189,70068,1,0,0:0:0:0:
257,189,70153,1,0,0:0:0:0:
257,189,70323,1,0,0:0:0:0:
257,189,70407,1,0,0:0:0:0:
257,189,70492,1,8,0:0:0:0:
257,189,70662,1,8,0:0:0:0:
257,189,70831,1,8,0:0:0:0:
257,189,70916,1,8,0:0:0:0:
257,189,71001,1,0,0:0:0:0:
257,189,71170,1,8,0:0:0:0:
257,189,71255,1,8,0:0:0:0:
257,189,71340,1,0,0:0:0:0:
257,189,71424,1,0,0:0:0:0:
257,189,71509,1,8,0:0:0:0:
257,189,71678,1,0,0:0:0:0:
257,189,71848,1,0,0:0:0:0:
257,189,72017,1,8,0:0:0:0:
257,189,72187,1,8,0:0:0:0:
257,189,72272,1,8,0:0:0:0:
257,189,72356,1,0,0:0:0:0:
257,189,72526,1,8,0:0:0:0:
257,189,72611,1,0,0:0:0:0:
257,189,72695,1,8,0:0:0:0:
257,189,72780,1,8,0:0:0:0:
257,189,72865,1,0,0:0:0:0:
257,189,72950,1,0,0:0:0:0:
257,189,73034,1,8,0:0:0:0:
257,189,73119,1,0,0:0:0:0:
257,189,73204,1,8,0:0:0:0:
257,189,73373,1,0,0:0:0:0:
257,189,73543,1,0,0:0:0:0:
257,189,73628,1,8,0:0:0:0:
257,189,73712,1,0,0:0:0:0:
257,189,73797,1,0,0:0:0:0:
257,189,73882,1,8,0:0:0:0:
257,189,74051,1,0,0:0:0:0:
257,189,74136,1,0,0:0:0:0:
257,189,74221,1,8,0:0:0:0:
257,189,74390,1,0,0:0:0:0:
257,189,74560,1,8,0:0:0:0:
257,189,74645,1,8,0:0:0:0:
257,189,74729,1,0,0:0:0:0:
257,189,74814,1,0,0:0:0:0:
257,189,74899,1,8,0:0:0:0:
257,189,75068,1,0,0:0:0:0:
257,189,75153,1,0,0:0:0:0:
257,189,75238,1,8,0:0:0:0:
257,189,75407,1,8,0:0:0:0:
257,189,75577,1,8,0:0:0:0:
257,189,75662,1,8,0:0:0:0:
257,189,75746,1,0,0:0:0:0:
257,189,75916,1,8,0:0:0:0:
257,189,76085,1,0,0:0:0:0:
257,189,76170,1,0,0:0:0:0:
257,189,76255,1,8,0:0:0:0:
257,189,76340,1,8,0:0:0:0:
257,189,76424,1,0,0:0:0:0:
257,189,76594,1,8,0:0:0:0:
257,189,76763,1,0,0:0:0:0:
257,189,76848,1,0,0:0:0:0:
257,189,76933,1,8,0:0:0:0:
257,189,77272,1,4,0:0:0:0:
257,189,77611,1,4,0:0:0:0:
257,189,77950,1,8,0:0:0:0:
257,189,78034,1,0,0:0:0:0:
257,189,78119,1,0,0:0:0:0:
257,189,78204,1,8,0:0:0:0:
257,189,78289,1,0,0:0:0:0:
257,189,78458,1,4,0:0:0:0:
257,189,78797,5,8,0:0:0:0:
257,189,78967,1,0,0:0:0:0:
257,189,79051,1,8,0:0:0:0:
257,189,79136,1,0,0:0:0:0:
257,189,79221,1,0,0:0:0:0:
257,189,79306,1,8,0:0:0:0:
257,189,79475,1,0,0:0:0:0:
257,189,79560,1,8,0:0:0:0:
257,189,79645,1,0,0:0:0:0:
257,189,79814,1,8,0:0:0:0:
257,189,79984,1,4,0:0:0:0:
257,189,80323,1,4,0:0:0:0:
257,189,80662,1,8,0:0:0:0:
257,189,80916,1,8,0:0:0:0:
257,189,81170,1,4,0:0:0:0:
257,189,81509,5,0,0:0:0:0:
257,189,81678,1,8,0:0:0:0:
257,189,81848,1,8,0:0:0:0:
257,189,81933,1,8,0:0:0:0:
257,189,82017,1,0,0:0:0:0:
257,189,82272,1,8,0:0:0:0:
257,189,82526,1,8,0:0:0:0:
257,189,82695,1,4,0:0:0:0:
257,189,83034,1,4,0:0:0:0:
257,189,83373,1,8,0:0:0:0:
257,189,83628,1,8,0:0:0:0:
257,189,83882,1,4,0:0:0:0:
257,189,84221,1,8,0:0:0:0:
257,189,84390,1,4,0:0:0:0:
257,189,84729,5,8,0:0:0:0:
257,189,84899,1,0,0:0:0:0:
257,189,84984,1,8,0:0:0:0:
257,189,85068,1,8,0:0:0:0:
257,189,85153,1,0,0:0:0:0:
257,189,85238,1,8,0:0:0:0:
257,189,85407,1,4,0:0:0:0:
257,189,85746,5,0,0:0:0:0:
257,189,85916,1,0,0:0:0:0:
257,189,86085,1,8,0:0:0:0:
257,189,86255,1,0,0:0:0:0:
257,189,86424,1,8,0:0:0:0:
257,189,86509,1,8,0:0:0:0:
257,189,86594,1,0,0:0:0:0:
257,189,86678,1,0,0:0:0:0:
257,189,86763,1,8,0:0:0:0:
257,189,86933,1,8,0:0:0:0:
257,189,87102,1,0,0:0:0:0:
257,189,87272,1,0,0:0:0:0:
257,189,87441,1,8,0:0:0:0:
257,189,87611,1,8,0:0:0:0:
257,189,87695,1,8,0:0:0:0:
257,189,87780,1,0,0:0:0:0:
257,189,87950,1,0,0:0:0:0:
257,189,88119,1,12,0:0:0:0:
257,189,88458,1,0,0:0:0:0:
257,189,88797,1,8,0:0:0:0:
257,189,88967,1,8,0:0:0:0:
257,189,89136,1,0,0:0:0:0:
257,189,89306,1,0,0:0:0:0:
257,189,89645,1,0,0:0:0:0:
257,189,89814,1,0,0:0:0:0:
257,189,90153,1,8,0:0:0:0:
257,189,90662,1,8,0:0:0:0:
257,189,90831,1,0,0:0:0:0:
257,189,91170,1,0,0:0:0:0:
257,189,91340,1,0,0:0:0:0:
257,189,91509,1,8,0:0:0:0:
257,189,91848,1,0,0:0:0:0:
257,189,92017,1,0,0:0:0:0:
257,189,92187,1,8,0:0:0:0:
257,189,92356,1,8,0:0:0:0:
257,189,92441,1,8,0:0:0:0:
257,189,92526,1,0,0:0:0:0:
257,189,92695,1,0,0:0:0:0:
257,189,93034,1,0,0:0:0:0:
257,189,93204,1,8,0:0:0:0:
257,189,93373,1,8,0:0:0:0:
257,189,93543,1,0,0:0:0:0:
257,189,93882,1,0,0:0:0:0:
257,189,94221,1,8,0:0:0:0:
257,189,94390,1,0,0:0:0:0:
257,189,94729,1,0,0:0:0:0:
257,189,94899,1,8,0:0:0:0:
257,189,95068,1,8,0:0:0:0:
257,189,95238,1,0,0:0:0:0:
257,189,95577,1,8,0:0:0:0:
257,189,96085,1,8,0:0:0:0:
257,189,96255,1,0,0:0:0:0:
257,189,96594,5,0,0:0:0:0:
257,189,96763,1,0,0:0:0:0:
257,189,96933,1,8,0:0:0:0:
257,189,97272,1,0,0:0:0:0:
257,189,97441,1,8,0:0:0:0:
257,189,97611,1,0,0:0:0:0:
257,189,97695,1,0,0:0:0:0:
257,189,97780,1,8,0:0:0:0:
257,189,97950,1,0,0:0:0:0:
257,189,98289,1,8,0:0:0:0:
257,189,98967,1,4,0:0:0:0:
257,189,99136,1,4,0:0:0:0:
257,189,99306,1,4,0:0:0:0:
257,189,99645,1,8,0:0:0:0:
257,189,100492,1,0,0:0:0:0:
257,189,100662,1,0,0:0:0:0:
257,189,101001,1,8,0:0:0:0:
257,189,101170,1,0,0:0:0:0:
257,189,101509,1,8,0:0:0:0:
257,189,101594,1,8,0:0:0:0:
257,189,101678,1,0,0:0:0:0:
257,189,101848,1,8,0:0:0:0:
257,189,102017,1,0,0:0:0:0:
257,189,102356,1,8,0:0:0:0:
257,189,102695,1,8,0:0:0:0:
257,189,102865,1,0,0:0:0:0:
257,189,103204,1,0,0:0:0:0:
257,189,103373,1,0,0:0:0:0:
257,189,103458,1,0,0:0:0:0:
257,189,103543,1,8,0:0:0:0:
257,189,103628,1,0,0:0:0:0:
257,189,103712,1,8,0:0:0:0:
257,189,103882,1,8,0:0:0:0:
257,189,104051,1,0,0:0:0:0:
257,189,104221,1,8,0:0:0:0:
257,189,104306,1,8,0:0:0:0:
257,189,104390,1,0,0:0:0:0:
257,189,104560,1,0,0:0:0:0:
257,189,104729,1,0,0:0:0:0:
257,189,105068,1,8,0:0:0:0:
257,189,105916,1,0,0:0:0:0:
257,189,106085,1,0,0:0:0:0:
257,189,106424,1,8,0:0:0:0:
257,189,106594,1,0,0:0:0:0:
257,189,106933,1,0,0:0:0:0:
257,189,107102,1,8,0:0:0:0:
257,189,107272,1,8,0:0:0:0:
257,189,107356,1,0,0:0:0:0:
257,189,107441,1,8,0:0:0:0:
257,189,107611,1,0,0:0:0:0:
257,189,107780,1,8,0:0:0:0:
257,189,108119,1,0,0:0:0:0:
257,189,108289,1,0,0:0:0:0:
257,189,108628,1,0,0:0:0:0:
257,189,108797,1,0,0:0:0:0:
257,189,108967,5,0,0:0:0:0:
257,189,109136,1,8,0:0:0:0:
257,189,109306,1,0,0:0:0:0:
257,189,109390,1,8,0:0:0:0:
257,189,109475,1,8,0:0:0:0:
257,189,109645,1,8,0:0:0:0:
257,189,109814,1,4,0:0:0:0:
257,189,109984,1,4,0:0:0:0:
257,189,110153,1,4,0:0:0:0:
257,189,110492,1,8,0:0:0:0:
257,189,111340,1,0,0:0:0:0:
257,189,111509,1,0,0:0:0:0:
257,189,111848,1,8,0:0:0:0:
257,189,112017,1,0,0:0:0:0:
257,189,112356,1,0,0:0:0:0:
257,189,112441,1,0,0:0:0:0:
257,189,112526,1,8,0:0:0:0:
257,189,112695,1,0,0:0:0:0:
257,189,112865,1,0,0:0:0:0:
257,189,113204,1,8,0:0:0:0:
257,189,113543,1,0,0:0:0:0:
257,189,113712,1,0,0:0:0:0:
257,189,114051,1,8,0:0:0:0:
257,189,114221,1,0,0:0:0:0:
257,189,114306,1,0,0:0:0:0:
257,189,114390,1,8,0:0:0:0:
257,189,114475,1,0,0:0:0:0:
257,189,114560,1,8,0:0:0:0:
257,189,114729,1,0,0:0:0:0:
257,189,114899,1,8,0:0:0:0:
257,189,115068,1,0,0:0:0:0:
257,189,115153,1,0,0:0:0:0:
257,189,115238,1,8,0:0:0:0:
257,189,115407,1,0,0:0:0:0:
257,189,115577,1,0,0:0:0:0:
257,189,115916,1,8,0:0:0:0:
257,189,116763,1,0,0:0:0:0:
257,189,116933,1,0,0:0:0:0:
257,189,117272,1,8,0:0:0:0:
257,189,117441,1,0,0:0:0:0:
257,189,117780,1,0,0:0:0:0:
257,189,117950,1,8,0:0:0:0:
257,189,118119,1,8,0:0:0:0:
257,189,118204,1,8,0:0:0:0:
257,189,118289,1,0,0:0:0:0:
257,189,118458,1,0,0:0:0:0:
257,189,118628,1,8,0:0:0:0:
257,189,118967,5,0,0:0:0:0:
257,189,119136,1,0,0:0:0:0:
257,189,119306,1,8,0:0:0:0:
257,189,119475,1,0,0:0:0:0:
257,189,119560,1,0,0:0:0:0:
257,189,119645,1,8,0:0:0:0:
257,189,119814,1,0,0:0:0:0:
257,189,119984,1,8,0:0:0:0:
257,189,120153,1,8,0:0:0:0:
257,189,120323,1,0,0:0:0:0:
257,189,120407,1,0,0:0:0:0:
257,189,120492,1,8,0:0:0:0:
257,189,120577,1,8,0:0:0:0:
257,189,120662,1,4,0:0:0:0:
257,189,120831,1,8,0:0:0:0:
257,189,121001,1,8,0:0:0:0:
257,189,121170,1,0,0:0:0:0:
257,189,121678,1,8,0:0:0:0:
257,189,121848,1,0,0:0:0:0:
257,189,122017,1,8,0:0:0:0:
257,189,122102,1,8,0:0:0:0:
257,189,122187,1,0,0:0:0:0:
257,189,122356,1,8,0:0:0:0:
257,189,122526,1,0,0:0:0:0:
257,189,122695,1,0,0:0:0:0:
257,189,122780,1,8,0:0:0:0:
257,189,122865,1,0,0:0:0:0:
257,189,123034,1,8,0:0:0:0:
257,189,123543,1,0,0:0:0:0:
257,189,123712,1,8,0:0:0:0:
257,189,123882,1,0,0:0:0:0:
257,189,123967,1,0,0:0:0:0:
257,189,124051,1,8,0:0:0:0:
257,189,124221,1,0,0:0:0:0:
257,189,124390,1,8,0:0:0:0:
257,189,124560,1,8,0:0:0:0:
257,189,124729,1,8,0:0:0:0:
257,189,124814,1,8,0:0:0:0:
257,189,124899,1,0,0:0:0:0:
257,189,124984,1,0,0:0:0:0:
257,189,125068,1,8,0:0:0:0:
257,189,125238,1,8,0:0:0:0:
257,189,125577,1,8,0:0:0:0:
257,189,125662,1,8,0:0:0:0:
257,189,125746,1,0,0:0:0:0:
257,189,125916,1,8,0:0:0:0:
257,189,126085,1,0,0:0:0:0:
257,189,126424,1,8,0:0:0:0:
257,189,126594,1,0,0:0:0:0:
257,189,126763,1,0,0:0:0:0:
257,189,126848,1,0,0:0:0:0:
257,189,126933,1,8,0:0:0:0:
257,189,127102,1,8,0:0:0:0:
257,189,127272,1,0,0:0:0:0:
257,189,127441,1,0,0:0:0:0:
257,189,127526,1,8,0:0:0:0:
257,189,127611,1,8,0:0:0:0:
257,189,127695,1,0,0:0:0:0:
257,189,127780,1,0,0:0:0:0:
257,189,127950,1,8,0:0:0:0:
257,189,128119,1,0,0:0:0:0:
257,189,128289,1,8,0:0:0:0:
257,189,128373,1,8,0:0:0:0:
257,189,128458,1,0,0:0:0:0:
257,189,128628,1,8,0:0:0:0:
257,189,128797,1,0,0:0:0:0:
257,189,129136,1,8,0:0:0:0:
257,189,129645,1,0,0:0:0:0:
257,189,129729,1,0,0:0:0:0:
257,189,129814,1,8,0:0:0:0:
257,189,129984,1,0,0:0:0:0:
257,189,130153,1,0,0:0:0:0:
257,189,130492,1,8,0:0:0:0:
257,189,130831,1,0,0:0:0:0:
257,189,131001,1,8,0:0:0:0:
257,189,131085,1,0,0:0:0:0:
257,189,131170,1,8,0:0:0:0:
257,189,131340,1,8,0:0:0:0:
257,189,131509,1,0,0:0:0:0:
257,189,131678,1,8,0:0:0:0:
257,189,131848,1,8,0:0:0:0:
257,189,132017,1,0,0:0:0:0:
257,189,132526,1,8,0:0:0:0:
257,189,132695,1,0,0:0:0:0:
257,189,132865,1,8,0:0:0:0:
257,189,132950,1,8,0:0:0:0:
257,189,133034,1,0,0:0:0:0:
257,189,133204,1,8,0:0:0:0:
257,189,133373,1,0,0:0:0:0:
257,189,133543,1,0,0:0:0:0:
257,189,133628,1,8,0:0:0:0:
257,189,133712,1,0,0:0:0:0:
257,189,133882,1,8,0:0:0:0:
257,189,134390,1,8,0:0:0:0:
257,189,134560,1,0,0:0:0:0:
257,189,134729,1,0,0:0:0:0:
257,189,134814,1,0,0:0:0:0:
257,189,134899,1,8,0:0:0:0:
257,189,135068,1,0,0:0:0:0:
257,189,135238,1,8,0:0:0:0:
257,189,135407,1,8,0:0:0:0:
257,189,135577,1,8,0:0:0:0:
257,189,135662,1,8,0:0:0:0:
257,189,135746,1,0,0:0:0:0:
257,189,135831,1,0,0:0:0:0:
257,189,135916,1,8,0:0:0:0:
257,189,136085,1,8,0:0:0:0:
257,189,136424,1,0,0:0:0:0:
257,189,136594,1,8,0:0:0:0:
257,189,136763,1,8,0:0:0:0:
257,189,136848,1,8,0:0:0:0:
257,189,136933,1,0,0:0:0:0:
257,189,137272,1,8,0:0:0:0:
257,189,137611,1,0,0:0:0:0:
257,189,137780,1,0,0:0:0:0:
257,189,137865,1,0,0:0:0:0:
257,189,137950,1,8,0:0:0:0:
257,189,138119,1,0,0:0:0:0:
257,189,138458,1,0,0:0:0:0:
257,189,138628,1,8,0:0:0:0:
257,189,138797,1,0,0:0:0:0:
257,189,138967,1,8,0:0:0:0:
257,189,139136,1,8,0:0:0:0:
257,189,139221,1,8,0:0:0:0:
257,189,139306,1,0,0:0:0:0:
257,189,139475,5,8,0:0:0:0:
257,189,139645,1,0,0:0:0:0:
257,189,139984,1,8,0:0:0:0:
257,189,140153,1,8,0:0:0:0:
257,189,140238,1,8,0:0:0:0:
257,189,140323,1,8,0:0:0:0:
257,189,140407,1,8,0:0:0:0:
257,189,140492,1,0,0:0:0:0:
257,189,140577,1,0,0:0:0:0:
257,189,140662,1,0,0:0:0:0:
257,189,140746,1,0,0:0:0:0:
257,189,140831,1,8,0:0:0:0:
257,189,142695,5,8,0:0:0:0:
257,189,143034,1,8,0:0:0:0:
257,189,143119,1,8,0:0:0:0:
257,189,143204,1,0,0:0:0:0:
257,189,143373,1,8,0:0:0:0:
257,189,143543,1,0,0:0:0:0:
257,189,143712,1,12,0:0:0:0:
257,189,144051,1,0,0:0:0:0:
257,189,144221,1,8,0:0:0:0:
257,189,144390,1,0,0:0:0:0:
257,189,144475,1,0,0:0:0:0:
257,189,144560,1,8,0:0:0:0:
257,189,144729,1,8,0:0:0:0:
257,189,144899,1,8,0:0:0:0:
257,189,144984,1,8,0:0:0:0:
257,189,145068,1,0,0:0:0:0:
257,189,145153,1,0,0:0:0:0:
257,189,145238,1,8,0:0:0:0:
257,189,145407,1,0,0:0:0:0:
257,189,145577,1,8,0:0:0:0:
257,189,145746,1,8,0:0:0:0:
257,189,145831,1,8,0:0:0:0:
257,189,145916,1,0,0:0:0:0:
257,189,146001,1,0,0:0:0:0:
257,189,146085,1,8,0:0:0:0:
257,189,146170,1,8,0:0:0:0:
257,189,146255,1,0,0:0:0:0:
257,189,146424,1,8,0:0:0:0:
257,189,146509,1,8,0:0:0:0:
257,189,146594,1,0,0:0:0:0:
257,189,146763,1,8,0:0:0:0:
257,189,146933,1,8,0:0:0:0:
257,189,147017,1,8,0:0:0:0:
257,189,147102,1,8,0:0:0:0:
257,189,147272,1,0,0:0:0:0:
257,189,147441,1,8,0:0:0:0:
257,189,147526,1,8,0:0:0:0:
257,189,147611,1,0,0:0:0:0:
257,189,147695,1,0,0:0:0:0:
257,189,147780,1,8,0:0:0:0:
257,189,147950,1,8,0:0:0:0:
257,189,148119,1,0,0:0:0:0:
257,189,148289,1,8,0:0:0:0:
257,189,148458,1,0,0:0:0:0:
257,189,148543,1,0,0:0:0:0:
257,189,148628,1,8,0:0:0:0:
257,189,148712,1,8,0:0:0:0:
257,189,148797,1,0,0:0:0:0:
257,189,148882,1,0,0:0:0:0:
257,189,148967,1,8,0:0:0:0:
257,189,149136,1,8,0:0:0:0:
257,189,149221,1,8,0:0:0:0:
257,189,149306,1,0,0:0:0:0:
257,189,149475,1,0,0:0:0:0:
257,189,149645,1,0,0:0:0:0:
257,189,149814,1,8,0:0:0:0:
257,189,149984,1,0,0:0:0:0:
257,189,150153,1,8,0:0:0:0:
257,189,150238,1,0,0:0:0:0:
257,189,150323,1,8,0:0:0:0:
257,189,150407,1,0,0:0:0:0:
257,189,150492,1,0,0:0:0:0:
257,189,150662,1,0,0:0:0:0:
257,189,150831,1,0,0:0:0:0:
257,189,150916,1,0,0:0:0:0:
257,189,151001,1,8,0:0:0:0:
257,189,151170,1,0,0:0:0:0:
257,189,151255,1,0,0:0:0:0:
257,189,151340,1,8,0:0:0:0:
257,189,151424,1,8,0:0:0:0:
257,189,151509,1,0,0:0:0:0:
257,189,151678,1,8,0:0:0:0:
257,189,151848,1,8,0:0:0:0:
257,189,151933,1,8,0:0:0:0:
257,189,152017,1,0,0:0:0:0:
257,189,152102,1,0,0:0:0:0:
257,189,152187,1,8,0:0:0:0:
257,189,152356,1,0,0:0:0:0:
257,189,152441,1,0,0:0:0:0:
257,189,152526,1,8,0:0:0:0:
257,189,152695,1,0,0:0:0:0:
257,189,152865,1,0,0:0:0:0:
257,189,152950,1,8,0:0:0:0:
257,189,153034,1,8,0:0:0:0:
257,189,153119,1,0,0:0:0:0:
257,189,153204,1,0,0:0:0:0:
257,189,153373,1,8,0:0:0:0:
257,189,153543,1,8,0:0:0:0:
257,189,153628,1,8,0:0:0:0:
257,189,153712,1,0,0:0:0:0:
257,189,153882,1,8,0:0:0:0:
257,189,153967,1,0,0:0:0:0:
257,189,154051,1,8,0:0:0:0:
257,189,154136,1,8,0:0:0:0:
257,189,154221,1,0,0:0:0:0:
257,189,154306,1,0,0:0:0:0:
257,189,154390,1,8,0:0:0:0:
257,189,154560,1,4,0:0:0:0:
257,189,154899,1,0,0:0:0:0:
257,189,155068,1,0,0:0:0:0:
257,189,155238,1,8,0:0:0:0:
257,189,155407,1,8,0:0:0:0:
257,189,155492,1,8,0:0:0:0:
257,189,155577,1,0,0:0:0:0:
257,189,155662,1,0,0:0:0:0:
257,189,155746,1,8,0:0:0:0:
257,189,155916,1,0,0:0:0:0:
257,189,156085,1,8,0:0:0:0:
257,189,156255,1,0,0:0:0:0:
257,189,156340,1,0,0:0:0:0:
257,189,156424,1,8,0:0:0:0:
257,189,156594,1,0,0:0:0:0:
257,189,156678,1,0,0:0:0:0:
257,189,156763,1,8,0:0:0:0:
257,189,156848,1,8,0:0:0:0:
257,189,156933,1,0,0:0:0:0:
257,189,157102,1,8,0:0:0:0:
257,189,157272,1,0,0:0:0:0:
257,189,157441,1,8,0:0:0:0:
257,189,157526,1,8,0:0:0:0:
257,189,157611,1,0,0:0:0:0:
257,189,157780,1,8,0:0:0:0:
257,189,157950,1,0,0:0:0:0:
257,189,158034,1,8,0:0:0:0:
257,189,158119,1,0,0:0:0:0:
257,189,158204,1,0,0:0:0:0:
257,189,158289,1,8,0:0:0:0:
257,189,158458,1,8,0:0:0:0:
257,189,158543,1,8,0:0:0:0:
257,189,158628,1,0,0:0:0:0:
257,189,158797,1,8,0:0:0:0:
257,189,158967,1,0,0:0:0:0:
257,189,159051,1,0,0:0:0:0:
257,189,159136,1,8,0:0:0:0:
257,189,159306,1,0,0:0:0:0:
257,189,159390,1,0,0:0:0:0:
257,189,159475,1,8,0:0:0:0:
257,189,159560,1,8,0:0:0:0:
257,189,159645,1,0,0:0:0:0:
257,189,159814,1,8,0:0:0:0:
257,189,159984,1,0,0:0:0:0:
257,189,160153,1,8,0:0:0:0:
257,189,160323,1,0,0:0:0:0:
257,189,160407,1,0,0:0:0:0:
257,189,160492,1,8,0:0:0:0:
257,189,160662,1,8,0:0:0:0:
257,189,160746,1,0,0:0:0:0:
257,189,160831,1,8,0:0:0:0:
257,189,160916,1,8,0:0:0:0:
257,189,161001,1,0,0:0:0:0:
257,189,161085,1,0,0:0:0:0:
257,189,161170,1,8,0:0:0:0:
257,189,161255,1,0,0:0:0:0:
257,189,161340,1,8,0:0:0:0:
257,189,161509,1,0,0:0:0:0:
257,189,161678,1,8,0:0:0:0:
257,189,161763,1,0,0:0:0:0:
257,189,161848,1,8,0:0:0:0:
257,189,161933,1,0,0:0:0:0:
257,189,162017,1,0,0:0:0:0:
257,189,162187,1,8,0:0:0:0:
257,189,162272,5,8,0:0:0:0:
257,189,162356,1,0,0:0:0:0:
257,189,162526,1,8,0:0:0:0:
257,189,162695,1,0,0:0:0:0:
257,189,162780,1,0,0:0:0:0:
257,189,162865,1,8,0:0:0:0:
257,189,162950,1,8,0:0:0:0:
257,189,163034,1,0,0:0:0:0:
257,189,163204,1,0,0:0:0:0:
257,189,163289,1,8,0:0:0:0:
257,189,163373,1,8,0:0:0:0:
257,189,163543,1,8,0:0:0:0:
257,189,163712,1,8,0:0:0:0:
257,189,163797,1,8,0:0:0:0:
257,189,163882,1,0,0:0:0:0:
257,189,164051,5,8,0:0:0:0:
257,189,164221,1,0,0:0:0:0:
257,189,164306,1,0,0:0:0:0:
257,189,164390,1,8,0:0:0:0:
257,189,164475,1,8,0:0:0:0:
257,189,164560,1,0,0:0:0:0:
257,189,164729,1,8,0:0:0:0:
257,189,164899,1,0,0:0:0:0:
257,189,165068,1,8,0:0:0:0:
257,189,165407,1,0,0:0:0:0:
