osu file format v14

[General]
AudioFilename: audio.mp3
AudioLeadIn: 0
PreviewTime: 67412
Countdown: 0
SampleSet: Soft
StackLeniency: 0.6
Mode: 0
LetterboxInBreaks: 0
WidescreenStoryboard: 1

[Editor]
Bookmarks: 2270,9127,9448,9770,9984,10305,10841,11162,11484,22841,24555,26270,39984,53698,65698,67412,81127
DistanceSpacing: 1
BeatDivisor: 4
GridSize: 8
TimelineZoom: 1

[Metadata]
Title:Friends
TitleUnicode:Friends
Artist:Hyper Potions
ArtistUnicode:Hyper Potions
Creator:Kaitjuh
Version:Normal
Source:Sonic Mania
Tags:Ian Tsuchiura Sushi Killer Kevin Villeco SEGA Tails Miles Prower Knuckles the Echidna Hedgehog Intro Opening Electronic Future Bass CrystilonZ
BeatmapID:1399951
BeatmapSetID:658209

[Difficulty]
HPDrainRate:4
CircleSize:3.5
OverallDifficulty:4
ApproachRate:6
SliderMultiplier:1
SliderTickRate:1

[Events]
//Background and Video events
0,0,"bg.jpg",0,0
Video,0,"Animation.mp4"
//Break Periods
//Storyboard Layer 0 (Background)
//Storyboard Layer 1 (Fail)
//Storyboard Layer 2 (Pass)
//Storyboard Layer 3 (Foreground)
//Storyboard Sound Samples

[TimingPoints]
2270,428.571428571429,4,2,1,20,1,0
9127,-100,4,2,1,60,0,0
9341,-100,4,2,1,40,0,0
12555,-100,4,2,1,60,0,0
12770,-100,4,2,1,40,0,0
14270,-100,4,2,1,60,0,0
16198,-100,4,2,1,40,0,0
19412,-100,4,2,1,60,0,0
19627,-100,4,2,1,40,0,0
21127,-100,4,2,1,60,0,0
22841,-100,4,2,1,40,0,0
24555,-100,4,2,2,60,0,0
24770,-100,4,2,1,60,0,0
24984,-100,4,2,2,60,0,0
25198,-100,4,2,1,60,0,0
25412,-100,4,2,2,60,0,0
25627,-100,4,2,1,60,0,0
25841,-100,4,2,2,60,0,0
26270,-100,4,2,1,60,0,0
26698,-100,4,2,1,60,0,0
53698,-100,4,2,1,50,0,0
65698,-100,4,2,1,20,0,0
65912,-100,4,2,1,5,0,0
66127,-100,4,2,1,30,0,0
66341,-100,4,2,1,5,0,0
66555,-100,4,2,1,40,0,0
66770,-100,4,2,1,5,0,0
66984,-100,4,2,1,50,0,0
67198,-100,4,2,1,5,0,0
67412,-100,4,2,1,60,0,1
73412,-100,4,2,2,60,0,1
73520,-100,4,2,2,5,0,1
73734,-100,4,2,2,60,0,1
73841,-100,4,2,2,5,0,1
74055,-100,4,2,2,60,0,1
74162,-100,4,2,2,5,0,1
74270,-100,4,2,1,60,0,1
77698,-100,4,2,1,50,0,1
78555,-100,4,2,1,60,0,1
79412,-100,4,2,1,70,0,1
81127,-100,4,2,1,50,0,0

[Colours]
Combo1 : 255,192,0
Combo2 : 0,202,0
Combo3 : 18,124,255
Combo4 : 242,24,57

[HitObjects]
322,51,2270,6,0,B|286:39|286:39|214:55,2,100,2|2|2,0:0|0:0|0:0,0:0:0:0:
282,142,3555,2,0,L|342:163,1,50,2|2,0:0|0:0,0:0:0:0:
374,180,3984,6,0,B|410:192|410:192|482:176,2,100,2|2|2,0:0|0:0|0:0,0:0:0:0:
290,235,5270,2,0,L|230:256,1,50,2|2,0:0|0:0,0:0:0:0:
197,271,5698,6,0,P|150:256|89:281,2,100,2|2|2,0:0|0:0|0:0,0:0:0:0:
257,351,6984,2,0,P|288:355|327:344,1,50,2|2,0:0|0:0,0:0:0:0:
350,328,7412,5,2,0:0:0:0:
434,274,7841,1,2,0:0:0:0:
469,180,8270,1,2,0:0:0:0:
443,83,8698,1,2,0:0:0:0:
354,36,9127,6,0,L|240:48,1,100,4|0,1:2|0:0,0:0:0:0:
168,133,9984,2,0,B|136:128|136:128|99:105,2,75,2|2|2,0:0|0:0|0:0,0:0:0:0:
218,138,10841,6,0,B|230:168|230:168|228:210,2,75,2|2|2,0:0|0:0|0:0,0:0:0:0:
197,92,11698,2,0,B|216:66|216:66|266:40,2,75,2|2|2,0:0|0:0|0:0,0:0:0:0:
168,133,12555,6,0,L|180:247,1,100,4|2,1:2|0:0,0:0:0:0:
225,320,13412,2,0,P|190:332|143:323,2,75,2|2|2,0:0|0:0|0:0,0:0:0:0:
273,306,14270,5,4,1:2:0:0:
356,361,14698,1,4,1:2:0:0:
363,262,15127,1,4,1:2:0:0:
446,317,15555,1,4,1:2:0:0:
453,218,15984,6,0,L|423:119,1,100,4|2,1:2|0:0,0:0:0:0:
334,77,16841,2,0,B|295:81|295:81|242:72,2,75,2|2|2,0:0|0:0|0:0,0:0:0:0:
366,114,17698,6,0,B|388:145|388:145|407:196,2,75,2|2|2,0:0|0:0|0:0,0:0:0:0:
383,68,18555,2,0,B|399:32|399:32|433:-9,2,75,2|2|2,0:0|0:0|0:0,0:0:0:0:
366,114,19412,6,0,L|355:213,1,100,4|2,1:2|0:0,0:0:0:0:
309,301,20270,2,0,P|347:313|387:307,2,75,2|2|2,0:0|0:0|0:0,0:0:0:0:
272,266,21127,5,4,1:2:0:0:
204,192,21555,1,4,1:2:0:0:
220,93,21984,1,4,1:2:0:0:
152,19,22412,1,4,1:2:0:0:
67,72,22841,6,0,B|19:168|115:168|67:264,1,200,2|2,1:2|0:0,0:0:0:0:
68,262,24555,6,0,L|83:360,1,100,8|8,0:0|0:0,0:0:0:0:
183,363,25412,2,0,L|168:265,1,100,8|8,0:0|0:0,0:0:0:0:
161,214,26055,1,8,0:0:0:0:
156,164,26270,6,0,P|192:143|264:152,1,100,4|8,1:2|1:2,0:0:0:0:
290,172,26912,1,2,0:0:0:0:
326,206,27127,2,0,P|375:209|418:186,1,100,2|8,1:2|1:2,0:0:0:0:
461,161,27770,6,0,L|454:276,1,100,2|2,0:0|0:0,0:0:0:0:
420,296,28412,2,0,L|362:292,1,50,10|2,1:2|0:0,0:0:0:0:
321,280,28841,2,0,L|325:205,2,75,2|2|2,1:2|0:0|0:0,0:0:0:0:
286,316,29698,6,0,P|236:332|176:320,1,100,2|8,1:2|1:2,0:0:0:0:
132,243,30555,2,0,P|84:227|35:233,1,100,2|8,1:2|1:2,0:0:0:0:
3,271,31198,6,0,L|17:160,1,100,2|0,0:0|0:0,0:0:0:0:
28,123,31841,2,0,P|56:114|97:122,1,50,8|0,1:2|0:0,0:0:0:0:
116,145,32270,2,0,P|175:148|235:128,1,100,2|8,1:2|1:2,0:0:0:0:
275,58,33127,6,0,L|307:169,1,100,2|8,1:2|1:2,0:0:0:0:
348,174,33770,1,2,0:0:0:0:
395,158,33984,2,0,L|363:47,1,100,2|8,1:2|1:2,0:0:0:0:
340,20,34627,6,0,P|397:3|464:44,1,100,2|2,0:0|0:0,0:0:0:0:
473,46,35270,2,0,L|496:128,1,50,10|2,1:2|0:0,0:0:0:0:
453,131,35698,2,0,L|477:216,2,75,2|2|2,1:2|0:0|0:0,0:0:0:0:
402,134,36555,6,0,B|352:159|352:112|289:140,1,100,2|8,1:2|1:2,0:0:0:0:
229,200,37412,2,0,L|118:203,1,100,2|8,1:2|1:2,0:0:0:0:
80,190,38055,1,2,0:0:0:0:
33,170,38270,6,0,P|50:213|20:277,1,100,6|4,1:2|1:2,0:0:0:0:
8,305,38912,1,2,0:0:0:0:
41,342,39127,2,0,L|99:353,1,50,2|8,1:2|0:0,0:0:0:0:
126,317,39555,2,0,L|184:306,1,50,8|0,0:0|0:0,0:0:0:0:
219,330,39984,6,0,L|322:326,1,100,6|2,1:2|1:2,0:0:0:0:
385,251,40841,1,10,0:0:0:0:
355,210,41055,2,0,L|284:212,2,50,2|2|2,1:2|0:0|1:2,0:0:0:0:
405,204,41698,6,0,B|421:157|421:157|405:88,1,100,2|2,1:2|1:2,0:0:0:0:
318,66,42555,1,10,0:0:0:0:
271,83,42770,2,0,L|200:85,2,50,2|2|2,1:2|0:0|1:2,0:0:0:0:
309,115,43412,6,0,B|320:164|320:164|304:211,1,100,2|2,1:2|1:2,0:0:0:0:
237,285,44270,1,10,0:0:0:0:
194,259,44484,2,0,L|136:261,1,50,2|2,1:2|0:0,0:0:0:0:
106,293,44912,1,2,1:2:0:0:
63,266,45127,6,0,P|49:214|60:166,1,100,2|2,1:2|1:2,0:0:0:0:
88,129,45770,1,0,0:0:0:0:
129,100,45984,2,0,L|188:115,1,50,10|2,0:0|1:2,0:0:0:0:
219,85,46412,2,0,L|278:70,1,50,2|2,0:0|1:2,0:0:0:0:
306,104,46841,6,0,L|411:130,1,100,6|2,1:2|1:2,0:0:0:0:
467,204,47698,1,10,0:0:0:0:
422,227,47912,2,0,L|368:213,2,50,2|2|2,1:2|0:0|1:2,0:0:0:0:
465,255,48555,6,0,B|477:303|477:303|456:363,1,100,2|2,1:2|1:2,0:0:0:0:
414,370,49198,1,0,0:0:0:0:
364,366,49412,2,0,L|309:340,1,50,10|2,0:0|1:2,0:0:0:0:
270,356,49841,2,0,L|215:382,1,50,2|2,0:0|1:2,0:0:0:0:
187,343,50270,6,0,P|139:357|92:343,1,100,2|2,1:2|1:2,0:0:0:0:
38,258,51127,1,10,0:0:0:0:
60,213,51341,2,0,L|61:152,2,50,2|2|2,1:2|0:0|1:2,0:0:0:0:
109,220,51984,6,0,L|110:117,1,100,2|2,1:2|1:2,0:0:0:0:
176,45,52841,2,0,L|200:102,1,50,10|8,0:0|1:2,0:0:0:0:
245,91,53270,2,0,L|269:34,1,50,10|0,0:0|1:2,0:0:0:0:
314,44,53698,6,0,P|318:93|347:143,1,100,4|2,1:2|1:2,0:0:0:0:
412,207,54555,1,10,0:0:0:0:
379,245,54770,2,0,P|319:248|270:226,1,100,0|0,1:2|1:2,0:0:0:0:
232,235,55412,6,0,L|235:296,2,50,2|2|2,1:2|0:0|1:2,0:0:0:0:
206,191,56055,1,2,0:0:0:0:
211,141,56270,2,0,L|205:23,1,100,10|2,0:0|0:0,0:0:0:0:
306,41,57127,6,0,L|301:140,1,100,2|2,1:2|1:2,0:0:0:0:
337,233,57984,1,8,0:0:0:0:
384,248,58198,1,0,1:2:0:0:
431,233,58412,2,0,L|426:285,1,50,2|2,0:0|1:2,0:0:0:0:
421,332,58841,6,0,P|375:339|318:312,1,100,2|2,1:2|1:2,0:0:0:0:
282,294,59484,1,2,0:0:0:0:
250,255,59698,2,0,L|257:201,2,50,8|2|2,0:0|1:2|0:0,0:0:0:0:
207,281,60341,1,2,1:2:0:0:
165,309,60555,6,0,P|119:328|70:321,1,100,6|0,1:2|1:2,0:0:0:0:
45,224,61412,1,8,0:0:0:0:
81,190,61627,2,0,L|71:138,1,50,2|0,1:2|0:0,0:0:0:0:
41,100,62055,1,2,1:2:0:0:
52,51,62270,6,0,P|99:56|161:29,1,100,2|0,1:2|1:2,0:0:0:0:
242,5,63127,2,0,L|270:59,1,50,8|2,0:0|1:2,0:0:0:0:
293,90,63555,2,0,L|265:144,1,50,2|2,0:0|1:2,0:0:0:0:
246,179,63984,6,0,L|274:233,2,50,6|0|2,1:2|0:0|1:2,0:0:0:0:
214,141,64627,1,2,0:0:0:0:
182,103,64841,2,0,B|132:128|129:82|72:106,1,100,8|2,0:0|0:0,0:0:0:0:
102,199,65698,5,0,1:2:0:0:
175,266,66127,1,0,1:0:0:0:
248,333,66555,1,0,1:0:0:0:
315,260,66984,1,0,1:0:0:0:
381,186,67412,6,0,P|430:186|474:210,1,100,6|10,1:2|1:2,0:0:0:0:
407,283,68270,2,0,P|358:283|314:259,1,100,2|10,1:2|1:2,0:0:0:0:
284,164,69127,5,2,1:2:0:0:
216,237,69555,1,10,1:2:0:0:
186,141,69984,1,2,1:2:0:0:
118,215,70412,1,10,1:2:0:0:
148,311,70841,6,0,P|182:331|229:338,2,75,2|2|2,1:2|0:0|0:0,0:0:0:0:
111,276,71698,2,0,P|77:256|30:249,2,75,2|2|2,1:2|0:0|0:0,0:0:0:0:
159,261,72555,6,0,B|197:226|197:226|209:172,1,100,2|8,1:2|1:2,0:0:0:0:
163,88,73412,2,0,L|78:91,2,75,10|10|10,0:0|0:0|0:0,0:0:0:0:
197,51,74270,6,0,L|302:47,1,100,6|10,1:2|1:2,0:0:0:0:
339,21,74912,1,2,0:0:0:0:
410,90,75341,1,2,0:0:0:0:
367,116,75555,2,0,L|369:170,1,50,8|2,1:2|0:0,0:0:0:0:
357,214,75984,6,0,P|305:227|256:206,1,100,2|10,1:2|1:2,0:0:0:0:
218,187,76627,1,2,0:0:0:0:
120,166,77055,1,2,0:0:0:0:
130,215,77270,2,0,L|129:287,1,50,8|2,1:2|0:0,0:0:0:0:
157,306,77698,6,0,L|225:306,1,50,2|0,1:2|1:2,0:0:0:0:
257,306,78127,2,0,L|325:306,1,50,2|0,1:2|1:2,0:0:0:0:
357,306,78555,6,0,L|357:238,1,50,2|0,1:2|1:2,0:0:0:0:
357,206,78984,2,0,L|357:138,1,50,2|0,1:2|1:2,0:0:0:0:
357,106,79412,6,0,L|289:106,1,50,2|0,1:2|1:2,0:0:0:0:
257,106,79841,2,0,L|189:106,1,50,2|0,1:2|1:2,0:0:0:0:
157,106,80269,6,0,L|157:174,1,50,2|0,1:2|1:2,0:0:0:0:
157,206,80698,2,0,L|157:274,1,50,0|2,1:2|1:2,0:0:0:0:
157,306,81127,5,0,0:0:0:0:
