osu file format v14

[General]
AudioFilename: audio.mp3
AudioLeadIn: 0
PreviewTime: 67412
Countdown: 0
SampleSet: Soft
StackLeniency: 0.6
Mode: 0
LetterboxInBreaks: 0
WidescreenStoryboard: 1

[Editor]
Bookmarks: 2270,9127,9448,9770,9984,10305,10627,10841,11162,11484,22841,24555,26270,39984,53698,65698,67412,81127
DistanceSpacing: 2.7
BeatDivisor: 4
GridSize: 8
TimelineZoom: 1

[Metadata]
Title:Friends
TitleUnicode:Friends
Artist:Hyper Potions
ArtistUnicode:Hyper Potions
Creator:Kaitjuh
Version:Insane
Source:Sonic Mania
Tags:Ian Tsuchiura Sushi Killer Kevin Villeco SEGA Tails Miles Prower Knuckles the Echidna Hedgehog Intro Opening Electronic Future Bass CrystilonZ
BeatmapID:1394181
BeatmapSetID:658209

[Difficulty]
HPDrainRate:6
CircleSize:4.2
OverallDifficulty:7.5
ApproachRate:9
SliderMultiplier:1.4
SliderTickRate:1

[Events]
//Background and Video events
0,0,"bg.jpg",0,0
Video,0,"Animation.mp4"
//Break Periods
//Storyboard Layer 0 (Background)
//Storyboard Layer 1 (Fail)
//Storyboard Layer 2 (Pass)
//Storyboard Layer 3 (Foreground)
//Storyboard Sound Samples

[TimingPoints]
2270,428.571428571429,4,2,1,20,1,0
2270,-133.333333333333,4,2,1,20,0,0
9127,-66.6666666666667,4,2,1,60,0,0
9341,-100,4,2,1,40,0,0
12555,-66.6666666666667,4,2,1,60,0,0
12770,-100,4,2,1,40,0,0
14270,-66.6666666666667,4,2,1,60,0,0
16198,-100,4,2,1,40,0,0
19412,-66.6666666666667,4,2,1,60,0,0
19627,-100,4,2,1,40,0,0
21127,-66.6666666666667,4,2,1,60,0,0
22841,-100,4,2,1,40,0,0
24555,-66.6666666666667,4,2,2,60,0,0
24770,-66.6666666666667,4,2,1,60,0,0
24984,-57.1428571428571,4,2,2,60,0,0
25198,-57.1428571428571,4,2,1,60,0,0
25412,-50,4,2,2,60,0,0
25627,-50,4,2,1,60,0,0
25841,-50,4,2,2,60,0,0
26270,-50,4,2,1,60,0,0
26698,-66.6666666666667,4,2,1,60,0,0
53698,-100,4,2,1,50,0,0
65698,-133.333333333333,4,2,1,20,0,0
65912,-133.333333333333,4,2,1,5,0,0
66127,-100,4,2,1,30,0,0
66341,-100,4,2,1,5,0,0
66555,-80,4,2,1,40,0,0
66770,-80,4,2,1,5,0,0
66984,-66.6666666666667,4,2,1,50,0,0
67198,-66.6666666666667,4,2,1,5,0,0
67412,-57.1428571428571,4,2,1,60,0,1
73412,-57.1428571428571,4,2,2,60,0,1
73520,-57.1428571428571,4,2,2,5,0,1
73734,-57.1428571428571,4,2,2,60,0,1
73841,-57.1428571428571,4,2,2,5,0,1
74055,-57.1428571428571,4,2,2,60,0,1
74162,-57.1428571428571,4,2,2,5,0,1
74270,-57.1428571428571,4,2,1,60,0,1
77698,-57.1428571428571,4,2,1,50,0,1
78555,-57.1428571428571,4,2,1,60,0,1
79412,-57.1428571428571,4,2,1,70,0,1
81127,-100,4,2,1,50,0,0

[Colours]
Combo1 : 255,192,0
Combo2 : 0,202,0
Combo3 : 18,124,255
Combo4 : 242,24,57

[HitObjects]
197,35,2270,6,0,L|198:96,1,52.5000020027161,2|0,0:0|0:0,0:0:0:0:
284,122,2698,2,0,L|282:69,1,52.5000020027161,2|0,0:0|0:0,0:0:0:0:
369,105,3127,2,0,L|370:157,1,52.5000020027161,2|0,0:0|0:0,0:0:0:0:
456,192,3555,6,0,L|454:139,2,52.5000020027161,2|2|2,0:0|0:0|0:0,0:0:0:0:
382,248,4198,1,0,0:0:0:0:
370,157,4412,2,0,L|369:105,1,52.5000020027161,2|0,0:0|0:0,0:0:0:0:
282,69,4841,2,0,L|284:122,1,52.5000020027161,2|0,0:0|0:0,0:0:0:0:
197,87,5270,6,0,L|197:35,2,52.5000020027161,2|2|2,0:0|0:0|0:0,0:0:0:0:
211,179,5912,1,0,0:0:0:0:
283,121,6127,2,0,L|336:119,1,52.5000020027161,2|0,0:0|0:0,0:0:0:0:
211,179,6555,2,0,L|158:181,1,52.5000020027161,2|0,0:0|0:0,0:0:0:0:
297,213,6984,1,2,0:0:0:0:
283,121,7198,1,2,0:0:0:0:
211,179,7413,5,2,0:0:0:0:
197,87,7627,1,0,0:0:0:0:
194,198,7841,5,2,0:0:0:0:
213,67,8055,1,0,0:0:0:0:
177,217,8270,5,2,0:0:0:0:
229,47,8484,1,0,0:0:0:0:
160,236,8698,5,2,0:0:0:0:
245,27,8912,1,0,0:0:0:0:
394,212,9127,6,0,B|345:232|345:232|288:209,1,105.000004005432,4|0,1:2|0:0,0:0:0:0:
221,247,9448,1,2,0:0:0:0:
221,247,9555,2,0,L|223:281,1,35
228,165,9770,2,0,L|224:112,1,35,2|0,0:0|0:0,0:0:0:0:
119,204,9984,5,2,0:0:0:0:
119,204,10091,2,0,L|172:200,1,35
47,253,10305,1,2,0:0:0:0:
37,219,10412,1,0,0:0:0:0:
37,185,10519,1,0,0:0:0:0:
45,151,10627,2,0,L|72:90,1,35,2|0,0:0|0:0,0:0:0:0:
177,74,10841,5,2,0:0:0:0:
177,74,10948,2,0,L|150:135,1,35
247,127,11162,1,2,0:0:0:0:
247,127,11270,2,0,L|260:162,1,35
261,43,11484,2,0,L|322:69,1,35,2|0,0:0|0:0,0:0:0:0:
400,168,11698,5,2,0:0:0:0:
400,168,11805,2,0,L|367:154,1,35
413,83,12019,1,2,0:0:0:0:
413,83,12127,2,0,L|400:50,1,35
483,136,12341,2,0,L|496:103,1,35,2|0,0:0|0:0,0:0:0:0:
469,226,12555,6,0,B|424:254|424:254|363:251,1,105.000004005432,4|0,1:2|0:0,0:0:0:0:
302,300,12877,1,0,0:0:0:0:
302,300,12984,2,0,L|332:344,1,35,2|0,0:0|0:0,0:0:0:0:
301,208,13198,2,0,L|331:164,1,35,2|0,0:0|0:0,0:0:0:0:
190,255,13412,6,0,L|250:255,2,35,2|0|0,0:0|0:0|0:0,0:0:0:0:
154,258,13734,1,2,0:0:0:0:
154,258,13841,2,0,L|142:199,1,35
59,305,14055,2,0,L|71:246,1,35,2|0,0:0|0:0,0:0:0:0:
157,133,14270,6,0,B|103:145|103:145|61:181,1,105.000004005432,4|0,1:2|0:0,0:0:0:0:
164,344,14698,2,0,B|218:332|218:332|255:299,1,105.000004005432,4|0,1:2|0:0,0:0:0:0:
355,133,15127,6,0,B|409:145|409:145|451:181,1,105.000004005432,4|0,1:2|0:0,0:0:0:0:
347,344,15555,2,0,B|293:332|293:332|251:296,1,105.000004005432,4|0,1:2|0:0,0:0:0:0:
255,43,15984,6,0,L|255:164,1,105.000004005432,4|0,1:2|0:0,0:0:0:0:
213,223,16305,1,0,0:0:0:0:
213,223,16412,2,0,L|164:201,1,35,2|0,0:0|0:0,0:0:0:0:
299,222,16627,2,0,L|348:200,1,35,2|0,0:0|0:0,0:0:0:0:
396,75,16841,5,2,0:0:0:0:
410,106,16948,1,0,0:0:0:0:
424,138,17055,1,0,0:0:0:0:
439,170,17162,2,0,L|488:192,2,35,2|0|0,0:0|0:0|0:0,0:0:0:0:
512,292,17484,2,0,L|508:257,1,35,2|0,0:0|0:0,0:0:0:0:
397,273,17698,6,0,L|425:252,2,35,2|0|0,0:0|0:0|0:0,0:0:0:0:
318,312,18020,1,2,0:0:0:0:
318,312,18127,2,0,L|286:297,1,35
389,364,18341,2,0,L|360:384,1,35,2|0,0:0|0:0,0:0:0:0:
323,219,18555,5,2,0:0:0:0:
316,202,18662,1,0,0:0:0:0:
309,186,18769,1,0,0:0:0:0:
280,166,18876,1,2,0:0:0:0:
273,150,18983,1,0,0:0:0:0:
291,119,19091,1,0,0:0:0:0:
284,103,19198,1,2,0:0:0:0:
277,87,19305,1,0,0:0:0:0:
248,66,19412,6,0,B|195:60|195:60|135:97,1,105.000004005432,4|0,1:2|0:0,0:0:0:0:
103,165,19734,1,0,0:0:0:0:
103,165,19841,2,0,L|154:164,1,35,2|0,0:0|0:0,0:0:0:0:
187,231,20055,2,0,L|238:230,1,35,2|0,0:0|0:0,0:0:0:0:
106,318,20270,5,2,0:0:0:0:
123,317,20377,1,0,0:0:0:0:
140,317,20484,1,0,0:0:0:0:
158,316,20591,2,0,L|209:315,1,35,2|0,0:0|0:0,0:0:0:0:
314,297,20805,1,0,0:0:0:0:
314,297,20912,2,0,L|263:298,1,35,2|0,0:0|0:0,0:0:0:0:
383,358,21127,6,0,L|397:236,1,105.000004005432,4|0,1:2|0:0,0:0:0:0:
303,44,21555,2,0,L|317:166,1,105.000004005432,4|0,1:2|0:0,0:0:0:0:
129,358,21984,6,0,L|115:236,1,105.000004005432,4|0,1:2|0:0,0:0:0:0:
209,44,22412,2,0,L|195:166,1,105.000004005432,4|0,1:2|0:0,0:0:0:0:
292,322,22841,6,0,P|227:229|234:329,1,280,2|2,1:2|0:0,0:0:0:0:
75,145,24555,6,0,L|193:166,1,105.000004005432,8|0,0:0|1:0,0:0:0:0:
219,142,24984,6,0,L|99:122,1,122.500001168251,8|0,0:0|1:0,0:0:0:0:
123,99,25412,6,0,L|284:127,1,140,8|0,0:0|1:0,0:0:0:0:
260,122,25841,5,8,0:0:0:0:
219,142,25948,1,8,0:0:0:0:
178,163,26055,1,8,0:0:0:0:
136,182,26162,1,8,0:0:0:0:
95,203,26270,6,0,B|71:201|64:173|88:144|120:147|146:197|156:238|198:245|250:217,1,210,4|0,1:2|0:0,0:0:0:0:
294,174,26698,1,8,1:2:0:0:
420,309,26912,1,2,0:0:0:0:
420,309,27020,1,0,0:0:0:0:
420,309,27127,2,0,P|437:254|417:202,1,105.000004005432,2|0,1:2|0:0,0:0:0:0:
308,256,27448,2,0,L|377:256,1,52.5000020027161,2|8,0:0|1:2,0:0:0:0:
413,99,27770,1,2,0:0:0:0:
413,99,27877,1,0,0:0:0:0:
413,99,27984,6,0,P|358:82|306:101,1,105.000004005432,0|2,1:2|0:0,0:0:0:0:
314,95,28305,1,0,0:0:0:0:
254,179,28412,2,0,L|239:103,1,52.5000020027161,10|0,1:2|0:0,0:0:0:0:
177,84,28627,2,0,L|188:33,1,52.5000020027161,2|0,0:0|0:0,0:0:0:0:
71,150,28841,2,0,P|110:170|193:150,1,105.000004005432,2|0,1:2|0:0,0:0:0:0:
169,164,29162,1,2,0:0:0:0:
169,164,29270,1,8,1:2:0:0:
66,25,29484,1,2,0:0:0:0:
31,252,29698,6,0,B|84:252|84:252|120:275|120:275|190:274,1,157.500006008148,2|0,1:2|0:0,0:0:0:0:
254,219,30127,1,8,1:2:0:0:
366,295,30341,1,2,0:0:0:0:
366,295,30448,1,0,0:0:0:0:
366,295,30555,2,0,P|327:315|244:295,1,105.000004005432,2|0,1:2|0:0,0:0:0:0:
246,167,30877,2,0,L|257:241,1,52.5000020027161,2|8,0:0|1:2,0:0:0:0:
232,73,31198,1,2,0:0:0:0:
430,102,31412,6,0,L|317:108,1,105.000004005432,2|0,1:2|0:0,0:0:0:0:
141,161,31734,1,0,0:0:0:0:
141,161,31841,2,0,L|254:167,1,105.000004005432,8|0,1:2|0:0,0:0:0:0:
308,11,32270,1,2,1:2:0:0:
339,206,32484,1,0,0:0:0:0:
339,206,32591,1,0,0:0:0:0:
339,206,32698,1,8,1:2:0:0:
493,82,32912,1,0,0:0:0:0:
245,166,33127,6,0,L|141:161,1,105.000004005432,2|0,1:2|0:0,0:0:0:0:
118,73,33448,2,0,L|170:70,1,52.5000020027161,0|8,0:0|1:2,0:0:0:0:
83,230,33770,1,2,0:0:0:0:
83,230,33877,1,0,0:0:0:0:
83,230,33984,2,0,P|52:180|63:117,1,105.000004005432,2|0,1:2|0:0,0:0:0:0:
192,162,34305,2,0,L|140:160,1,52.5000020027161,2|8,0:0|1:2,0:0:0:0:
27,301,34627,1,2,0:0:0:0:
27,301,34734,1,0,0:0:0:0:
26,300,34841,6,0,P|74:320|125:309,1,105.000004005432,0|2,1:2|0:0,0:0:0:0:
125,309,35162,1,0,0:0:0:0:
201,239,35270,2,0,L|216:320,1,52.5000020027161,10|0,1:2|0:0,0:0:0:0:
295,304,35484,2,0,L|280:385,1,52.5000020027161,2|0,0:0|0:0,0:0:0:0:
402,198,35698,2,0,P|354:178|303:189,1,105.000004005432,2|0,1:2|0:0,0:0:0:0:
303,188,36020,1,2,0:0:0:0:
303,188,36127,1,8,1:2:0:0:
402,330,36341,1,2,0:0:0:0:
512,126,36555,6,0,B|474:123|438:132|438:132|398:109|360:104,1,157.500006008148,2|0,1:2|0:0,0:0:0:0:
448,50,36984,1,8,1:2:0:0:
284,147,37198,1,2,0:0:0:0:
284,147,37305,1,0,0:0:0:0:
284,147,37412,2,0,P|273:96|293:48,1,105.000004005432,2|0,1:2|0:0,0:0:0:0:
350,202,37734,1,2,0:0:0:0:
350,202,37841,2,0,P|370:153|359:102,1,105.000004005432,8|2,1:2|0:0,0:0:0:0:
98,164,38270,6,0,L|218:179,1,105.000004005432,6|0,1:2|0:0,0:0:0:0:
444,302,38698,2,0,L|324:287,1,105.000004005432,4|2,1:2|0:0,0:0:0:0:
258,321,39020,1,0,0:0:0:0:
258,321,39127,1,2,1:2:0:0:
284,147,39341,2,0,L|290:94,1,52.5000020027161,8|0,0:0|0:0,0:0:0:0:
202,177,39555,2,0,L|195:229,1,52.5000020027161,8|0,0:0|0:0,0:0:0:0:
135,120,39770,2,0,L|141:67,1,52.5000020027161
47,202,39984,6,0,L|35:306,1,105.000004005432,6|0,1:2|0:0,0:0:0:0:
183,333,40412,2,0,L|195:229,1,105.000004005432,2|0,1:2|0:0,0:0:0:0:
35,306,40841,1,10,0:0:0:0:
211,143,41055,1,2,1:2:0:0:
187,131,41162,1,2,0:0:0:0:
163,119,41269,1,2,0:0:0:0:
278,200,41484,2,0,L|330:173,1,52.5000020027161,2|0,1:2|0:0,0:0:0:0:
462,70,41698,6,0,L|357:58,1,105.000004005432,2|0,1:2|0:0,0:0:0:0:
278,200,42126,2,0,L|382:211,1,105.000004005432,2|0,1:2|0:0,0:0:0:0:
357,58,42555,1,10,0:0:0:0:
382,211,42770,1,2,1:2:0:0:
386,236,42877,1,2,0:0:0:0:
391,262,42984,1,2,0:0:0:0:
278,200,43198,2,0,L|286:148,1,52.5000020027161,2|0,1:2|0:0,0:0:0:0:
304,283,43412,6,0,P|253:284|211:255,1,105.000004005432,2|0,1:2|0:0,0:0:0:0:
258,64,43841,2,0,P|309:62|351:92,1,105.000004005432,2|0,1:2|0:0,0:0:0:0:
210,253,44270,1,10,0:0:0:0:
180,81,44484,1,2,1:2:0:0:
179,54,44591,1,2,0:0:0:0:
187,29,44698,1,2,0:0:0:0:
210,253,44912,2,0,P|210:280|194:320,1,52.5000020027161,2|0,1:2|0:0,0:0:0:0:
172,183,45127,6,0,P|222:173|274:205,1,105.000004005432,2|0,1:2|0:0,0:0:0:0:
240,374,45555,2,0,P|190:384|138:352,1,105.000004005432,2|0,1:2|0:0,0:0:0:0:
92,296,45877,1,2,0:0:0:0:
92,296,45984,2,0,L|92:226,1,52.5000020027161,10|0,0:0|0:0,0:0:0:0:
172,130,46198,2,0,L|172:200,1,52.5000020027161,2|0,1:2|0:0,0:0:0:0:
39,159,46412,2,0,L|109:159,1,52.5000020027161,2|0,0:0|0:0,0:0:0:0:
228,269,46627,2,0,L|158:269,1,52.5000020027161,2|0,1:2|0:0,0:0:0:0:
168,46,46841,6,0,L|293:46,1,105.000004005432,6|0,1:2|0:0,0:0:0:0:
469,194,47270,2,0,L|344:194,1,105.000004005432,2|0,1:2|0:0,0:0:0:0:
273,46,47698,1,10,0:0:0:0:
364,194,47912,1,2,1:2:0:0:
358,220,48020,1,2,0:0:0:0:
352,246,48126,1,2,0:0:0:0:
261,97,48341,2,0,L|272:45,1,52.5000020027161,2|0,1:2|0:0,0:0:0:0:
282,178,48555,6,0,P|220:169|180:115,1,105.000004005432,2|0,1:2|0:0,0:0:0:0:
27,220,48984,2,0,P|89:211|129:157,1,105.000004005432,2|0,1:2|0:0,0:0:0:0:
115,145,49305,1,2,0:0:0:0:
115,145,49412,2,0,L|102:88,1,52.5000020027161,10|0,0:0|0:0,0:0:0:0:
215,189,49627,2,0,L|228:132,1,52.5000020027161,2|0,1:2|0:0,0:0:0:0:
90,134,49841,2,0,L|70:48,1,52.5000020027161,2|0,0:0|0:0,0:0:0:0:
239,200,50056,2,0,L|259:114,1,52.5000020027161,2|0,1:2|0:0,0:0:0:0:
107,335,50270,6,0,L|83:232,1,105.000004005432,2|0,1:2|0:0,0:0:0:0:
227,46,50698,2,0,L|250:148,1,105.000004005432,2|0,1:2|0:0,0:0:0:0:
83,232,51127,1,10,0:0:0:0:
287,299,51341,1,2,1:2:0:0:
281,273,51448,1,2,0:0:0:0:
275,247,51555,1,2,0:0:0:0:
359,131,51770,2,0,L|347:184,1,52.5000020027161,2|0,1:2|0:0,0:0:0:0:
298,349,51984,6,0,L|268:217,1,105.000004005432,2|0,1:2|0:0,0:0:0:0:
202,216,52305,1,0,0:0:0:0:
202,216,52412,2,0,L|178:318,1,105.000004005432,2|0,1:2|0:0,0:0:0:0:
178,318,52734,1,0,0:0:0:0:
178,318,52841,1,10,0:0:0:0:
264,169,53055,1,8,1:2:0:0:
91,169,53270,1,8,0:0:0:0:
274,246,53484,1,0,1:2:0:0:
81,92,53698,5,4,1:2:0:0:
101,246,53912,1,0,0:0:0:0:
220,109,54127,2,0,L|133:124,1,70,2|0,1:2|0:0,0:0:0:0:
29,216,54555,1,10,0:0:0:0:
163,199,54770,1,0,1:2:0:0:
12,80,54984,2,0,L|80:91,1,70,2|0,0:0|1:2,0:0:0:0:
171,274,55412,5,2,1:2:0:0:
305,257,55627,1,2,0:0:0:0:
330,124,55841,1,2,1:2:0:0:
211,59,56055,1,2,0:0:0:0:
305,257,56270,2,0,L|387:272,1,70,10|0,0:0|1:2,0:0:0:0:
398,111,56698,2,0,L|316:126,1,70,2|0,0:0|1:2,0:0:0:0:
467,283,57127,6,0,B|482:225|482:225|473:193|473:193|490:118,1,140,2|0,1:2|1:2,0:0:0:0:
471,55,57770,1,0,0:0:0:0:
373,269,57984,2,0,L|305:257,1,70,8|0,0:0|1:2,0:0:0:0:
398,111,58412,1,2,0:0:0:0:
467,283,58627,1,2,1:2:0:0:
495,78,58841,6,0,L|483:146,1,70,2|0,1:2|0:0,0:0:0:0:
329,98,59270,2,0,L|397:110,1,70,2|2,1:2|0:0,0:0:0:0:
397,110,59591,1,0,0:0:0:0:
397,110,59698,1,8,0:0:0:0:
304,256,59912,1,2,1:2:0:0:
245,76,60127,2,0,L|177:64,1,70,2|2,0:0|1:2,0:0:0:0:
141,281,60555,6,0,B|178:222|178:222|172:133,1,140,6|0,1:2|1:2,0:0:0:0:
94,199,61198,1,0,0:0:0:0:
235,281,61412,1,8,0:0:0:0:
245,76,61627,2,0,L|251:167,1,70,2|0,1:2|0:0,0:0:0:0:
91,106,62055,1,2,1:2:0:0:
333,168,62270,6,0,L|322:6,1,140,2|0,1:2|1:2,0:0:0:0:
245,76,62912,1,0,0:0:0:0:
448,122,63127,1,8,0:0:0:0:
323,28,63341,2,0,L|348:122,1,70,2|2,1:2|0:0,0:0:0:0:
371,201,63770,1,2,1:2:0:0:
196,192,63984,6,0,L|290:167,2,70,6|0|2,1:2|0:0|1:2,0:0:0:0:
131,262,64627,2,0,P|100:197|126:126,1,140,2|2,0:0|1:2,0:0:0:0:
118,134,65162,1,2,0:0:0:0:
118,134,65270,1,2,0:0:0:0:
66,332,65484,1,2,1:2:0:0:
224,283,65698,6,0,L|291:265,1,52.5000020027161,0|0,1:2|0:0,0:0:0:0:
224,207,66127,6,0,L|318:182,1,70,0|0,1:0|0:0,0:0:0:0:
224,131,66555,6,0,L|318:106,1,87.5,0|0,1:0|0:0,0:0:0:0:
224,55,66984,6,0,L|335:25,1,105.000004005432,0|0,1:0|0:0,0:0:0:0:
426,299,67412,6,0,L|305:267,1,122.500001168251,6|0,1:2|0:0,0:0:0:0:
510,259,67841,2,0,P|516:328|470:383,1,122.500001168251,10|0,1:2|0:0,0:0:0:0:
223,309,68270,2,0,P|217:240|263:185,1,122.500001168251,2|0,1:2|0:0,0:0:0:0:
433,207,68698,1,10,1:2:0:0:
307,268,68912,1,0,0:0:0:0:
325,36,69127,6,0,L|360:171,1,122.500001168251,2|0,1:2|0:0,0:0:0:0:
140,168,69555,2,0,L|238:68,1,122.500001168251,10|0,1:2|0:0,0:0:0:0:
244,197,69984,1,2,1:2:0:0:
116,52,70198,1,0,0:0:0:0:
55,235,70412,2,0,P|105:269|166:272,1,122.500001168251,10|0,1:2|0:0,0:0:0:0:
335,115,70841,6,0,L|218:218,1,122.500001168251,2|0,1:2|0:0,0:0:0:0:
360,235,71162,2,0,L|328:82,1,122.500001168251,2|0,0:0|0:0,0:0:0:0:
243,196,71484,2,0,L|322:222,1,61.2500005841255,2|0,0:0|0:0,0:0:0:0:
451,154,71698,6,0,L|303:104,1,122.500001168251,2|0,1:2|0:0,0:0:0:0:
360,235,72020,2,0,L|476:131,1,122.500001168251,2|0,0:0|0:0,0:0:0:0:
335,115,72341,2,0,L|351:196,1,61.2500005841255,2|0,0:0|0:0,0:0:0:0:
380,39,72555,6,0,B|315:36|315:36|237:77,1,122.500001168251,2|0,1:2|0:0,0:0:0:0:
315,312,72984,2,0,B|380:315|380:315|458:274,1,122.500001168251,8|0,1:2|0:0,0:0:0:0:
243,195,73412,6,0,L|140:217,1,61.2500005841255,10|0,0:0|0:0,0:0:0:0:
4,129,73734,6,0,L|111:151,1,61.2500005841255,10|0,0:0|0:0,0:0:0:0:
240,57,74055,6,0,L|130:80,1,61.2500005841255,10|0,0:0|0:0,0:0:0:0:
299,126,74270,6,0,P|329:70|306:-5,1,122.500001168251,6|0,1:2|0:0,0:0:0:0:
183,207,74698,1,10,1:2:0:0:
419,228,74912,2,0,P|449:284|426:359,1,122.500001168251,2|0,0:0|1:2,0:0:0:0:
233,277,75341,2,0,P|292:267|344:297,1,122.500001168251,2|8,0:0|1:2,0:0:0:0:
274,371,75770,1,2,0:0:0:0:
192,183,75984,6,0,L|178:56,1,122.500001168251,2|0,1:2|0:0,0:0:0:0:
233,277,76412,1,10,1:2:0:0:
9,277,76627,2,0,L|130:264,1,122.500001168251,2|0,0:0|1:2,0:0:0:0:
416,183,77055,2,0,L|294:195,1,122.500001168251,2|8,0:0|1:2,0:0:0:0:
130,263,77484,1,2,0:0:0:0:
308,252,77698,6,0,P|305:216|289:188,1,61.2500005841255,2|0,1:2|0:0,0:0:0:0:
319,6,77912,2,0,P|302:32|297:62,1,61.2500005841255,0|0,1:2|0:0,0:0:0:0:
167,198,78127,2,0,P|195:187|218:167,1,61.2500005841255,2|0,1:2|0:0,0:0:0:0:
402,131,78341,2,0,P|373:123|343:126,1,61.2500005841255,0|0,1:2|0:0,0:0:0:0:
174,47,78555,6,0,P|193:71|220:86,1,61.2500005841255,2|0,1:2|0:0,0:0:0:0:
434,112,78770,2,0,P|403:104|371:107,1,61.2500005841255,0|0,1:2|0:0,0:0:0:0:
139,161,78984,2,0,P|170:169|202:166,1,61.2500005841255,2|0,1:2|0:0,0:0:0:0:
399,226,79198,2,0,P|380:202|353:187,1,61.2500005841255,0|0,1:2|0:0,0:0:0:0:
264,0,79412,6,0,L|259:78,1,61.2500005841255,2|0,1:2|0:0,0:0:0:0:
307,330,79627,2,0,L|312:252,1,61.2500005841255,0|0,1:2|0:0,0:0:0:0:
351,11,79841,2,0,L|346:89,1,61.2500005841255,2|0,1:2|0:0,0:0:0:0:
224,322,80056,2,0,L|229:244,1,61.2500005841255,0|0,1:2|0:0,0:0:0:0:
440,155,80270,6,0,L|362:150,1,61.2500005841255,2|0,1:2|0:0,0:0:0:0:
135,178,80484,2,0,L|213:183,1,61.2500005841255,0|0,1:2|0:0,0:0:0:0:
460,229,80698,2,0,L|366:223,1,61.2500005841255,2|0,1:2|0:0,0:0:0:0:
115,104,80912,2,0,L|209:110,1,61.2500005841255,0|0,1:2|0:0,0:0:0:0:
290,166,81127,5,0,0:0:0:0:
