osu file format v14

[General]
AudioFilename: audio.mp3
AudioLeadIn: 0
PreviewTime: 67412
Countdown: 0
SampleSet: Soft
StackLeniency: 0.6
Mode: 0
LetterboxInBreaks: 0
WidescreenStoryboard: 1

[Editor]
Bookmarks: 2270,9127,9448,9770,9984,10305,10841,11162,11484,22841,24555,26270,39984,53698,65698,67412,81127
DistanceSpacing: 1.5
BeatDivisor: 4
GridSize: 8
TimelineZoom: 1

[Metadata]
Title:Friends
TitleUnicode:Friends
Artist:Hyper Potions
ArtistUnicode:Hyper Potions
Creator:Kaitjuh
Version:Hard
Source:Sonic Mania
Tags:Ian Tsuchiura Sushi Killer Kevin Villeco SEGA Tails Miles Prower Knuckles the Echidna Hedgehog Intro Opening Electronic Future Bass CrystilonZ
BeatmapID:1400577
BeatmapSetID:658209

[Difficulty]
HPDrainRate:5
CircleSize:3.8
OverallDifficulty:6
ApproachRate:7.5
SliderMultiplier:1.2
SliderTickRate:1

[Events]
//Background and Video events
0,0,"bg.jpg",0,0
Video,0,"Animation.mp4"
//Break Periods
//Storyboard Layer 0 (Background)
//Storyboard Layer 1 (Fail)
//Storyboard Layer 2 (Pass)
//Storyboard Layer 3 (Foreground)
//Storyboard Sound Samples

[TimingPoints]
2270,428.571428571429,4,2,1,20,1,0
9127,-83.3333333333333,4,2,1,60,0,0
9341,-100,4,2,1,40,0,0
12555,-83.3333333333333,4,2,1,60,0,0
12770,-100,4,2,1,40,0,0
14270,-83.3333333333333,4,2,1,60,0,0
16198,-100,4,2,1,40,0,0
19412,-83.3333333333333,4,2,1,60,0,0
19627,-100,4,2,1,40,0,0
21127,-83.3333333333333,4,2,1,60,0,0
22841,-100,4,2,1,40,0,0
24555,-100,4,2,2,60,0,0
24770,-100,4,2,1,60,0,0
24984,-100,4,2,2,60,0,0
25198,-100,4,2,1,60,0,0
25412,-100,4,2,2,60,0,0
25627,-100,4,2,1,60,0,0
25841,-100,4,2,2,60,0,0
26270,-100,4,2,1,60,0,0
26698,-100,4,2,1,60,0,0
53698,-100,4,2,1,50,0,0
65698,-100,4,2,1,20,0,0
65912,-100,4,2,1,5,0,0
66127,-100,4,2,1,30,0,0
66341,-100,4,2,1,5,0,0
66555,-100,4,2,1,40,0,0
66770,-100,4,2,1,5,0,0
66984,-100,4,2,1,50,0,0
67198,-100,4,2,1,5,0,0
67412,-100,4,2,1,60,0,1
73412,-100,4,2,2,60,0,1
73520,-100,4,2,2,5,0,1
73734,-100,4,2,2,60,0,1
73841,-100,4,2,2,5,0,1
74055,-100,4,2,2,60,0,1
74162,-100,4,2,2,5,0,1
74270,-100,4,2,1,60,0,1
77698,-100,4,2,1,50,0,1
78555,-100,4,2,1,60,0,1
79412,-100,4,2,1,70,0,1
81127,-100,4,2,1,50,0,0

[Colours]
Combo1 : 255,192,0
Combo2 : 0,202,0
Combo3 : 18,124,255
Combo4 : 242,24,57

[HitObjects]
4,308,2270,6,0,L|83:313,1,60,2|0,0:0|0:0,0:0:0:0:
140,275,2698,2,0,L|218:280,1,60,2|0,0:0|0:0,0:0:0:0:
270,325,3127,2,0,L|348:329,1,60,2|0,0:0|0:0,0:0:0:0:
405,292,3555,6,0,L|483:296,2,60,2|2|2,0:0|0:0|0:0,0:0:0:0:
329,328,4198,1,0,0:0:0:0:
336,244,4412,2,0,L|340:165,1,60,2|0,0:0|0:0,0:0:0:0:
263,112,4841,2,0,L|259:178,1,60,2|0,0:0|0:0,0:0:0:0:
183,111,5270,6,0,L|187:46,2,60,2|2|2,0:0|0:0|0:0,0:0:0:0:
183,194,5912,1,0,0:0:0:0:
110,151,6127,2,0,L|28:145,1,60,2|0,0:0|0:0,0:0:0:0:
49,230,6555,2,0,L|130:235,1,60,2|0,0:0|0:0,0:0:0:0:
111,318,6984,2,0,L|46:313,1,60,2|2,0:0|0:0,0:0:0:0:
184,273,7412,6,0,L|248:277,1,60,2|0,0:0|0:0,0:0:0:0:
320,325,7841,2,0,L|384:329,1,60,2|0,0:0|0:0,0:0:0:0:
471,358,8270,5,2,0:0:0:0:
503,274,8484,1,0,0:0:0:0:
454,198,8698,1,2,0:0:0:0:
485,113,8912,1,0,0:0:0:0:
420,23,9127,6,0,B|381:34|381:34|328:35,1,71.9999978027344,4|0,1:2|0:0,0:0:0:0:
259,42,9555,2,0,L|214:47,2,30,0|0|2,0:0|0:0|0:0,0:0:0:0:
311,115,9984,2,0,L|322:200,1,60,2|0,0:0|0:0,0:0:0:0:
301,198,10305,2,0,L|312:283,1,60,2|0,0:0|0:0,0:0:0:0:
299,286,10627,1,2,0:0:0:0:
231,345,10841,6,0,L|159:344,1,60,2|0,0:0|0:0,0:0:0:0:
144,330,11162,2,0,P|136:297|144:253,1,60,2|0,0:0|0:0,0:0:0:0:
157,247,11484,1,2,0:0:0:0:
192,164,11698,6,0,P|156:157|113:170,1,60,2|0,0:0|0:0,0:0:0:0:
105,172,12020,2,0,L|99:100,1,60,2|0,0:0|0:0,0:0:0:0:
96,82,12341,2,0,L|142:64,1,30,2|0,0:0|0:0,0:0:0:0:
205,78,12555,6,0,B|245:84|245:84|300:72,1,71.9999978027344,4|0,1:2|0:0,0:0:0:0:
356,37,12984,1,2,0:0:0:0:
356,37,13091,1,0,0:0:0:0:
356,37,13198,1,2,0:0:0:0:
395,117,13412,2,0,P|429:120|478:110,1,60,2|0,0:0|0:0,0:0:0:0:
483,107,13734,2,0,L|484:184,1,60,2|0,0:0|0:0,0:0:0:0:
484,196,14055,1,2,0:0:0:0:
424,286,14270,6,0,B|384:292|384:292|329:280,1,71.9999978027344,4|0,1:2|0:0,0:0:0:0:
305,188,14698,2,0,B|345:182|345:182|400:194,1,71.9999978027344,4|0,1:2|0:0,0:0:0:0:
244,278,15127,6,0,B|204:284|204:284|149:272,1,71.9999978027344,4|0,1:2|0:0,0:0:0:0:
125,179,15555,2,0,B|165:173|165:173|220:185,1,71.9999978027344,4|0,1:2|0:0,0:0:0:0:
64,271,15984,6,0,B|29:198,1,71.9999978027344,4|0,1:2|0:0,0:0:0:0:
55,119,16412,2,0,B|67:91,2,30,2|0|2,0:0|0:0|0:0,0:0:0:0:
125,179,16841,2,0,B|156:192|200:173,1,60,2|0,0:0|0:0,0:0:0:0:
211,168,17162,2,0,B|238:155|269:168,1,60,2|0,0:0|0:0,0:0:0:0:
295,182,17484,1,2,0:0:0:0:
380,154,17698,6,0,B|392:181|379:212,1,60,2|0,0:0|0:0,0:0:0:0:
370,240,18020,2,0,L|436:262,1,60,2|0,0:0|0:0,0:0:0:0:
447,280,18341,1,2,0:0:0:0:
476,364,18555,6,0,B|445:377|401:358,1,60,2|0,0:0|0:0,0:0:0:0:
390,353,18876,2,0,B|363:340|332:353,1,60,2|0,0:0|0:0,0:0:0:0:
306,367,19198,2,0,L|293:317,1,30,2|0,0:0|0:0,0:0:0:0:
271,264,19412,6,0,B|241:258|241:258|201:264,1,71.9999978027344,4|0,1:2|0:0,0:0:0:0:
125,315,19841,1,2,0:0:0:0:
125,315,19948,1,0,0:0:0:0:
125,315,20055,1,2,0:0:0:0:
118,224,20270,2,0,L|111:148,1,60,2|0,0:0|0:0,0:0:0:0:
92,141,20591,2,0,L|99:65,1,60,2|0,0:0|0:0,0:0:0:0:
103,51,20912,1,2,0:0:0:0:
186,120,21127,22,0,B|216:126|216:126|256:120,1,71.9999978027344,4|0,1:2|0:0,0:0:0:0:
358,84,21555,2,0,B|388:78|388:78|428:84,1,71.9999978027344,4|0,1:2|0:0,0:0:0:0:
256,190,21984,6,0,B|250:160|250:160|256:120,1,71.9999978027344,4|0,1:2|0:0,0:0:0:0:
358,13,22412,2,0,B|364:53|364:53|358:83,1,71.9999978027344,4|0,1:2|0:0,0:0:0:0:
341,191,22841,22,0,P|412:246|377:170,1,240,2|2,1:2|0:0,0:0:0:0:
82,327,24555,38,0,L|160:319,1,60,8|0,0:0|1:0,0:0:0:0:
19,215,24984,2,0,L|27:293,1,60,8|0,0:0|1:0,0:0:0:0:
131,152,25412,2,0,L|53:160,1,60,8|0,0:0|1:0,0:0:0:0:
194,264,25841,2,0,L|188:212,3,30,8|8|8|8,0:0|0:0|0:0|0:0,0:0:0:0:
206,198,26270,6,0,B|231:199|259:174|259:174|286:198|312:200,1,120,4|8,1:2|1:2,0:0:0:0:
387,249,26912,1,2,0:0:0:0:
387,249,27020,1,0,0:0:0:0:
387,249,27127,2,0,P|399:218|385:149,1,90,2|2,1:2|0:0,0:0:0:0:
378,136,27555,1,8,1:2:0:0:
312,73,27770,6,0,P|368:45|432:63,1,120,2|2,0:0|0:0,0:0:0:0:
468,133,28412,2,0,L|491:203,1,60,10|2,1:2|0:0,0:0:0:0:
444,270,28841,2,0,P|401:294|353:279,1,90,2|2,1:2|0:0,0:0:0:0:
334,275,29270,1,8,1:2:0:0:
312,187,29484,1,2,0:0:0:0:
242,243,29698,6,0,B|192:249|192:249|163:240|163:240|122:248,1,120,2|8,1:2|1:2,0:0:0:0:
48,296,30341,1,2,0:0:0:0:
48,296,30448,1,0,0:0:0:0:
48,296,30555,2,0,P|34:244|47:201,1,90,2|2,1:2|0:0,0:0:0:0:
59,185,30984,1,8,1:2:0:0:
25,101,31198,1,2,0:0:0:0:
114,113,31412,6,0,L|189:125,1,60,2|0,1:2|0:0,0:0:0:0:
207,206,31841,2,0,L|282:194,1,60,8|0,1:2|0:0,0:0:0:0:
281,93,32270,2,0,L|356:105,1,60,2|0,1:2|0:0,0:0:0:0:
340,102,32591,1,0,0:0:0:0:
340,102,32698,1,8,1:2:0:0:
409,44,32912,1,0,0:0:0:0:
425,133,33127,6,0,B|446:195|404:190|428:261,1,120,2|8,1:2|1:2,0:0:0:0:
475,324,33770,1,2,0:0:0:0:
475,324,33877,1,0,0:0:0:0:
475,324,33984,2,0,P|435:339|377:325,1,90,2|2,1:2|0:0,0:0:0:0:
361,321,34412,1,8,1:2:0:0:
331,231,34627,6,0,P|274:213|219:238,1,120,2|2,0:0|0:0,0:0:0:0:
172,312,35270,2,0,P|215:327|254:318,1,60,10|2,1:2|0:0,0:0:0:0:
130,231,35698,2,0,P|95:260|83:299,1,60,2|0,1:2|0:0,0:0:0:0:
89,273,36020,1,2,0:0:0:0:
89,273,36127,1,8,1:2:0:0:
22,213,36341,1,2,0:0:0:0:
60,131,36555,6,0,B|80:111|115:106|115:106|145:121|176:122,1,120,2|8,1:2|1:2,0:0:0:0:
174,31,37198,1,2,0:0:0:0:
174,31,37305,1,0,0:0:0:0:
174,31,37412,2,0,P|207:41|251:40,1,60,2|0,1:2|0:0,0:0:0:0:
262,37,37734,1,2,0:0:0:0:
291,32,37841,2,0,P|320:34|349:43,1,60,8|2,1:2|0:0,0:0:0:0:
439,99,38270,6,0,L|450:187,1,60,6|0,1:2|0:0,0:0:0:0:
358,214,38698,2,0,L|347:302,1,60,4|2,1:2|0:0,0:0:0:0:
340,302,39020,1,0,0:0:0:0:
323,327,39127,2,0,P|290:339|244:336,1,60,2|8,1:2|0:0,0:0:0:0:
138,232,39555,1,8,0:0:0:0:
179,313,39770,1,0,0:0:0:0:
188,156,39984,6,0,L|260:150,1,60,6|0,1:2|0:0,0:0:0:0:
259,61,40412,2,0,L|318:56,1,60,2|0,1:2|0:0,0:0:0:0:
382,140,40841,2,0,L|454:134,1,60,10|2,0:0|1:2,0:0:0:0:
441,135,41162,1,2,0:0:0:0:
441,135,41270,1,2,0:0:0:0:
504,214,41484,1,2,1:2:0:0:
504,214,41698,6,0,L|494:279,1,60,2|0,1:2|0:0,0:0:0:0:
405,284,42127,2,0,L|415:349,1,60,2|0,1:2|0:0,0:0:0:0:
324,234,42555,2,0,L|314:299,1,60,10|2,0:0|1:2,0:0:0:0:
314,293,42877,1,2,0:0:0:0:
314,293,42984,1,2,0:0:0:0:
232,256,43198,1,2,1:2:0:0:
232,256,43412,6,0,L|160:262,1,60,2|0,1:2|0:0,0:0:0:0:
143,171,43841,2,0,L|215:165,1,60,2|0,1:2|0:0,0:0:0:0:
83,239,44270,2,0,L|11:245,1,60,10|2,0:0|1:2,0:0:0:0:
24,244,44591,1,2,0:0:0:0:
24,244,44698,1,2,0:0:0:0:
57,162,44912,1,2,1:2:0:0:
57,162,45127,6,0,L|55:82,1,60,2|0,1:2|0:0,0:0:0:0:
89,19,45555,1,2,1:2:0:0:
146,88,45770,2,0,L|147:136,2,30,0|2|10,0:0|0:0|0:0,0:0:0:0:
207,22,46198,1,2,1:2:0:0:
294,41,46412,1,2,0:0:0:0:
321,125,46627,1,2,1:2:0:0:
261,190,46841,6,0,P|288:206|331:212,1,60,6|0,1:2|0:0,0:0:0:0:
397,174,47270,2,0,P|426:180|451:196,1,60,2|0,1:2|0:0,0:0:0:0:
394,321,47698,2,0,P|364:314|339:298,1,60,10|2,0:0|1:2,0:0:0:0:
339,298,48020,1,2,0:0:0:0:
339,298,48127,1,2,0:0:0:0:
315,212,48341,1,2,1:2:0:0:
193,276,48555,6,0,P|223:281|266:271,1,60,2|0,1:2|0:0,0:0:0:0:
131,212,48984,2,0,P|100:217|57:207,1,60,2|0,1:2|0:0,0:0:0:0:
71,213,49305,1,2,0:0:0:0:
71,213,49412,1,10,0:0:0:0:
10,144,49627,1,2,1:2:0:0:
99,125,49841,1,2,0:0:0:0:
166,64,50055,1,2,1:2:0:0:
242,112,50270,6,0,P|272:117|315:107,1,60,2|0,1:2|0:0,0:0:0:0:
352,39,50698,2,0,P|381:34|411:40,1,60,2|0,1:2|0:0,0:0:0:0:
482,115,51127,2,0,L|451:166,1,60,10|2,0:0|1:2,0:0:0:0:
451,166,51448,1,2,0:0:0:0:
451,166,51555,1,2,0:0:0:0:
362,183,51770,1,2,1:2:0:0:
384,307,51984,6,0,L|415:256,1,60,2|0,1:2|0:0,0:0:0:0:
266,265,52412,2,0,L|294:317,1,60,2|0,1:2|0:0,0:0:0:0:
362,183,52841,1,10,0:0:0:0:
306,112,53055,1,8,1:2:0:0:
159,140,53270,2,0,L|219:137,1,60,8|0,0:0|1:2,0:0:0:0:
86,166,53698,6,0,B|65:106|116:107|74:30,1,120,4|2,1:2|1:2,0:0:0:0:
0,81,54341,1,0,0:0:0:0:
86,166,54555,2,0,L|146:163,1,60,10|0,0:0|1:2,0:0:0:0:
194,86,54984,2,0,L|254:83,1,60,2|0,0:0|1:2,0:0:0:0:
308,154,55412,5,2,1:2:0:0:
386,110,55627,1,2,0:0:0:0:
451,170,55841,1,2,1:2:0:0:
414,250,56055,1,2,0:0:0:0:
325,239,56270,2,0,P|295:240|251:268,1,60,10|0,0:0|1:2,0:0:0:0:
165,341,56698,2,0,P|195:340|239:312,1,60,2|0,0:0|1:2,0:0:0:0:
245,162,57127,6,0,P|188:205|176:250,1,120,2|0,1:2|1:2,0:0:0:0:
268,251,57770,1,0,0:0:0:0:
331,187,57984,2,0,L|328:120,1,60,8|0,0:0|1:2,0:0:0:0:
340,32,58412,1,2,0:0:0:0:
258,70,58627,1,2,1:2:0:0:
410,87,58841,6,0,L|495:106,1,60,2|0,1:2|0:0,0:0:0:0:
510,180,59270,2,0,L|491:265,1,60,2|2,1:2|0:0,0:0:0:0:
417,280,59698,2,0,L|332:261,1,60,8|2,0:0|1:2,0:0:0:0:
317,187,60127,2,0,L|336:102,1,60,2|2,0:0|1:2,0:0:0:0:
270,263,60555,6,0,B|211:285|211:236|138:263,1,120,6|0,1:2|1:2,0:0:0:0:
77,307,61198,1,0,0:0:0:0:
153,258,61412,1,8,0:0:0:0:
80,213,61627,2,0,L|73:154,1,60,2|0,1:2|0:0,0:0:0:0:
28,72,62055,1,2,1:2:0:0:
139,89,62270,6,0,B|103:81|87:62|87:62|61:78|12:70,1,120,2|0,1:2|1:2,0:0:0:0:
73,153,62912,1,0,0:0:0:0:
227,114,63127,1,8,0:0:0:0:
161,178,63341,2,0,L|166:237,2,60,2|2|2,1:2|0:0|1:2,0:0:0:0:
249,289,63984,5,6,1:2:0:0:
307,220,64198,1,0,0:0:0:0:
396,214,64412,1,2,1:2:0:0:
451,304,64627,2,0,L|530:307,1,60,2|0,0:0|0:0,0:0:0:0:
379,348,65055,2,0,L|300:345,1,60,2|2,1:2|0:0,0:0:0:0:
319,345,65484,1,2,1:2:0:0:
249,289,65698,5,0,1:2:0:0:
231,285,66127,5,0,1:0:0:0:
196,276,66555,5,0,1:0:0:0:
144,262,66984,5,0,1:0:0:0:
78,234,67412,6,0,L|76:166,1,60,6|0,1:2|0:0,0:0:0:0:
45,89,67841,2,0,P|79:83|108:89,1,60,10|0,1:2|0:0,0:0:0:0:
164,153,68270,2,0,P|193:157|222:151,1,60,2|0,1:2|0:0,0:0:0:0:
189,6,68698,2,0,L|191:74,1,60,10|0,1:2|0:0,0:0:0:0:
337,76,69127,6,0,P|308:72|279:78,1,60,2|0,1:2|0:0,0:0:0:0:
397,141,69555,2,0,P|426:146|456:140,1,60,10|0,1:2|0:0,0:0:0:0:
311,161,69984,2,0,L|312:220,1,60,2|0,1:2|0:0,0:0:0:0:
424,59,70412,2,0,L|422:0,1,60,10|0,1:2|0:0,0:0:0:0:
337,76,70841,6,0,P|283:86|231:77,2,90,2|2|2,1:2|0:0|0:0,0:0:0:0:
397,141,71698,2,0,P|451:151|503:142,2,90,2|2|2,1:2|0:0|0:0,0:0:0:0:
336,206,72555,6,0,B|270:228|277:178|197:207,1,120,2|8,1:2|1:2,0:0:0:0:
147,256,73198,1,0,0:0:0:0:
68,212,73412,2,0,L|68:128,1,60,10|0,0:0|0:0,0:0:0:0:
84,126,73734,2,0,L|84:42,1,60,10|0,0:0|0:0,0:0:0:0:
101,41,74055,1,10,0:0:0:0:
170,99,74270,6,0,L|296:99,1,120,6|10,1:2|1:2,0:0:0:0:
411,30,74912,2,0,P|382:28|353:35,1,60,2|0,0:0|1:2,0:0:0:0:
290,99,75341,1,2,0:0:0:0:
375,207,75555,2,0,P|409:205|450:183,1,60,8|2,1:2|0:0,0:0:0:0:
476,116,75984,6,0,L|476:252,1,120,2|10,1:2|1:2,0:0:0:0:
414,302,76627,2,0,L|354:311,1,60,2|0,0:0|1:0,0:0:0:0:
280,251,77055,1,2,0:0:0:0:
148,306,77270,2,0,L|208:316,1,60,8|2,1:2|0:0,0:0:0:0:
74,255,77698,6,0,L|63:212,3,30,2|0|0|0,1:2|0:0|1:2|0:0,0:0:0:0:
92,188,78127,2,0,L|103:145,3,30,2|0|0|0,1:2|0:0|1:2|0:0,0:0:0:0:
63,132,78555,2,0,L|52:89,3,30,2|0|0|0,1:2|0:0|1:2|0:0,0:0:0:0:
81,65,78984,2,0,L|92:22,3,30,2|0|0|0,1:2|0:0|1:2|0:0,0:0:0:0:
127,14,79412,6,0,L|170:25,3,30,2|0|0|0,1:2|0:0|1:2|0:0,0:0:0:0:
184,56,79841,2,0,L|227:45,3,30,2|0|0|0,1:2|0:0|1:2|0:0,0:0:0:0:
244,15,80270,2,0,L|316:25,1,60,2|0,1:2|1:2,0:0:0:0:
323,46,80591,2,0,L|395:56,1,60,2|0,0:0|0:0,0:0:0:0:
402,76,80912,1,2,1:2:0:0:
331,132,81127,5,0,0:0:0:0:
