osu file format v14

[General]
AudioFilename: audio.mp3
AudioLeadIn: 0
PreviewTime: 132773
Countdown: 0
SampleSet: Soft
StackLeniency: 0.8
Mode: 0
LetterboxInBreaks: 0
WidescreenStoryboard: 0

[Editor]
DistanceSpacing: 0.9
BeatDivisor: 4
GridSize: 8
TimelineZoom: 1.9

[Metadata]
Title:Shooting Star
TitleUnicode:Shooting Star
Artist:Hyper Potions & Skye Rocket
ArtistUnicode:Hyper Potions & Skye Rocket
Creator:wafer
Version:Insane
Source:osu!
Tags:fa featured artist mpg mappers' guild instrumental electronic english rock -sylvari
BeatmapID:2483741
BeatmapSetID:1191951

[Difficulty]
HPDrainRate:5
CircleSize:4
OverallDifficulty:8.2
ApproachRate:8.5
SliderMultiplier:1.8
SliderTickRate:1

[Events]
//Background and Video events
0,0,"hyper dogs.png",0,0
//Break Periods
2,107166,111420
2,133081,137348
//Storyboard Layer 0 (Background)
//Storyboard Layer 1 (Fail)
//Storyboard Layer 2 (Pass)
//Storyboard Layer 3 (Foreground)
//Storyboard Layer 4 (Overlay)
//Storyboard Sound Samples

[TimingPoints]
881,428.571428571429,4,2,2,40,1,0
1309,-100,4,2,2,45,0,0
1738,-100,4,2,2,50,0,0
2166,-100,4,2,2,55,0,0
2595,-100,4,2,2,70,0,0
7738,-200,4,2,2,70,0,0
9452,-125,4,2,2,55,0,0
23166,-125,4,2,2,62,0,0
23381,-111.111111111111,4,2,2,62,0,0
33452,-133.333333333333,4,2,2,67,0,0
36881,-133.333333333333,4,2,2,60,0,0
36988,-100,4,2,2,60,0,0
50595,-90.9090909090909,4,2,2,62,0,0
56809,-90.9090909090909,4,2,2,55,0,0
57452,-90.9090909090909,4,2,2,62,0,0
64309,-125,4,2,2,55,0,0
78023,-111.111111111111,4,2,2,62,0,0
88309,-133.333333333333,4,2,2,67,0,0
91738,-100,4,2,2,60,0,0
105666,-125,4,2,2,60,0,0
105881,-125,4,2,2,45,0,0
112309,-133.333333333333,4,2,2,50,0,0
119166,-111.111111111111,4,2,2,60,0,0
120023,-125,4,2,2,60,0,0
120452,-142.857142857143,4,2,2,60,0,0
120881,-111.111111111111,4,2,2,60,0,0
123452,-105.263157894737,4,2,2,60,0,0
123881,-100,4,2,2,60,0,0
126023,-111.111111111111,4,2,2,60,0,0
126880,-125,4,2,2,60,0,0
127309,-142.857142857143,4,2,2,60,0,0
127738,-111.111111111111,4,2,2,60,0,0
129881,-125,4,2,2,60,0,0
130523,-90.9090909090909,4,2,2,60,0,0
131595,-100,4,2,2,60,0,0
132881,-100,4,2,2,40,0,0
138023,-100,4,2,2,50,0,0
138452,-100,4,2,2,55,0,0
138881,-76.9230769230769,4,2,2,55,0,0
139309,-333.333333333333,4,2,2,60,0,0
139738,-86.9565217391304,4,2,2,65,0,0
143166,-142.857142857143,4,2,2,50,0,0
148309,-100,4,2,2,60,0,0
151095,-142.857142857143,4,2,2,60,0,0
151738,-100,4,2,2,60,0,0
156881,-90.9090909090909,4,2,2,65,0,0
170595,-100,4,2,2,60,0,0
184309,-142.857142857143,4,2,2,60,0,0
184523,-500,4,2,2,50,0,0
185166,-500,4,2,1,45,0,0
185595,-500,4,2,2,40,0,0
186023,-500,4,2,1,35,0,0
186452,-500,4,2,2,30,0,0
186881,-500,4,2,1,25,0,0
187309,-500,4,2,2,20,0,0
187738,-500,4,2,1,15,0,0
188166,-500,4,2,2,10,0,0
188381,-500,4,2,1,5,0,0

[Colours]
Combo1 : 167,191,218
Combo2 : 235,194,118
Combo3 : 171,157,187
Combo4 : 236,111,111

[HitObjects]
256,192,881,12,0,2381,0:0:0:0:
179,67,2595,6,0,B|99:61|141:138|26:112,1,135,6|0,3:2|0:0,0:0:0:0:
38,110,3023,2,0,P|35:87|31:65,1,45,10|0,0:2|0:0,0:0:0:0:
77,2,3238,1,0,3:2:0:0:
181,156,3452,2,0,P|167:198|100:190,1,90,2|0,3:2|3:2,0:0:0:0:
7,267,3881,1,8,0:2:0:0:
7,267,4095,2,0,P|56:283|91:303,1,90,0|0,3:2|0:0,0:0:0:0:
203,157,4523,1,0,3:2:0:0:
266,214,4738,2,0,P|254:255|213:268,1,90,8|0,0:2|3:2,0:0:0:0:
136,236,5166,1,0,3:2:0:0:
136,236,5381,1,2,3:2:0:0:
89,301,5595,2,0,B|125:317|125:317|136:343|136:343|171:361,1,90,8|2,0:2|0:1,0:0:0:0:
336,247,6023,6,0,B|342:327|265:285|290:399,1,135,6|0,3:2|0:0,0:0:0:0:
312,382,6451,2,0,P|361:374|365:373,1,45,10|0,0:2|0:0,0:0:0:0:
421,327,6666,1,0,3:2:0:0:
310,171,6880,2,0,P|268:185|276:252,1,90,2|0,3:2|3:2,0:0:0:0:
475,238,7309,1,10,0:2:0:0:
392,190,7523,1,0,3:2:0:0:
443,100,7738,6,0,P|434:190|423:316,1,202.5,2|0,3:2|0:0,0:0:0:0:
478,354,8809,5,8,0:2:0:0:
347,274,9023,1,10,0:2:0:0:
128,323,9238,1,2,3:2:0:0:
134,336,9345,1,2,3:2:0:0:
153,347,9452,6,0,P|117:301|24:323,1,144,4|10,3:1|0:2,0:0:0:0:
242,363,10202,2,0,P|237:327|229:293,1,72,2|0,3:2|0:0,0:0:0:0:
162,225,10523,2,0,B|139:143|96:204|81:93,1,144,2|0,3:2|0:2,0:0:0:0:
185,18,11166,1,2,3:2:0:0:
238,91,11381,2,0,P|183:103|136:122,1,72,2|8,0:2|0:2,0:0:0:0:
312,97,11809,1,2,0:2:0:0:
318,110,11916,2,0,B|299:175|265:126|253:215,1,108,0|0,3:2|3:2,0:0:0:0:
360,203,12452,1,8,0:0:0:0:
360,203,12666,1,2,0:2:0:0:
448,218,12881,6,0,P|412:265|398:293,1,72,2|2,3:2|0:2,0:0:0:0:
415,384,13309,2,0,P|433:350|497:342,1,108,10|0,0:2|3:2,0:0:0:0:
512,330,13738,1,2,0:2:0:0:
448,218,13952,1,2,3:2:0:0:
448,218,14059,1,2,0:2:0:0:
448,218,14166,1,10,0:2:0:0:
491,155,14381,1,2,0:2:0:0:
419,84,14595,6,0,L|302:65,1,108,2|0,3:2|0:0,0:0:0:0:
328,53,15023,1,8,0:2:0:0:
201,58,15238,1,8,0:2:0:0:
209,76,15345,1,0,3:2:0:0:
216,88,15452,1,2,0:2:0:0:
181,96,15559,1,10,0:2:0:0:
154,119,15666,1,2,3:2:0:0:
128,144,15773,1,2,3:2:0:0:
94,154,15881,2,0,B|73:127|73:127|81:78,1,72,10|2,0:2|3:1,0:0:0:0:
231,177,16309,6,0,B|148:204|201:250|91:268,1,144,4|10,3:1|0:2,0:0:0:0:
248,378,17059,1,2,3:2:0:0:
246,261,17380,2,0,B|223:343|180:282|165:393,1,144,2|0,3:2|0:2,0:0:0:0:
119,261,18023,1,2,3:2:0:0:
56,217,18238,2,0,P|68:162|87:115,1,72,2|8,0:2|0:2,0:0:0:0:
211,108,18666,2,0,B|133:100|178:46|66:51,1,144,2|0,0:2|3:2,0:0:0:0:
0,119,19309,1,8,0:2:0:0:
73,147,19523,1,2,0:2:0:0:
219,29,19738,5,2,3:2:0:0:
219,29,19952,1,2,0:2:0:0:
290,80,20166,2,0,P|321:76|373:65,1,72,10|2,0:2|0:2,0:0:0:0:
419,17,20488,1,0,3:2:0:0:
419,17,20595,1,2,0:2:0:0:
512,43,20809,1,2,0:2:0:0:
470,106,21023,2,0,P|474:137|482:187,1,72,10|2,0:2|0:2,0:0:0:0:
503,294,21452,6,0,P|460:247|381:240,1,144,2|8,3:2|0:2,0:0:0:0:
376,363,22095,1,2,0:2:0:0:
394,376,22202,1,0,3:2:0:0:
427,384,22309,1,0,3:2:0:0:
424,348,22416,1,0,3:2:0:0:
420,312,22523,5,14,0:1:0:0:
332,180,22738,1,14,0:1:0:0:
460,88,22952,1,10,0:2:0:0:
447,111,23059,1,10,0:2:0:0:
408,116,23166,6,0,P|362:99|353:97,1,36,6|2,0:2|0:2,0:0:0:0:
306,55,23381,2,0,P|260:72|251:74,1,40.4999987640381,10|0,0:2|3:2,0:0:0:0:
139,63,23702,1,0,3:2:0:0:
146,74,23809,2,0,B|78:84|101:35|24:62,1,121.499996292114,8|0,0:2|3:2,0:0:0:0:
23,89,24238,6,0,B|-11:127|-11:127|24:194,1,121.499996292114,10|0,0:2|3:2,0:0:0:0:
85,288,24666,2,0,P|95:249|110:212,1,80.9999975280763,10|0,0:2|3:2,0:0:0:0:
1,368,25095,1,0,3:2:0:0:
1,368,25202,1,0,3:2:0:0:
1,368,25309,2,0,P|42:349|57:349,1,40.4999987640381,2|0,0:2|3:2,0:0:0:0:
160,348,25523,2,0,P|121:342|100:310,1,80.9999975280763,10|2,0:2|0:2,0:0:0:0:
233,300,25845,1,0,3:2:0:0:
233,300,25952,2,0,P|267:272|314:279,1,80.9999975280763,10|2,0:2|0:2,0:0:0:0:
361,327,26273,1,0,3:2:0:0:
361,327,26381,1,8,0:2:0:0:
465,206,26595,6,0,L|475:93,1,80.9999975280763,4|2,3:2|0:2,0:0:0:0:
435,63,26916,2,0,L|425:13,1,40.4999987640381,0|0,3:2|0:0,0:0:0:0:
397,133,27131,1,0,3:2:0:0:
397,133,27238,2,0,B|314:151|375:187|282:208,1,121.499996292114,8|0,0:2|3:2,0:0:0:0:
207,251,27666,2,0,P|189:197|238:168,1,121.499996292114,10|0,0:2|3:2,0:0:0:0:
287,297,28095,2,0,P|280:363|278:393,1,80.9999975280763,10|0,0:2|3:2,0:0:0:0:
198,280,28523,1,0,3:2:0:0:
198,280,28631,1,0,3:2:0:0:
120,336,28845,1,0,3:2:0:0:
120,336,28953,1,10,0:2:0:0:
25,269,29166,6,0,P|16:243|19:223,1,40.4999987640381,2|0,0:2|3:2,0:0:0:0:
73,176,29381,2,0,P|74:156|80:79,1,80.9999975280763,14|2,0:2|0:2,0:0:0:0:
49,64,29702,1,0,3:2:0:0:
49,64,29809,1,12,0:2:0:0:
226,176,30023,6,0,P|208:185|141:223,1,80.9999975280763,2|2,3:2|0:2,0:0:0:0:
158,242,30345,1,0,3:2:0:0:
254,307,30559,1,0,3:2:0:0:
247,299,30666,1,8,0:2:0:0:
336,214,30988,1,0,3:2:0:0:
343,199,31095,2,2,B|282:187|316:147|227:142,1,121.499996292114,10|0,0:2|3:0,0:1:0:0:
217,161,31523,1,10,0:2:0:0:
281,66,31738,6,0,L|367:51,1,80.9999975280763,0|8,3:2|0:2,0:0:0:0:
383,68,32059,2,0,L|469:83,1,80.9999975280763,2|0,3:2|3:2,0:0:0:0:
499,71,32381,2,0,B|488:125|488:125|499:148|499:148|489:196,1,121.499996292114,10|0,0:2|3:2,0:0:0:0:
466,196,32809,1,2,3:2:0:0:
508,311,33023,1,2,0:2:0:0:
444,362,33238,1,2,3:2:0:0:
353,319,33452,6,0,L|248:295,1,101.250003862381,6|0,3:2|3:2,0:0:0:0:
184,331,33881,2,0,L|162:236,1,67.5000025749208,2|0,0:2|3:2,0:0:0:0:
159,65,34309,6,0,L|264:89,1,101.250003862381,14|0,0:2|3:2,0:0:0:0:
328,53,34738,2,0,L|349:147,1,67.5000025749208,2|0,0:2|3:2,0:0:0:0:
232,224,35166,5,14,0:2:0:0:
64,192,35488,1,0,3:2:0:0:
241,210,35809,1,0,3:2:0:0:
48,276,36023,2,0,P|37:164|31:125,1,135.000005149842,14|2,3:2|0:2,0:0:0:0:
94,296,36881,5,6,3:2:0:0:
116,323,36988,2,0,P|82:363|36:358,1,90,2|0,3:2|3:2,0:0:0:0:
0,300,37309,1,2,0:3:0:0:
0,300,37738,1,8,0:2:0:0:
0,300,38166,1,2,0:3:0:0:
80,205,38381,1,2,0:2:0:0:
212,268,38595,6,0,B|258:276|258:276|283:311|283:311|334:323,2,135,2|0|2,3:2|3:2|0:2,0:0:0:0:
336,240,39452,2,0,B|374:213|374:213|417:220|417:220|461:192,2,135,10|0|2,0:2|3:2|0:2,0:0:0:0:
271,153,40309,5,6,3:2:0:0:
268,168,40416,1,2,3:2:0:0:
409,124,40631,1,0,3:2:0:0:
405,139,40738,1,2,0:3:0:0:
478,28,41166,1,8,0:2:0:0:
478,28,41595,1,2,0:3:0:0:
280,68,41809,2,0,L|271:15,1,45,0|0,3:2|3:2,0:0:0:0:
256,93,42023,5,2,3:2:0:0:
183,176,42345,1,2,3:2:0:0:
87,155,42666,1,2,3:2:0:0:
146,12,42881,5,10,0:2:0:0:
73,114,43203,1,2,3:2:0:0:
117,225,43524,1,2,3:2:0:0:
117,225,43631,1,2,0:2:0:0:
117,225,43738,6,0,P|102:275|101:280,1,45,2|2,3:2|3:2,0:0:0:0:
25,268,43952,2,0,P|33:290|39:311,1,45,2|0,0:2|3:2,0:0:0:0:
116,347,44166,1,2,0:2:0:0:
116,347,44595,1,8,0:2:0:0:
116,347,45023,1,2,0:3:0:0:
205,257,45238,1,2,0:2:0:0:
117,164,45452,6,0,B|79:133|79:133|62:42,2,135,2|0|2,3:2|3:2|0:2,0:0:0:0:
256,20,46309,2,0,B|218:51|218:51|201:142,1,135,10|0,0:2|3:2,0:0:0:0:
225,156,46738,2,0,P|257:139|261:126,1,45,0|0,0:0|3:2,0:0:0:0:
324,100,46952,2,0,P|322:63|312:54,1,45,0|0,3:2|3:2,0:0:0:0:
326,176,47166,6,0,B|411:170|361:236|477:237,1,135,6|0,3:2|3:2,0:0:0:0:
499,82,47809,1,0,3:2:0:0:
439,146,48023,5,10,0:2:0:0:
472,243,48345,1,0,3:2:0:0:
505,325,48666,1,0,3:2:0:0:
431,384,48880,5,2,3:2:0:0:
361,289,49202,1,2,3:2:0:0:
447,212,49523,1,2,3:2:0:0:
379,144,49738,6,0,B|285:139|328:58|236:47,1,180,10|2,0:2|0:2,0:0:0:0:
238,47,50381,1,2,0:2:0:0:
153,147,50595,5,2,0:2:0:0:
66,108,50809,1,10,0:2:0:0:
59,112,50916,2,0,P|22:100|7:97,1,49.5000015106202,0|0,3:2|0:0,0:0:0:0:
102,208,51131,1,0,3:2:0:0:
108,202,51238,2,0,P|145:190|160:187,1,49.5000015106202,8|0,0:2|0:0,0:0:0:0:
34,277,51452,6,0,P|12:237|27:182,1,99.0000030212403,2|10,0:2|0:2,0:0:0:0:
230,213,51881,2,0,P|219:257|171:288,1,99.0000030212403,2|10,0:2|0:2,0:0:0:0:
27,334,52309,6,0,P|39:301|59:280,1,49.5000015106202,0|0,3:2|0:0,0:0:0:0:
151,288,52523,1,0,3:2:0:0:
167,309,52631,1,0,3:2:0:0:
160,348,52738,2,0,B|210:328|202:366|280:336,1,99.0000030212403,2|10,0:2|0:2,0:0:0:0:
343,275,53166,2,0,P|345:255|353:204,2,49.5000015106202,2|0|10,0:2|3:2|0:2,0:0:0:0:
448,359,53595,2,0,P|435:309|431:299,1,49.5000015106202,2|0,0:2|0:0,0:0:0:0:
480,251,53809,2,0,P|484:227|492:204,1,49.5000015106202,10|0,0:1|0:0,0:0:0:0:
428,135,54023,5,2,0:2:0:0:
341,174,54237,1,10,0:2:0:0:
334,170,54344,2,0,P|297:182|282:185,1,49.5000015106202,0|0,3:2|0:0,0:0:0:0:
374,88,54559,1,0,3:2:0:0:
379,97,54666,2,0,P|416:109|431:112,1,49.5000015106202,8|0,0:2|0:0,0:0:0:0:
333,13,54880,2,0,P|294:44|293:99,1,99.0000030212403,2|10,0:2|0:2,0:0:0:0:
327,259,55309,2,0,P|365:227|366:172,1,99.0000030212403,2|10,0:2|0:2,0:0:0:0:
181,144,55737,6,0,P|193:176|213:197,1,49.5000015106202,0|0,3:2|0:0,0:0:0:0:
253,258,55952,2,0,P|240:290|220:311,1,49.5000015106202,0|0,3:2|3:2,0:0:0:0:
99,306,56166,2,0,P|124:265|171:255,1,99.0000030212403,2|10,0:2|0:2,0:0:0:0:
363,337,56595,1,2,0:2:0:0:
356,333,56702,6,0,P|319:345|304:348,1,49.5000015106202,0|10,3:2|0:2,0:0:0:0:
462,281,57023,2,0,P|437:275|414:266,1,49.5000015106202,2|0,0:2|0:0,0:0:0:0:
374,182,57238,1,2,0:2:0:0:
512,100,57452,5,2,0:2:0:0:
458,28,57666,1,10,0:2:0:0:
465,32,57773,2,0,P|502:20|517:17,1,49.5000015106202,0|0,3:2|0:0,0:0:0:0:
420,105,57988,2,0,P|383:93|368:90,1,49.5000015106202,0|8,3:2|0:2,0:0:0:0:
490,197,58309,6,0,P|512:157|497:102,1,99.0000030212403,2|10,0:2|0:2,0:0:0:0:
298,85,58738,2,0,P|309:129|357:160,1,99.0000030212403,2|10,0:2|0:2,0:0:0:0:
498,249,59166,6,0,P|486:216|466:195,1,49.5000015106202,0|0,3:2|0:0,0:0:0:0:
390,268,59380,1,2,3:3:0:0:
374,289,59488,1,0,3:2:0:0:
381,328,59595,2,0,B|331:308|339:346|261:316,1,99.0000030212403,2|10,0:2|0:2,0:0:0:0:
209,265,60023,2,0,P|207:245|199:194,2,49.5000015106202,2|0|10,0:2|3:2|0:2,0:0:0:0:
100,354,60452,2,0,P|113:304|117:294,1,49.5000015106202,2|0,0:2|0:0,0:0:0:0:
54,257,60666,2,0,P|41:207|37:197,1,49.5000015106202,10|0,0:1|0:0,0:0:0:0:
74,124,60881,5,2,0:2:0:0:
161,163,61095,1,10,0:2:0:0:
168,159,61202,2,0,P|205:171|220:174,1,49.5000015106202,0|0,3:2|0:0,0:0:0:0:
123,86,61417,2,0,P|86:98|71:101,1,49.5000015106202,0|8,3:2|0:2,0:0:0:0:
169,2,61738,2,0,P|208:33|209:88,1,99.0000030212403,2|10,0:2|0:2,0:0:0:0:
175,248,62167,2,0,P|137:216|136:161,1,99.0000030212403,2|10,0:2|0:2,0:0:0:0:
321,133,62595,6,0,P|309:165|289:186,1,49.5000015106202,2|0,3:2|0:0,0:0:0:0:
249,247,62810,2,0,P|262:279|282:300,1,49.5000015106202,2|0,3:2|0:0,0:0:0:0:
403,295,63024,2,0,P|378:254|331:244,1,99.0000030212403,2|10,0:2|0:2,0:0:0:0:
178,356,63452,1,2,0:2:0:0:
185,352,63559,6,0,P|222:364|237:367,1,49.5000015106202,0|10,3:2|0:2,0:0:0:0:
123,301,63773,1,0,3:2:0:0:
123,301,63881,2,0,P|86:313|71:316,1,49.5000015106202,2|0,3:2|0:0,0:0:0:0:
141,222,64095,2,0,P|105:206|92:198,1,49.5000015106202,2|0,0:2|0:0,0:0:0:0:
208,163,64309,6,0,P|244:117|337:139,1,144,4|10,3:1|0:2,0:0:0:0:
458,222,65059,2,0,P|449:260|444:310,1,72,2|0,3:2|0:0,0:0:0:0:
368,314,65380,2,0,B|345:232|302:293|287:182,1,144,2|0,3:2|0:2,0:0:0:0:
374,27,66023,1,2,3:2:0:0:
431,93,66238,2,0,P|376:105|329:124,1,72,2|8,0:2|0:2,0:0:0:0:
511,112,66666,1,2,0:2:0:0:
511,112,66773,2,0,B|492:177|458:128|446:217,1,108,0|0,3:2|3:2,0:0:0:0:
361,110,67309,2,0,P|395:99|430:92,1,72,8|2,0:2|0:2,0:0:0:0:
239,48,67738,5,2,3:2:0:0:
292,127,67952,1,2,0:2:0:0:
154,203,68166,2,0,P|119:195|38:178,1,108,10|0,0:2|3:2,0:0:0:0:
20,205,68595,1,2,0:2:0:0:
20,205,68702,2,0,P|15:243|61:287,1,108,0|10,0:0|0:2,0:0:0:0:
82,302,69131,2,0,P|130:291|144:288,1,36,0|2,0:0|0:2,0:0:0:0:
240,192,69452,5,2,3:2:0:0:
240,192,69559,1,0,0:0:0:0:
240,192,69666,2,0,P|215:246|212:286,1,72,0|8,0:0|0:2,0:0:0:0:
302,341,70095,1,8,0:2:0:0:
318,355,70202,2,0,P|352:339|394:342,1,72,0|10,3:2|0:2,0:0:0:0:
473,343,70523,6,0,P|461:314|461:305,1,36,2|2,3:2|3:2,0:0:0:0:
481,286,70738,2,0,P|492:210|495:194,1,72,10|2,0:2|3:1,0:0:0:0:
339,177,71166,6,0,B|422:150|369:104|479:86,1,144,4|10,3:1|0:2,0:0:0:0:
283,35,71916,1,2,3:2:0:0:
251,190,72238,2,0,P|222:148|126:155,1,144,2|0,3:2|0:2,0:0:0:0:
71,253,72880,1,2,3:2:0:0:
150,290,73095,2,0,P|162:235|181:188,1,72,2|8,0:2|0:2,0:0:0:0:
249,76,73523,1,2,0:2:0:0:
244,66,73631,2,0,B|181:59|217:16|128:20,1,108,0|0,3:2|3:2,0:0:0:0:
84,28,74059,1,0,0:0:0:0:
84,28,74166,1,8,0:2:0:0:
127,110,74380,1,2,0:2:0:0:
18,213,74595,5,2,3:2:0:0:
96,189,74809,2,0,P|87:229|78:274,1,72,2|10,0:2|0:2,0:0:0:0:
62,281,75131,2,0,P|74:320|76:332,1,36,0|2,0:0|0:2,0:0:0:0:
157,384,75452,2,0,P|164:348|172:313,1,72,2|2,0:2|0:2,0:0:0:0:
203,292,75773,1,0,0:0:0:0:
203,292,75881,2,0,B|271:294|231:342|312:349,1,108,10|0,0:2|0:0,0:0:0:0:
364,376,76309,6,0,B|377:335|377:335|328:217,1,144,2|8,3:2|0:2,0:0:0:0:
465,119,76952,1,2,0:2:0:0:
461,137,77059,1,0,3:2:0:0:
465,151,77166,2,0,P|474:192|477:217,1,36,0|0,3:2|3:2,0:0:0:0:
370,164,77381,6,0,P|379:123|382:98,1,36,14|0,0:1|0:0,0:0:0:0:
301,49,77595,2,0,P|310:90|313:115,1,36,14|0,0:1|0:0,0:0:0:0:
233,151,77809,1,10,0:2:0:0:
256,164,77916,1,10,0:2:0:0:
262,195,78023,6,0,P|216:212|207:214,1,40.4999987640381,6|0,0:2|0:0,0:0:0:0:
173,266,78238,2,0,P|127:249|118:247,1,40.4999987640381,10|0,0:2|3:2,0:0:0:0:
25,166,78559,1,0,3:2:0:0:
18,177,78666,2,0,B|86:181|59:134|133:135,1,121.499996292114,8|0,0:2|3:2,0:0:0:0:
142,131,79095,6,0,B|172:88|172:88|130:9,1,121.499996292114,10|0,0:2|3:2,0:0:0:0:
120,24,79523,2,0,L|23:13,1,80.9999975280763,10|0,0:2|3:2,0:0:0:0:
244,78,79952,1,0,3:2:0:0:
254,82,80059,2,0,L|351:71,1,80.9999975280763,0|0,3:2|3:2,0:0:0:0:
398,109,80381,1,10,0:2:0:0:
491,21,80595,2,0,P|484:63|483:77,1,40.4999987640381,2|0,0:2|3:2,0:0:0:0:
447,197,80809,2,0,P|442:156|436:117,1,80.9999975280763,10|2,0:2|0:2,0:0:0:0:
507,252,81131,1,0,3:2:0:0:
501,263,81238,1,8,0:2:0:0:
400,372,81452,6,0,B|379:338|379:338|404:269,1,80.9999975280763,4|2,3:2|0:2,0:0:0:0:
319,211,81773,2,0,L|329:261,1,40.4999987640381,0|0,3:2|0:0,0:0:0:0:
277,350,81988,1,0,3:2:0:0:
277,350,82095,2,0,B|196:324|230:385|139:357,1,121.499996292114,8|0,0:2|3:2,0:0:0:0:
74,322,82523,2,0,P|97:277|169:286,1,121.499996292114,10|0,0:2|3:2,0:0:0:0:
244,259,82952,2,0,L|236:178,1,80.9999975280763,10|0,0:2|3:2,0:0:0:0:
141,117,83381,1,0,3:2:0:0:
141,117,83489,1,0,3:2:0:0:
193,16,83703,1,0,3:2:0:0:
193,16,83809,1,10,0:2:0:0:
289,83,84023,5,2,0:2:0:0:
298,94,84131,2,0,P|318:95|395:101,1,80.9999975280763,0|0,3:2|0:0,0:0:0:0:
468,33,84560,1,0,3:2:0:0:
468,33,84667,1,12,0:2:0:0:
444,167,84881,6,0,P|435:149|397:82,1,80.9999975280763,2|2,3:2|0:2,0:0:0:0:
378,99,85203,1,0,3:2:0:0:
246,152,85417,1,0,3:2:0:0:
254,159,85524,1,8,0:2:0:0:
385,226,85846,1,0,3:2:0:0:
370,219,85953,2,0,B|358:280|318:246|313:335,1,121.499996292114,10|0,0:0|3:2,0:0:0:0:
332,345,86381,1,10,0:2:0:0:
295,200,86596,6,0,L|209:215,1,80.9999975280763,0|8,3:2|0:2,0:0:0:0:
159,279,86917,2,0,L|85:233,1,80.9999975280763,2|0,3:2|3:2,0:0:0:0:
14,210,87239,2,0,B|27:170|27:170|13:128|13:128|24:78,1,121.499996292114,10|0,0:2|3:2,0:0:0:0:
6,68,87666,1,2,3:2:0:0:
121,26,87880,1,2,0:2:0:0:
172,90,88095,1,2,3:2:0:0:
185,85,88202,1,0,0:0:0:0:
226,72,88309,6,0,L|331:96,1,101.250003862381,6|0,3:2|3:2,0:0:0:0:
395,60,88738,2,0,L|417:155,1,67.5000025749208,2|0,0:2|3:2,0:0:0:0:
512,230,89166,6,0,L|407:254,1,101.250003862381,14|0,0:2|3:2,0:0:0:0:
328,283,89595,2,0,L|343:218,1,67.5000025749208,2|0,0:2|3:2,0:0:0:0:
485,66,90023,5,14,0:2:0:0:
284,44,90345,1,0,3:2:0:0:
490,85,90666,1,0,3:2:0:0:
265,31,90880,2,0,P|252:147|248:182,1,135.000005149842,14|2,3:2|0:2,0:0:0:0:
58,96,91738,5,6,3:2:0:0:
36,69,91845,2,0,P|56:30|118:44,1,90,2|0,3:2|3:2,0:0:0:0:
152,92,92166,1,2,0:3:0:0:
152,92,92595,1,8,0:2:0:0:
152,92,93023,1,2,0:3:0:0:
72,187,93238,1,2,0:2:0:0:
150,191,93452,6,0,B|142:237|142:237|107:262|107:262|96:306,2,135,2|0|2,3:2|3:2|0:2,0:0:0:0:
61,115,94309,2,0,B|53:69|53:69|18:44|18:44|7:0,2,135,10|0|2,0:2|3:2|0:2,0:0:0:0:
233,169,95166,5,6,3:2:0:0:
248,166,95273,1,2,3:2:0:0:
204,307,95488,1,0,3:2:0:0:
219,303,95595,1,2,0:3:0:0:
134,236,96023,1,8,0:2:0:0:
134,236,96452,1,2,0:3:0:0:
285,239,96666,2,0,L|338:230,1,45,0|0,3:2|3:2,0:0:0:0:
405,293,96881,6,0,P|412:245|461:236,1,90,2|0,3:2|0:0,0:0:0:0:
492,151,97202,2,0,P|485:199|436:208,1,90,2|0,3:2|0:0,0:0:0:0:
364,144,97523,1,2,3:2:0:0:
457,0,97738,6,0,P|450:48|401:57,1,90,10|0,0:2|0:0,0:0:0:0:
274,26,98059,2,0,P|322:33|331:82,1,90,2|0,3:2|0:0,0:0:0:0:
373,154,98380,1,2,3:2:0:0:
373,154,98488,1,2,0:2:0:0:
373,154,98595,1,2,3:2:0:0:
373,154,98702,6,0,L|354:212,1,45,2|2,3:2|0:2,0:0:0:0:
449,198,98916,1,0,3:2:0:0:
451,223,99023,1,2,0:2:0:0:
451,223,99452,1,8,0:2:0:0:
451,223,99880,1,2,0:3:0:0:
335,336,100095,1,2,0:2:0:0:
333,259,100309,6,0,B|379:267|379:267|404:302|404:302|448:313,2,135,2|0|2,3:2|3:2|0:2,0:0:0:0:
179,259,101166,2,0,B|133:267|133:267|108:302|108:302|64:313,1,135,10|0,0:2|3:2,0:0:0:0:
49,303,101595,2,0,L|57:242,1,45,0|0,0:0|3:2,0:0:0:0:
13,193,101809,1,0,3:2:0:0:
11,180,101916,1,0,3:2:0:0:
31,146,102023,6,0,B|121:139|58:84|182:85,1,135,6|0,3:2|3:2,0:0:0:0:
287,145,102666,1,0,3:2:0:0:
330,9,102880,5,10,0:2:0:0:
402,85,103202,2,0,B|312:92|375:147|251:146,1,135,0|0,3:2|3:2,0:0:0:0:
481,138,103737,5,2,3:2:0:0:
415,244,104059,1,2,3:2:0:0:
503,103,104380,1,2,3:2:0:0:
495,262,104595,6,0,B|402:242|423:331|331:318,1,180,10|2,0:2|0:2,0:0:0:0:
334,319,105238,1,2,0:2:0:0:
242,180,105452,6,0,L|229:226,2,45,2|2|2,3:2|3:2|0:2,0:0:0:0:
262,298,105773,1,0,3:0:0:0:
263,298,105881,2,0,B|188:289|205:365|136:349,1,144,2|8,0:0|0:2,0:0:0:0:
33,86,112095,5,2,3:2:0:0:
33,86,112202,1,2,0:2:0:0:
33,86,112309,2,0,B|76:75|76:75|96:41|96:41|157:19,1,135.000005149842,6|2,3:2|0:3,0:0:0:0:
217,116,112952,2,0,L|141:100,1,67.5000025749208,2|8,0:2|0:2,0:0:0:0:
245,42,113381,1,2,0:2:0:0:
311,77,113595,2,0,L|387:61,1,67.5000025749208,2|0,0:3|3:2,0:0:0:0:
398,48,113881,2,0,L|401:22,1,22.5000008583069,0|0,3:2|3:2,0:0:0:0:
418,77,114023,6,0,B|402:152|357:124|345:186,1,135.000005149842,6|2,3:2|0:3,0:0:0:0:
503,315,114881,2,0,P|492:259|483:205,1,101.250003862381,8|2,0:2|3:2,0:0:0:0:
470,201,115309,6,0,P|459:237|455:247,1,33.7500012874604,2|0,0:2|3:3,0:0:0:0:
397,279,115523,2,0,P|408:315|412:325,1,33.7500012874604,2|0,3:2|3:3,0:0:0:0:
486,341,115738,5,6,3:2:0:0:
357,211,115952,5,2,0:2:0:0:
357,211,116059,1,2,3:2:0:0:
252,277,116273,5,0,3:2:0:0:
252,277,116381,2,0,P|254:225|256:202,1,67.5000025749208,2|8,3:2|0:2,0:0:0:0:
143,149,116809,5,0,3:2:0:0:
143,149,116916,2,0,P|145:201|147:224,1,67.5000025749208,0|0,3:2|0:0,0:0:0:0:
160,236,117238,1,2,3:2:0:0:
93,329,117452,6,0,B|35:314|57:366|-23:351,1,101.250003862381,10|2,0:2|3:2,0:0:0:0:
9,341,117881,2,0,P|74:351|123:365,1,101.250003862381,2|0,3:2|3:2,0:0:0:0:
195,365,118309,2,0,P|218:330|166:269,1,135.000005149842,10|0,0:2|0:2,0:0:0:0:
164,95,119166,6,0,P|157:47|156:40,1,40.4999987640381,6|0,3:2|0:0,0:0:0:0:
83,66,119381,2,0,P|85:86|88:106,1,40.4999987640381,2|0,0:2|3:2,0:0:0:0:
139,170,119595,6,0,B|68:192|124:229|28:245,1,121.499996292114,10|0,0:1|0:0,0:0:0:0:
112,304,120023,6,0,B|183:281|127:244|223:228,1,108,10|0,0:1|0:0,0:0:0:0:
245,305,120452,6,0,B|188:322|232:352|156:365,1,94.499997116089,10|0,0:1|0:0,0:0:0:0:
163,362,120881,6,0,P|254:370|311:380,1,121.499996292114,12|0,0:2|3:2,0:0:0:0:
306,373,121309,2,0,P|336:334|322:298,1,80.9999975280763,10|0,0:2|0:0,0:0:0:0:
511,217,121738,6,0,B|442:215|471:268|399:264,1,121.499996292114,10|0,0:2|3:2,0:0:0:0:
346,215,122166,2,2,B|313:170|313:170|348:113,1,121.499996292114,10|0,0:2|0:0,0:1:0:0:
409,31,122595,6,0,P|417:80|421:97,1,40.4999987640381,6|0,3:2|0:0,0:0:0:0:
335,37,122809,1,2,0:2:0:0:
328,22,122916,1,0,3:2:0:0:
298,9,123023,6,0,B|230:25|270:77|172:83,1,121.499996292114,10|0,0:1|0:0,0:0:0:0:
209,154,123452,6,0,B|167:97|135:154|91:66,1,128.249996575356,10|0,0:1|0:0,0:0:0:0:
24,82,123881,6,0,P|40:36|51:30,1,45,10|0,0:1|0:0,0:0:0:0:
72,172,124095,1,0,3:2:0:0:
61,188,124202,1,0,3:2:0:0:
25,202,124309,6,0,B|99:222|49:268|149:287,1,135,12|0,0:2|3:2,0:0:0:0:
142,291,124738,2,0,P|89:312|52:336,1,90,10|0,0:2|3:2,0:0:0:0:
236,346,125166,2,0,P|261:298|160:224,1,180,10|10,0:2|0:2,0:0:0:0:
181,223,125809,6,0,P|174:203|174:199,2,22.5,2|2|2,1:2|0:0|3:2,0:0:0:0:
256,113,126023,6,0,P|249:161|248:168,1,40.4999987640381,6|0,3:2|0:0,0:0:0:0:
327,165,126238,2,0,P|329:144|332:124,1,40.4999987640381,2|0,0:2|3:2,0:0:0:0:
406,206,126452,6,0,P|437:164|507:164,1,121.499996292114,10|0,0:1|0:0,0:0:0:0:
498,276,126881,6,0,P|467:234|397:234,1,108,10|0,0:1|0:0,0:0:0:0:
360,319,127309,6,0,P|397:291|397:228,1,94.499997116089,10|0,0:1|0:0,0:0:0:0:
340,155,127738,6,0,B|278:129|287:202|211:168,1,121.499996292114,12|0,0:2|3:2,0:0:0:0:
201,154,128166,2,0,B|173:123|173:123|120:132,1,80.9999975280763,10|0,0:2|0:0,0:0:0:0:
27,263,128595,6,0,B|96:265|67:212|139:216,1,121.499996292114,10|0,0:2|3:2,0:0:0:0:
201,251,129023,2,0,L|193:306,1,40.4999987640381,10|0,0:1|3:2,0:0:0:0:
192,320,129238,2,0,L|184:375,1,40.4999987640381,0|2,3:2|3:2,0:0:0:0:
286,247,129452,6,0,P|317:289|387:289,1,121.499996292114,6|0,3:2|3:2,0:0:0:0:
411,223,129881,6,0,P|376:183|306:189,1,108,10|0,0:1|0:0,0:0:0:0:
286,247,130309,1,10,0:1:0:0:
408,87,130523,6,0,B|420:58|363:31|363:31|262:48|211:127|244:210,1,297.000009063721,2|12,0:1|0:2,0:0:0:0:
107,115,131381,1,0,0:0:0:0:
122,109,131488,1,0,3:2:0:0:
139,92,131595,2,0,P|91:67|17:168,1,180,10|10,0:2|0:2,0:0:0:0:
256,336,132881,5,2,0:2:0:0:
440,80,138023,5,2,0:3:0:0:
361,117,138452,1,2,0:3:0:0:
203,50,138881,2,0,B|98:59|163:129|34:141,1,175.499991966248,2|0,0:3|0:0,0:0:0:0:
44,135,139309,6,2,B|34:115|34:115|47:90,1,40.4999987640381,2|0,0:1|0:0,0:1:0:0:
191,132,139738,6,0,P|192:193|124:220,1,103.500001974106,6|0,3:2|0:0,0:0:0:0:
100,310,140059,2,0,B|68:250|68:250|84:219,1,103.500001974106,2|0,3:2|0:0,0:0:0:0:
157,370,140381,1,2,3:2:0:0:
323,301,140595,2,0,B|386:290|386:290|407:257|407:257|481:250,2,155.250002961159,14|2|0,0:2|3:2|3:2,0:0:0:0:
162,218,141452,5,10,0:2:0:0:
203,50,141773,1,2,3:2:0:0:
335,219,142095,1,2,3:2:0:0:
210,143,142309,1,10,0:2:0:0:
315,56,142523,2,0,L|322:12,2,25.8750004935265,0|0|0,3:2|3:2|3:2,0:0:0:0:
374,118,142738,1,2,0:2:0:0:
374,118,142952,1,0,0:1:0:0:
485,66,143166,5,6,3:2:0:0:
495,50,143273,2,0,P|467:18|431:22,1,62.9999980773926,2|0,3:2|3:2,0:0:0:0:
394,109,143595,2,0,P|389:182|385:252,1,125.999996154785,2|8,0:3|0:2,0:0:0:0:
504,354,144451,1,2,0:3:0:0:
443,312,144666,1,2,0:2:0:0:
372,359,144881,6,0,P|304:338|256:325,2,94.499997116089,2|0|2,3:2|3:2|0:2,0:0:0:0:
312,248,145738,2,0,P|241:257|192:266,2,94.499997116089,10|0|2,0:2|3:2|0:2,0:0:0:0:
148,218,146595,5,2,3:2:0:0:
141,204,146702,1,2,3:2:0:0:
34,183,146916,1,0,3:2:0:0:
40,169,147023,2,0,B|44:142|44:142|6:31,2,125.999996154785,2|8|2,0:3|0:2|0:3,0:0:0:0:
142,293,148095,2,0,L|133:346,1,31.4999990386963,0|0,3:2|3:2,0:0:0:0:
71,261,148309,6,0,L|240:222,1,135,2|2,3:2|3:2,0:0:0:0:
363,288,148952,1,2,3:2:0:0:
433,246,149166,2,0,L|463:114,2,135,10|2|2,0:2|3:2|3:2,0:0:0:0:
308,372,150023,5,2,3:2:0:0:
301,354,150131,1,2,3:2:0:0:
355,276,150345,1,0,3:2:0:0:
199,126,150881,5,8,0:2:0:0:
273,92,151095,2,0,P|284:58|262:33,1,62.9999980773926,0|2,0:0|0:3,0:0:0:0:
108,25,151523,1,2,0:2:0:0:
61,96,151738,6,0,P|86:172|101:231,2,135,2|0|2,3:2|3:2|0:2,0:0:0:0:
205,207,152595,2,0,P|180:283|165:342,1,135,10|0,0:2|3:2,0:0:0:0:
238,354,153023,2,0,P|270:337|274:324,1,45,0|0,0:0|3:2,0:0:0:0:
296,254,153237,2,0,P|294:217|284:208,1,45,0|0,3:2|3:2,0:0:0:0:
360,311,153452,6,0,B|441:302|391:236|507:235,2,135,6|0|0,3:2|3:2|3:2,0:0:0:0:
217,245,154309,5,10,0:2:0:0:
115,199,154631,2,0,B|25:206|88:261|-36:260,1,135,0|0,3:2|3:2,0:0:0:0:
28,133,155166,5,2,3:2:0:0:
118,283,155488,1,2,3:2:0:0:
18,105,155809,1,2,3:2:0:0:
160,316,156024,6,0,B|67:296|88:385|-4:372,1,180,10|8,0:2|0:2,0:0:0:0:
15,288,156666,1,8,0:2:0:0:
7,277,156773,1,8,0:2:0:0:
23,248,156881,5,6,3:2:0:0:
201,189,157095,1,8,0:2:0:0:
193,172,157202,1,0,3:2:0:0:
342,257,157416,1,0,3:2:0:0:
331,277,157523,1,8,0:2:0:0:
419,189,157845,1,0,3:2:0:0:
408,169,157952,1,8,0:2:0:0:
500,260,158274,1,0,3:2:0:0:
489,280,158381,1,8,0:2:0:0:
408,169,158595,6,0,P|424:125|482:126,1,99.0000030212403,2|8,3:2|0:2,0:0:0:0:
388,194,158916,2,0,P|341:198|317:145,1,99.0000030212403,0|0,3:2|3:2,0:0:0:0:
308,69,159238,1,2,0:2:0:0:
104,169,159452,6,0,P|88:125|30:126,1,99.0000030212403,10|8,0:2|0:2,0:0:0:0:
124,194,159773,2,0,P|170:198|194:145,1,99.0000030212403,2|0,0:2|3:2,0:0:0:0:
204,69,160095,1,10,0:2:0:0:
23,248,160309,5,6,3:2:0:0:
201,189,160523,1,8,0:2:0:0:
193,172,160630,1,0,3:2:0:0:
342,257,160844,1,0,3:2:0:0:
331,277,160951,1,8,0:2:0:0:
419,189,161273,1,0,3:2:0:0:
408,169,161380,1,8,0:2:0:0:
492,244,161702,1,0,3:2:0:0:
500,260,161809,2,0,P|486:296|473:347,1,49.5000015106202,8|0,0:2|0:0,0:0:0:0:
324,369,162023,6,0,P|358:338|416:343,1,99.0000030212403,2|8,3:2|0:2,0:0:0:0:
320,201,162345,2,0,P|343:244|389:260,1,99.0000030212403,0|0,3:2|3:2,0:0:0:0:
277,291,162666,1,10,0:2:0:0:
188,369,162881,6,0,P|160:344|114:348,1,49.5000015106202,10|0,0:2|3:2,0:0:0:0:
60,331,163095,1,12,0:2:0:0:
33,311,163203,2,0,P|18:264|39:221,1,99.0000030212403,2|0,0:2|3:2,0:0:0:0:
117,190,163523,1,10,0:2:0:0:
18,60,163738,5,6,3:2:0:0:
15,85,163845,1,2,0:2:0:0:
25,108,163952,1,10,0:2:0:0:
42,123,164059,2,0,P|133:113|170:109,1,99.0000030212403,0|0,3:2|3:2,0:0:0:0:
168,90,164381,1,8,0:2:0:0:
271,158,164702,1,0,3:2:0:0:
263,175,164809,1,8,0:2:0:0:
412,90,165131,1,0,3:2:0:0:
401,70,165238,1,8,0:2:0:0:
408,215,165452,6,0,P|424:259|482:258,1,99.0000030212403,2|8,3:2|0:2,0:0:0:0:
388,190,165773,2,0,P|341:186|317:239,1,99.0000030212403,0|0,3:2|3:2,0:0:0:0:
308,315,166095,1,2,0:2:0:0:
177,234,166309,1,10,0:2:0:0:
152,229,166416,1,0,3:2:0:0:
128,225,166523,1,8,0:2:0:0:
107,212,166631,1,2,3:2:0:0:
72,217,166738,1,8,0:2:0:0:
38,223,166845,1,8,0:2:0:0:
0,240,166952,1,8,0:2:0:0:
29,272,167059,1,8,0:2:0:0:
0,337,167166,6,0,B|90:330|27:275|151:276,1,148.50000453186,6|0,3:2|3:2,0:0:0:0:
295,345,167809,1,0,3:2:0:0:
377,188,168023,5,10,0:2:0:0:
281,330,168345,2,0,B|274:240|219:303|220:179,1,148.50000453186,0|0,3:2|3:2,0:0:0:0:
372,55,168880,5,2,3:2:0:0:
297,203,169202,1,2,3:2:0:0:
389,46,169523,1,2,3:2:0:0:
285,254,169738,6,0,B|392:231|328:157|480:152,1,198.000006042481,10|2,0:2|0:2,0:0:0:0:
501,213,170381,1,2,0:2:0:0:
392,329,170595,5,2,0:2:0:0:
444,276,170809,1,10,0:2:0:0:
451,272,170916,2,0,P|488:284|503:287,1,45,0|0,3:2|0:0,0:0:0:0:
408,176,171131,1,0,3:2:0:0:
402,182,171238,2,0,P|365:194|350:197,1,45,8|0,0:2|0:0,0:0:0:0:
476,107,171452,6,0,P|498:147|483:202,1,90,2|8,0:2|0:0,0:0:0:0:
280,171,171881,2,0,P|291:127|339:96,1,90,2|8,0:2|0:0,0:0:0:0:
483,50,172309,6,0,P|471:83|451:104,1,45,0|0,3:2|0:0,0:0:0:0:
359,96,172523,1,0,3:2:0:0:
343,75,172631,1,0,3:2:0:0:
350,36,172738,2,0,B|300:56|308:18|230:48,1,90,2|0,0:2|0:0,0:0:0:0:
167,109,173166,2,0,P|165:129|157:180,2,45,2|0|0,0:2|0:0|0:0,0:0:0:0:
62,25,173595,6,0,P|75:75|79:85,1,45,2|0,0:2|0:0,0:0:0:0:
30,133,173809,2,0,P|26:157|18:180,1,45,10|0,0:1|0:0,0:0:0:0:
151,55,174023,6,0,P|91:41|30:28,1,90,2|10,0:2|0:2,0:0:0:0:
41,46,174345,1,2,3:2:0:0:
5,192,174559,5,0,3:2:0:0:
27,203,174667,2,0,P|70:193|114:182,1,90,10|2,0:2|0:2,0:0:0:0:
191,207,174988,1,0,3:2:0:0:
200,227,175095,2,0,L|179:281,1,45,10|0,0:2|0:0,0:0:0:0:
63,363,175416,1,0,3:2:0:0:
55,345,175523,1,10,0:2:0:0:
196,286,175738,5,2,3:2:0:0:
318,342,175952,1,0,3:2:0:0:
326,324,176059,1,0,3:2:0:0:
448,279,176273,1,0,0:0:0:0:
456,297,176381,2,0,P|501:272|499:235,1,90,10|2,0:2|0:2,0:0:0:0:
432,168,176702,1,0,3:2:0:0:
424,186,176809,1,10,0:2:0:0:
400,56,177023,6,0,P|409:13|415:-7,1,45,2|0,3:2|3:2,0:0:0:0:
327,65,177238,2,0,P|332:86|336:109,1,45,2|0,3:2|3:2,0:0:0:0:
417,159,177452,5,2,0:2:0:0:
338,224,177666,1,10,0:2:0:0:
346,241,177773,1,0,3:2:0:0:
206,272,177987,1,0,3:2:0:0:
217,252,178095,1,8,0:2:0:0:
99,186,178416,1,0,3:2:0:0:
110,206,178523,1,10,0:2:0:0:
26,290,178738,1,2,0:2:0:0:
19,281,178845,2,0,P|33:245|37:228,1,45,0|10,3:2|0:2,0:0:0:0:
0,116,179166,5,0,3:2:0:0:
100,172,179381,1,2,3:3:0:0:
118,157,179488,2,0,B|184:152|149:187|236:187,1,90,0|0,3:2|0:0,0:0:0:0:
262,147,179809,1,10,0:2:0:0:
360,212,180131,1,0,3:2:0:0:
352,195,180238,1,10,0:2:0:0:
474,120,180452,2,0,P|461:160|459:170,1,45,2|0,0:2|0:0,0:0:0:0:
420,64,180666,1,10,0:1:0:0:
285,26,180881,5,2,0:2:0:0:
220,105,181095,1,10,0:2:0:0:
203,97,181202,1,0,3:2:0:0:
171,210,181416,1,0,3:2:0:0:
191,199,181524,1,8,0:2:0:0:
265,297,181845,1,0,3:2:0:0:
245,286,181952,1,10,0:2:0:0:
129,362,182166,1,2,0:2:0:0:
138,355,182274,2,0,P|174:369|191:373,1,45,0|10,3:2|0:2,0:0:0:0:
96,258,182595,5,2,3:2:0:0:
0,223,182810,1,2,3:2:0:0:
20,208,182916,2,0,P|26:135|29:93,1,90
0,51,183238,1,10,0:2:0:0:
145,90,183452,1,2,0:0:0:0:
134,91,183560,1,0,3:2:0:0:
119,103,183667,1,10,0:2:0:0:
120,142,183773,1,0,3:2:0:0:
156,171,183881,1,2,3:2:0:0:
197,168,183988,1,8,0:2:0:0:
219,135,184095,1,8,0:2:0:0:
252,110,184202,1,8,0:2:0:0:
288,121,184309,5,2,3:2:0:0:
486,141,184523,2,0,B|434:123|379:137|398:247|372:368|276:320,1,323.999990112305,2|0,0:2|0:0,0:0:0:0:
