osu file format v14

[General]
AudioFilename: audio.mp3
AudioLeadIn: 0
PreviewTime: 40677
Countdown: 0
SampleSet: Soft
StackLeniency: 0.4
Mode: 0
LetterboxInBreaks: 0
WidescreenStoryboard: 1

[Editor]
Bookmarks: 11557
DistanceSpacing: 0.8
BeatDivisor: 4
GridSize: 32
TimelineZoom: 1.6

[Metadata]
Title:Puppy Raceway
TitleUnicode:Puppy Raceway
Artist:Hyper Potions & SAMME
ArtistUnicode:Hyper Potions & SAMME
Creator:Niva
Version:Normal
Source:osu!
Tags:ハイパー ポーションズ haipaaa future bass kevin villecco ian tsuchiura sushi killer imsamme neon fm msdt featured artist fa chequered mappers' guild mini pack mini-pack instrumental electronic
BeatmapID:2492708
BeatmapSetID:1191714

[Difficulty]
HPDrainRate:4
CircleSize:3.5
OverallDifficulty:4
ApproachRate:5.5
SliderMultiplier:1.4
SliderTickRate:1

[Events]
//Background and Video events
0,0,"iukskaunrpa.jpg",0,0
//Break Periods
2,98252,100237
//Storyboard Layer 0 (Background)
//Storyboard Layer 1 (Fail)
//Storyboard Layer 2 (Pass)
//Storyboard Layer 3 (Foreground)
//Storyboard Layer 4 (Overlay)
//Storyboard Sound Samples

[TimingPoints]
2052,413.793103448276,4,2,32,60,1,0
2052,-125,4,2,32,60,0,0
6810,-125,4,2,32,60,0,0
8672,-125,4,2,32,60,0,0
13431,-125,4,2,32,60,0,0
15293,-125,4,2,32,60,0,0
20052,-125,4,2,32,60,0,0
21914,-125,4,2,32,60,0,0
26983,-125,4,2,77,60,0,0
27293,-125,4,2,32,60,0,0
27396,-125,4,2,77,60,0,0
27707,-125,4,2,97,60,0,0
28120,-125,4,2,98,60,0,0
28534,-125,4,2,64,70,0,0
29258,-125,4,2,0,70,0,0
29672,-125,4,2,64,70,0,0
30914,-125,4,2,0,70,0,0
31327,-125,4,2,64,70,0,0
32569,-125,4,2,0,70,0,0
32983,-125,4,2,64,70,0,0
40948,-125,4,2,64,70,0,0
41362,-125,4,2,64,55,0,0
41776,-111.111111111111,4,2,77,90,0,1
43017,-111.111111111111,4,2,77,90,0,1
43431,-111.111111111111,4,2,77,90,0,1
46327,-111.111111111111,4,2,77,90,0,1
46741,-111.111111111111,4,2,77,90,0,1
49638,-111.111111111111,4,2,77,90,0,1
50052,-111.111111111111,4,2,77,90,0,1
56258,-111.111111111111,4,2,77,90,0,1
56672,-111.111111111111,4,2,77,90,0,1
59569,-111.111111111111,4,2,77,90,0,1
59983,-111.111111111111,4,2,77,90,0,1
62879,-111.111111111111,4,2,77,90,0,1
63293,-111.111111111111,4,2,77,90,0,1
67845,-111.111111111111,4,2,77,95,0,1
68258,-125,4,2,77,90,0,0
68672,-125,4,2,77,75,0,0
81500,-125,4,2,77,75,0,0
94741,-166.666666666667,4,2,77,75,0,0
94845,-166.666666666667,4,2,77,40,0,0
98052,-166.666666666667,4,2,77,40,0,0
101362,-142.857142857143,4,2,77,40,0,0
107569,-111.111111111111,4,2,77,80,0,0
107983,-125,4,2,32,60,0,0
112741,-125,4,2,32,60,0,0
114189,-125,4,2,77,60,0,0
114396,-125,4,2,64,60,0,0
114603,-125,4,2,32,60,0,0
119362,-125,4,2,32,60,0,0
120810,-125,4,2,77,60,0,0
121017,-125,4,2,64,60,0,0
121224,-125,4,2,64,70,0,0
133327,-125,4,2,0,70,0,0
133431,-125,4,2,99,70,0,0
133534,-125,4,2,0,70,0,0
133638,-125,4,2,77,70,0,0
134052,-125,4,2,77,70,0,0
134258,-125,4,2,64,70,0,0
134465,-142.857142857143,4,2,77,70,0,0
134569,-142.857142857143,4,2,77,40,0,0
137776,-142.857142857143,4,2,77,40,0,0
138189,-142.857142857143,4,2,77,45,0,0
138603,-142.857142857143,4,2,77,50,0,0
139017,-142.857142857143,4,2,77,55,0,0
139431,-142.857142857143,4,2,77,60,0,0
139845,-142.857142857143,4,2,77,65,0,0
140258,-142.857142857143,4,2,64,80,0,0
140672,-142.857142857143,4,2,64,40,0,0
141086,-142.857142857143,4,2,99,50,0,0
141189,-142.857142857143,4,2,77,50,0,0
141500,-142.857142857143,4,2,64,60,0,0
141914,-111.111111111111,4,2,77,90,0,1
142327,-111.111111111111,4,2,77,90,0,1
142741,-111.111111111111,4,2,77,90,0,1
148948,-111.111111111111,4,2,77,90,0,1
149362,-111.111111111111,4,2,77,90,0,1
152258,-111.111111111111,4,2,77,90,0,1
152672,-111.111111111111,4,2,77,90,0,1
155569,-111.111111111111,4,2,77,90,0,1
155983,-111.111111111111,4,2,77,90,0,1
160845,-111.111111111111,4,2,77,90,0,0
160948,-111.111111111111,4,2,77,90,0,1
161362,-111.111111111111,4,2,77,90,0,1
161776,-111.111111111111,4,2,77,90,0,1
162189,-111.111111111111,4,2,77,90,0,1
162603,-111.111111111111,4,2,77,90,0,1
164672,-111.111111111111,4,2,77,90,0,1
165086,-111.111111111111,4,2,77,90,0,1
165500,-111.111111111111,4,2,77,90,0,1
165914,-111.111111111111,4,2,77,90,0,1
167155,-111.111111111111,4,2,99,90,0,1
167569,-111.111111111111,4,2,77,90,0,1
167983,-111.111111111111,4,2,77,90,0,1
168396,-111.111111111111,4,2,77,90,0,1
168810,-111.111111111111,4,2,77,90,0,1
169224,-111.111111111111,4,2,77,90,0,1
171293,-111.111111111111,4,2,77,90,0,1
171707,-111.111111111111,4,2,77,90,0,1
174189,-125,4,2,77,80,0,0
174293,-125,4,2,77,75,0,0
174603,-125,4,2,77,75,0,0
175017,-125,4,2,77,75,0,0
175431,-125,4,2,77,75,0,0
175845,-125,4,2,77,75,0,0
176258,-125,4,2,77,75,0,0
176672,-125,4,2,77,75,0,0
177086,-125,4,2,77,75,0,0
177500,-125,4,2,77,75,0,0
177914,-125,4,2,77,75,0,0
178327,-125,4,2,77,75,0,0
178741,-125,4,2,77,75,0,0
179155,-125,4,2,77,75,0,0
179569,-125,4,2,77,75,0,0
179983,-125,4,2,77,75,0,0
180396,-125,4,2,77,85,0,0
180810,-125,4,2,77,50,0,0

[Colours]
Combo1 : 255,253,174
Combo2 : 151,255,255
Combo3 : 43,253,190

[HitObjects]
119,58,2052,6,0,P|160:92|222:85,1,112,6|10,1:2|0:0,0:0:0:0:
323,131,2879,2,0,L|407:89,2,84,10|2|2,0:0|0:0|0:0,0:0:0:0:
319,175,3707,1,10,0:0:0:0:
217,220,4120,1,10,0:0:0:0:
114,176,4534,2,0,P|91:224|120:277,1,112,10|10,0:0|0:0,0:0:0:0:
103,317,5155,1,2,0:0:0:0:
88,359,5362,6,0,B|158:359|158:359|193:381,1,112,10|10,0:0|0:0,0:0:0:0:
288,322,6189,2,0,L|372:322,1,84,10|2,0:0|0:0,0:0:0:0:
451,360,6810,2,0,P|508:338|503:286,1,112,2|2,0:0|0:0,0:0:0:0:
484,256,7431,1,10,0:0:0:0:
462,216,7638,2,0,L|462:101,2,112,2|2|2,0:0|0:0|0:0,0:0:0:0:
484,256,8672,6,0,P|433:234|375:244,1,112,10|10,0:0|0:0,0:0:0:0:
283,184,9500,2,0,B|243:196|243:196|199:184,2,84,10|2|2,0:0|0:0|0:0,0:0:0:0:
326,195,10327,1,10,0:0:0:0:
375,92,10741,2,0,L|478:91,2,84,10|2|2,0:0|0:0|0:0,0:0:0:0:
335,71,11569,1,10,0:0:0:0:
295,91,11776,1,2,0:0:0:0:
254,71,11983,6,0,P|199:77|158:42,1,112,10|10,0:0|0:0,0:0:0:0:
60,103,12810,2,0,B|44:142|44:142|63:181,1,84,10|2,0:0|0:0,0:0:0:0:
15,251,13431,2,0,P|52:293|114:281,1,112,2|2,0:0|0:0,0:0:0:0:
145,305,14052,1,10,0:0:0:0:
187,319,14258,2,0,B|214:301|214:301|259:301|259:301|285:277,2,112,2|2|2,0:0|0:0|0:0,0:0:0:0:
145,305,15293,6,0,P|96:333|52:300,1,112,6|10,1:2|0:0,0:0:0:0:
62,192,16120,2,0,L|-31:184,2,84,10|2|2,0:0|0:0|0:0,0:0:0:0:
101,169,16948,1,10,0:0:0:0:
194,236,17362,1,10,0:0:0:0:
286,305,17776,2,0,P|297:333|286:358,2,56,10|2|10,0:0|0:0|0:0,0:0:0:0:
329,293,18396,1,2,0:0:0:0:
345,251,18603,6,0,B|394:280|394:280|448:267,1,112,10|10,0:0|0:0,0:0:0:0:
508,171,19431,2,0,P|535:144|505:120,1,84,10|2,0:0|0:0,0:0:0:0:
512,36,20052,2,0,P|474:72|414:63,1,112,2|2,0:0|0:0,0:0:0:0:
376,48,20672,1,10,0:0:0:0:
334,65,20879,2,0,B|289:65|289:65|269:56|269:56|219:56,2,112,2|2|2,0:0|0:0|0:0,0:0:0:0:
376,48,21914,6,0,P|384:104|437:127,1,112,2|10,1:2|0:0,0:0:0:0:
434,242,22741,2,0,P|466:220|518:228,2,84,10|2|2,0:0|0:0|0:0,0:0:0:0:
392,223,23569,1,10,0:0:0:0:
286,184,23983,2,0,B|304:146|304:146|280:106,2,84,10|2|2,0:0|0:0|0:0,0:0:0:0:
243,197,24810,1,10,0:0:0:0:
200,212,25017,1,2,0:0:0:0:
157,227,25224,6,0,P|134:275|166:323,1,112,10|10,0:0|0:0,0:0:0:0:
259,383,26052,2,0,L|349:365,2,84,10|2|2,0:0|0:0|0:0,0:0:0:0:
269,339,26879,1,8,0:0:0:0:
157,360,27293,1,10,3:2:0:0:
136,248,27707,2,0,L|124:181,1,56,10|2,0:0|0:0,0:0:0:0:
156,160,28120,2,0,L|146:100,1,56,10|6,3:2|3:0,0:0:0:0:
129,63,28534,6,0,P|180:90|231:76,1,112,6|10,1:2|0:0,0:0:0:0:
338,111,29362,2,0,P|350:70|332:31,2,84,2|2|2,3:2|0:0|1:2,0:0:0:0:
364,147,30189,1,2,1:2:0:0:
269,210,30603,1,10,0:0:0:0:
174,273,31017,2,0,B|137:253|137:253|91:263,2,84,2|2|2,3:2|0:0|1:2,0:0:0:0:
171,317,31845,6,0,P|222:293|283:306,1,112,2|10,1:2|0:0,0:0:0:0:
374,246,32672,2,0,L|469:246,2,84,2|2|2,3:2|0:0|1:2,0:0:0:0:
343,213,33500,1,2,1:2:0:0:
275,301,33914,1,2,1:2:0:0:
169,263,34327,2,0,B|127:271|127:271|90:249,2,84,2|2|2,1:2|0:0|0:0,0:0:0:0:
188,303,35155,6,0,B|243:281|292:321|292:321|340:361|401:338,1,224,2|2,1:2|1:2,0:0:0:0:
476,260,36396,2,0,B|488:235|488:235|473:211,1,56,10|2,0:0|1:2,0:0:0:0:
493,171,36810,2,0,P|437:183|386:146,1,112,2|8,1:2|0:0,0:0:0:0:
364,120,37431,1,2,0:0:0:0:
252,148,37845,2,0,L|252:87,2,56,2|10|2,0:0|0:0|1:2,0:0:0:0:
279,183,38465,5,2,1:2:0:0:
185,244,38879,1,10,0:0:0:0:
91,305,39293,2,0,L|134:360,2,56,2|2|10,1:2|0:0|0:0,0:0:0:0:
45,305,39914,2,0,P|21:260|46:206,1,112,2|2,1:2|1:2,0:0:0:0:
53,100,40741,1,2,1:2:0:0:
53,100,40948,2,0,P|98:129|165:108,1,112,10|6,0:0|3:0,0:0:0:0:
191,141,41569,1,10,3:0:0:0:
234,160,41776,6,0,B|277:151|277:151|312:164|312:164|358:153,1,125.999996154785,6|2,1:2|0:0,0:0:0:0:
448,235,42603,2,0,P|416:288|352:282,1,125.999996154785,10|2,0:0|0:0,0:0:0:0:
331,329,43224,1,2,1:2:0:0:
301,370,43431,2,0,P|252:339|185:354,1,125.999996154785,2|0,0:0|1:2,0:0:0:0:
172,303,44052,1,2,0:0:0:0:
52,268,44465,2,0,L|-14:277,2,62.9999980773926,2|2|2,1:2|0:0|0:0,0:0:0:0:
68,220,45086,6,0,P|126:223|160:169,1,125.999996154785,2|2,1:2|0:0,0:0:0:0:
265,244,45914,2,0,B|328:244|328:244|354:264|389:258,1,125.999996154785,10|2,0:0|0:0,0:0:0:0:
431,282,46534,1,2,1:2:0:0:
475,258,46741,2,0,P|501:200|470:151,1,125.999996154785,2|0,0:0|1:2,0:0:0:0:
499,109,47362,1,2,0:0:0:0:
383,56,47776,2,0,L|383:-9,2,62.9999980773926,2|2|2,1:2|0:0|0:0,0:0:0:0:
406,100,48396,6,0,L|345:132,1,62.9999980773926,10|4,0:0|0:3,0:0:0:0:
305,152,48810,1,2,0:0:0:0:
275,274,49224,2,0,P|234:227|170:215,1,125.999996154785,14|2,0:0|0:0,0:0:0:0:
140,176,49845,1,2,1:2:0:0:
110,134,50052,2,0,L|231:78,1,125.999996154785,2|0,0:0|1:2,0:0:0:0:
271,63,50672,1,2,0:0:0:0:
385,118,51086,2,0,P|416:126|445:117,2,62.9999980773926,2|2|2,1:2|0:0|1:2,0:0:0:0:
344,149,51707,6,0,B|291:149|291:149|274:160|274:160|216:160,1,125.999996154785,2|2,1:2|0:0,0:0:0:0:
183,281,52534,2,0,L|121:282,2,62.9999980773926,10|2|2,0:0|0:0|0:0,0:0:0:0:
205,326,53155,2,0,P|244:276|311:269,1,125.999996154785,2|2,1:2|1:2,0:0:0:0:
393,179,53983,1,2,0:0:0:0:
393,179,54189,2,0,B|419:122|419:122|388:66,1,125.999996154785,10|2,0:0|0:0,0:0:0:0:
339,81,54810,1,2,1:2:0:0:
290,95,55017,6,0,P|231:95|196:41,1,125.999996154785,6|2,1:2|0:0,0:0:0:0:
73,14,55845,2,0,L|93:152,1,125.999996154785,10|2,0:0|0:0,0:0:0:0:
81,188,56465,1,2,1:2:0:0:
69,237,56672,2,0,P|116:276|179:256,1,125.999996154785,2|0,0:0|1:2,0:0:0:0:
209,297,57293,1,2,0:0:0:0:
323,242,57707,2,0,L|388:242,2,62.9999980773926,2|2|2,1:2|0:0|1:2,0:0:0:0:
295,199,58327,6,0,L|295:345,1,125.999996154785,2|2,1:2|0:0,0:0:0:0:
177,375,59155,2,0,P|110:373|78:321,1,125.999996154785,10|2,0:0|0:0,0:0:0:0:
98,281,59776,1,2,1:2:0:0:
117,234,59983,2,0,B|171:234|171:234|187:244|187:244|244:244,1,125.999996154785,2|0,0:0|1:2,0:0:0:0:
279,275,60603,1,2,0:0:0:0:
356,176,61017,2,0,P|388:183|422:173,2,62.9999980773926,2|2|2,1:2|0:0|1:2,0:0:0:0:
309,195,61638,6,0,P|334:140|301:84,1,125.999996154785,6|2,1:2|0:0,0:0:0:0:
256,100,62258,1,2,0:0:0:0:
207,114,62465,1,10,0:0:0:0:
95,62,62879,2,0,L|81:130,1,62.9999980773926,2|2,0:0|1:2,0:0:0:0:
72,173,63293,2,0,L|4:159,2,62.9999980773926,2|2|0,0:0|0:0|1:2,0:0:0:0:
62,222,63914,1,2,0:0:0:0:
161,300,64327,2,0,L|230:294,2,62.9999980773926,2|2|2,1:2|0:0|1:2,0:0:0:0:
140,347,64948,6,0,P|90:305|33:309,1,125.999996154785,2|2,1:2|0:0,0:0:0:0:
39,178,65776,2,0,L|-28:178,2,62.9999980773926,10|2|2,0:0|0:0|0:0,0:0:0:0:
87,191,66396,2,0,B|123:200|149:180|149:180|211:180,1,125.999996154785,2|2,1:2|1:2,0:0:0:0:
315,257,67224,1,2,0:0:0:0:
315,257,67431,2,0,P|361:222|432:225,1,125.999996154785,10|2,0:0|0:0,0:0:0:0:
450,178,68052,1,2,1:2:0:0:
477,135,68258,5,4,1:2:0:0:
402,44,68672,2,0,L|371:94,1,56,10|2,0:0|0:0,0:0:0:0:
363,135,69086,2,0,P|316:106|261:113,1,112,2|10,1:2|0:0,0:0:0:0:
147,96,69914,2,0,L|156:151,1,56,2|2,1:2|0:0,0:0:0:0:
183,186,70327,2,0,B|139:186|139:186|117:197|117:197|70:197,2,112,10|2|10,0:0|1:2|0:0,0:0:0:0:
200,227,71362,1,0,1:2:0:0:
219,267,71569,5,0,1:2:0:0:
312,202,71983,2,0,P|319:173|309:146,1,56,10|2,0:0|0:0,0:0:0:0:
325,106,72396,2,0,P|271:124|213:102,1,112,2|10,1:2|0:0,0:0:0:0:
103,92,73224,2,0,L|114:147,1,56,2|2,1:2|0:0,0:0:0:0:
142,182,73638,2,0,L|32:208,1,112,10|2,0:2|1:2,0:0:0:0:
30,252,74258,2,0,L|-26:264,2,56,2|8|2,0:0|0:0|1:2,0:0:0:0:
29,297,74879,5,0,1:2:0:0:
106,381,75293,2,0,B|131:369|131:369|160:376,1,56,10|2,0:0|0:0,0:0:0:0:
191,345,75707,2,0,P|245:362|299:343,1,112,2|10,1:2|0:0,0:0:0:0:
373,260,76534,2,0,L|373:198,1,56,2|2,1:2|0:0,0:0:0:0:
356,162,76948,2,0,L|481:162,2,112,10|2|10,0:0|1:2|0:0,0:0:0:0:
314,143,77983,1,0,1:2:0:0:
273,125,78189,5,0,1:2:0:0:
238,232,78603,2,0,L|214:296,1,56,10|2,0:0|0:0,0:0:0:0:
221,329,79017,2,0,P|173:297|119:302,1,112,2|10,1:2|0:0,0:0:0:0:
62,205,79845,2,0,L|0:206,2,56,2|2|10,1:2|0:0|0:0,0:0:0:0:
74,161,80465,1,2,0:0:0:0:
111,135,80672,2,0,L|92:81,2,56,2|2|10,1:2|0:0|0:0,0:0:0:0:
155,139,81293,1,2,1:2:0:0:
190,166,81500,5,4,1:2:0:0:
299,139,81914,2,0,L|365:139,1,56,10|2,0:0|0:0,0:0:0:0:
395,157,82327,2,0,P|418:107|395:58,1,112,2|10,1:2|0:0,0:0:0:0:
295,3,83155,2,0,B|266:11|266:11|234:2,1,56,2|2,1:2|0:0,0:0:0:0:
207,33,83569,2,0,B|181:43|152:27|152:27|124:11|97:19,2,112,10|2|10,0:0|1:2|0:0,0:0:0:0:
214,77,84603,1,0,1:2:0:0:
221,121,84810,5,0,1:2:0:0:
326,166,85224,2,0,P|333:193|325:221,1,56,10|2,0:0|0:0,0:0:0:0:
343,260,85638,2,0,P|294:234|239:246,1,112,2|10,1:2|0:0,0:0:0:0:
149,315,86465,2,0,L|119:253,1,56,2|2,1:2|0:0,0:0:0:0:
131,220,86879,2,0,P|77:229|35:193,1,112,10|2,0:0|1:2,0:0:0:0:
43,150,87500,2,0,L|-14:150,2,56,2|8|2,0:0|0:0|1:2,0:0:0:0:
53,106,88120,5,0,1:2:0:0:
157,60,88534,2,0,L|168:122,1,56,10|2,0:0|0:0,0:0:0:0:
159,159,88948,2,0,B|201:151|201:151|225:159|225:159|269:150,1,112,2|10,1:2|0:0,0:0:0:0:
378,122,89776,2,0,P|384:153|373:186,1,56,2|2,1:2|0:0,0:0:0:0:
355,215,90189,2,0,L|472:215,2,112,10|2|10,0:0|1:2|0:0,0:0:0:0:
342,258,91224,1,0,1:2:0:0:
329,301,91431,5,0,1:2:0:0:
215,280,91845,2,0,B|187:289|187:289|162:281,1,56,10|2,0:0|0:0,0:0:0:0:
122,302,92258,2,0,P|79:264|27:271,1,112,2|10,1:2|0:0,0:0:0:0:
61,160,93086,2,0,L|30:104,2,56,2|2|10,1:2|0:0|0:0,0:0:0:0:
103,144,93707,1,2,0:0:0:0:
147,145,93914,2,0,L|165:92,2,56,2|2|10,0:0|1:2|0:0,0:0:0:0:
181,173,94534,1,2,0:2:0:0:
196,215,94741,5,4,1:2:0:0:
256,192,94845,12,2,98052,0:0:0:0:
174,186,101362,6,0,P|122:193|87:161,2,97.9999970092774,2|2|2,0:0|0:0|0:0,0:0:0:0:
246,233,102500,2,0,L|328:232,1,73.4999977569581,2|0,0:0|0:0,0:0:0:0:
353,257,103017,2,0,P|380:224|437:225,1,97.9999970092774,2|2,0:0|0:0,0:0:0:0:
500,169,103741,2,0,B|514:134|514:134|497:96,1,73.4999977569581,2|2,0:0|0:0,0:0:0:0:
460,98,104258,1,2,0:0:0:0:
421,92,104465,1,2,0:0:0:0:
382,87,104672,6,0,P|362:41|383:-6,2,97.9999970092774,2|2|2,0:0|0:0|0:0,0:0:0:0:
313,134,105810,2,0,L|236:134,1,73.4999977569581,2|0,0:0|0:0,0:0:0:0:
210,164,106327,2,0,P|178:124|130:118,1,97.9999970092774,2|2,0:0|0:0,0:0:0:0:
78,56,107052,2,0,L|30:0,1,73.4999977569581,2|2,0:0|0:0,0:0:0:0:
1,32,107569,1,2,0:0:0:0:
0,146,107983,6,0,L|77:231,1,112,2|10,1:2|0:0,0:0:0:0:
60,340,108810,2,0,P|20:351|-24:337,2,84,2|2|2,0:0|0:0|1:2,0:0:0:0:
98,363,109638,1,2,0:0:0:0:
175,280,110052,1,10,0:0:0:0:
252,197,110465,2,0,L|206:148,2,56,2|2|10,0:0|1:2|0:0,0:0:0:0:
283,229,111086,1,2,0:0:0:0:
281,273,111293,6,0,P|327:245|386:255,1,112,2|10,1:2|0:0,0:0:0:0:
488,213,112120,2,0,B|504:251|504:251|484:305,1,84,2|2,0:0|0:0,0:0:0:0:
511,374,112741,2,0,B|466:373|466:373|445:382|445:382|397:382,1,112,2|2,1:2|1:2,0:0:0:0:
359,365,113362,1,10,0:0:0:0:
317,381,113569,2,0,P|261:369|243:323,2,112,2|2|6,0:0|1:2|0:3,0:0:0:0:
359,365,114603,6,0,B|410:365|410:365|441:382|476:371,1,112,2|10,1:2|0:0,0:0:0:0:
453,261,115431,2,0,L|542:260,2,84,2|2|2,0:0|0:0|1:2,0:0:0:0:
446,216,116258,1,2,0:0:0:0:
341,177,116672,2,0,P|355:136|339:101,2,84,10|2|2,0:0|0:0|0:0,0:0:0:0:
295,176,117500,1,10,0:0:0:0:
250,174,117707,1,2,0:0:0:0:
205,171,117914,6,0,L|230:291,1,112,2|10,1:2|0:0,0:0:0:0:
124,336,118741,2,0,L|106:253,1,84,2|2,0:0|0:0,0:0:0:0:
52,188,119362,2,0,P|25:140|57:89,1,112,2|2,1:2|1:2,0:0:0:0:
93,103,119983,1,10,0:0:0:0:
136,110,120189,2,0,B|179:110|179:110|203:99|203:99|245:98,2,112,2|2|6,1:2|0:2|0:3,0:0:0:0:
93,103,121224,6,0,L|105:228,1,112,2|10,1:2|0:0,0:0:0:0:
138,327,122052,2,0,P|99:310|54:317,2,84,2|2|2,0:0|0:0|1:2,0:0:0:0:
168,294,122879,1,2,1:2:0:0:
275,331,123293,1,10,0:0:0:0:
312,224,123707,2,0,L|372:239,2,56,2|2|10,0:0|0:0|0:0,0:0:0:0:
297,181,124327,1,2,1:2:0:0:
284,137,124534,6,0,P|235:157|178:135,1,112,2|10,1:2|0:0,0:0:0:0:
73,100,125362,2,0,P|62:141|80:181,2,84,2|2|2,0:0|0:0|1:2,0:0:0:0:
56,58,126189,1,2,1:2:0:0:
165,83,126603,1,2,1:2:0:0:
274,108,127017,2,0,L|331:100,1,56,2|0,1:2|0:0,0:0:0:0:
370,81,127431,2,0,L|383:157,1,56,10|2,0:0|0:0,0:0:0:0:
375,181,127845,6,0,P|451:251|379:313,1,224,2|2,1:2|1:2,0:0:0:0:
288,382,129086,2,0,B|263:371|263:371|234:378,1,56,10|2,0:0|1:2,0:0:0:0:
199,350,129500,2,0,B|170:343|145:357|145:357|122:371|90:364,1,112,2|8,1:2|0:0,0:0:0:0:
50,382,130120,1,2,0:0:0:0:
32,269,130534,2,0,L|-28:269,2,56,2|10|2,0:0|0:0|1:2,0:0:0:0:
62,236,131155,5,2,1:2:0:0:
156,297,131569,1,10,0:0:0:0:
250,236,131983,2,0,L|250:177,2,56,2|2|10,1:2|0:0|0:0,0:0:0:0:
240,279,132603,2,0,P|288:251|343:260,1,112,2|2,1:2|1:2,0:0:0:0:
432,192,133431,1,2,3:0:0:0:
432,192,133638,2,0,B|456:140|456:140|423:91,1,112,2|10,3:2|0:0,0:0:0:0:
381,105,134258,1,6,2:3:0:0:
337,116,134465,6,0,B|265:117|265:117|177:117|206:70|128:70|128:70|56:70,1,293.999991027832,4|0,1:2|0:0,0:0:0:0:
22,95,135914,2,0,P|23:163|102:159,1,146.999995513916,0|0,1:2|1:2,0:0:0:0:
89,170,137569,1,0,1:2:0:0:
75,209,137776,6,0,L|-22:209,2,97.9999970092774,2|2|2,1:2|0:0|0:0,0:0:0:0:
179,177,139017,2,0,L|186:246,1,48.9999985046387,2|2,0:0|1:2,0:0:0:0:
167,264,139431,2,0,P|215:256|257:280,1,97.9999970092774,2|0,0:0|1:2,0:0:0:0:
297,269,140052,1,2,0:0:0:0:
338,261,140258,1,8,0:0:0:0:
382,360,140672,2,0,L|442:360,1,48.9999985046387,2|2,3:0|3:0,0:0:0:0:
470,376,141086,2,0,P|517:357|521:304,1,97.9999970092774,2|6,3:0|3:0,0:0:0:0:
467,208,141914,6,0,B|419:198|419:198|394:211|394:211|346:202,1,125.999996154785,14|2,0:2|0:0,0:0:0:0:
311,238,142534,1,2,1:2:0:0:
275,273,142741,2,0,P|232:232|169:240,1,125.999996154785,2|0,0:0|1:2,0:0:0:0:
147,194,143362,1,2,0:0:0:0:
204,85,143776,2,0,L|133:68,2,62.9999980773926,2|2|2,1:2|0:0|0:0,0:0:0:0:
247,58,144396,5,2,1:2:0:0:
264,184,144810,1,2,0:0:0:0:
281,310,145224,2,0,L|212:293,2,62.9999980773926,10|2|2,0:0|0:0|0:0,0:0:0:0:
290,359,145845,2,0,P|345:326|404:333,1,125.999996154785,2|2,1:2|1:2,0:0:0:0:
491,237,146672,1,2,0:0:0:0:
491,237,146879,2,0,L|366:194,1,125.999996154785,10|2,0:0|0:0,0:0:0:0:
328,221,147500,1,2,1:2:0:0:
284,246,147707,6,0,B|228:246|228:246|201:264|159:256,1,125.999996154785,6|2,1:2|0:0,0:0:0:0:
62,332,148534,2,0,P|36:277|-22:264,1,125.999996154785,10|2,0:0|0:0,0:0:0:0:
5,222,149155,1,2,1:2:0:0:
35,181,149362,2,0,L|35:54,1,125.999996154785,2|0,0:0|1:2,0:0:0:0:
36,4,149983,1,2,0:0:0:0:
156,47,150396,2,0,P|146:15|156:-15,2,62.9999980773926,2|2|2,1:2|0:0|1:2,0:0:0:0:
139,94,151017,6,0,B|193:94|193:94|209:104|209:104|266:104,1,125.999996154785,2|2,1:2|0:0,0:0:0:0:
373,44,151845,2,0,P|431:45|468:97,1,125.999996154785,10|2,0:0|0:0,0:0:0:0:
435,135,152465,1,2,1:2:0:0:
399,171,152672,2,0,B|432:225|432:225|399:285,1,125.999996154785,2|0,0:0|1:2,0:0:0:0:
435,318,153293,1,2,0:0:0:0:
314,353,153707,2,0,P|285:340|254:340,2,62.9999980773926,2|2|2,1:2|0:0|1:2,0:0:0:0:
319,302,154327,6,0,L|385:297,1,62.9999980773926,10|4,0:2|3:0,0:0:0:0:
414,337,154741,2,0,L|480:332,1,62.9999980773926,2|2,0:0|0:0,0:0:0:0:
512,368,155155,1,14,0:0:0:0:
499,237,155569,2,0,B|509:208|509:208|496:177,1,62.9999980773926,2|2,0:0|1:2,0:0:0:0:
465,139,155983,2,0,P|406:144|369:93,1,125.999996154785,2|0,0:0|1:2,0:0:0:0:
391,49,156603,1,2,0:0:0:0:
266,70,157017,2,0,L|266:5,2,62.9999980773926,2|2|2,1:2|0:0|1:2,0:0:0:0:
280,118,157638,6,0,B|201:118|201:118|166:150,1,125.999996154785,2|2,1:2|0:0,0:0:0:0:
45,111,158465,2,0,L|97:63,2,62.9999980773926,10|2|2,0:0|0:0|0:0,0:0:0:0:
0,134,159086,2,0,P|62:160|65:227,1,125.999996154785,2|2,1:2|1:2,0:0:0:0:
178,287,159914,1,2,0:0:0:0:
178,287,160120,2,0,B|226:279|226:279|254:289|254:289|306:279,1,125.999996154785,10|2,0:0|0:0,0:0:0:0:
347,299,160741,1,0,1:2:0:0:
393,319,160948,6,0,P|417:266|489:256,1,125.999996154785,6|2,1:2|0:0,0:0:0:0:
505,126,161776,2,0,L|380:138,1,125.999996154785,10|2,0:0|0:0,0:0:0:0:
288,223,162603,2,0,L|297:296,2,62.9999980773926,2|2|2,0:0|0:0|1:2,0:0:0:0:
237,228,163224,1,2,0:0:0:0:
186,233,163431,1,10,0:0:0:0:
97,144,163845,1,2,0:0:0:0:
165,35,164258,6,0,P|212:73|277:61,1,125.999996154785,2|2,1:2|0:0,0:0:0:0:
389,9,165086,2,0,B|421:32|421:32|466:32|466:32|500:57,1,125.999996154785,10|2,0:0|0:0,0:0:0:0:
477,180,165914,2,0,P|510:188|538:181,2,62.9999980773926,2|2|2,0:0|0:0|1:2,0:0:0:0:
430,199,166534,1,2,0:0:0:0:
383,180,166741,2,0,L|317:180,1,62.9999980773926,10|8,0:0|3:0,0:0:0:0:
273,199,167155,2,0,L|207:199,1,62.9999980773926,6|6,3:0|3:0,0:0:0:0:
162,180,167569,6,0,B|133:235|133:235|166:291,1,125.999996154785,6|2,1:2|0:0,0:0:0:0:
259,376,168396,2,0,P|304:339|376:343,1,125.999996154785,10|2,0:0|0:0,0:0:0:0:
446,235,169224,2,0,L|506:257,2,62.9999980773926,2|2|2,0:0|0:0|1:2,0:0:0:0:
457,185,169845,1,2,0:0:0:0:
468,135,170052,2,0,P|413:162|352:150,1,125.999996154785,10|2,0:0|1:2,0:0:0:0:
235,202,170879,6,0,B|177:202|177:202|148:220|110:213,1,125.999996154785,2|2,1:2|0:0,0:0:0:0:
14,135,171707,2,0,P|1:88|58:49,1,125.999996154785,10|2,0:0|0:0,0:0:0:0:
80,3,172327,2,0,P|120:46|185:35,1,125.999996154785,2|2,1:2|1:2,0:0:0:0:
217,73,172948,1,2,0:0:0:0:
267,69,173155,1,0,0:0:0:0:
317,65,173362,2,0,L|309:-2,2,62.9999980773926,10|2|2,0:0|1:2|0:0,0:0:0:0:
414,125,174189,6,0,L|429:247,1,112,6|2,1:2|0:0,0:0:0:0:
316,248,175017,1,10,0:0:0:0:
329,359,175431,1,2,0:0:0:0:
217,346,175845,2,0,P|164:359|111:328,2,112,2|2|10,0:0|1:2|0:0,0:0:0:0:
329,359,177086,1,2,0:0:0:0:
373,359,177293,1,2,0:0:0:0:
417,359,177500,6,0,L|463:236,1,112,2|2,1:2|0:0,0:0:0:0:
441,143,178327,1,10,0:0:0:0:
333,108,178741,1,2,0:0:0:0:
227,147,179155,2,0,P|168:150|127:119,2,112,2|2|10,0:0|1:2|0:0,0:0:0:0:
337,125,180396,5,2,0:0:0:0:
347,168,180603,1,2,1:2:0:0:
359,211,180810,1,4,0:0:0:0:
