osu file format v14

[General]
AudioFilename: audio.mp3
AudioLeadIn: 0
PreviewTime: 40677
Countdown: 0
SampleSet: Soft
StackLeniency: 0.4
Mode: 0
LetterboxInBreaks: 0
WidescreenStoryboard: 1

[Editor]
Bookmarks: 11557
DistanceSpacing: 0.4
BeatDivisor: 4
GridSize: 32
TimelineZoom: 1.6

[Metadata]
Title:Puppy Raceway
TitleUnicode:Puppy Raceway
Artist:Hyper Potions & SAMME
ArtistUnicode:Hyper Potions & SAMME
Creator:Niva
Version:Hard
Source:osu!
Tags:ハイパー ポーションズ haipaaa future bass kevin villecco ian tsuchiura sushi killer imsamme neon fm msdt featured artist fa chequered mappers' guild mini pack mini-pack instrumental electronic
BeatmapID:2487680
BeatmapSetID:1191714

[Difficulty]
HPDrainRate:5
CircleSize:4
OverallDifficulty:6
ApproachRate:8
SliderMultiplier:1.4
SliderTickRate:1

[Events]
//Background and Video events
0,0,"iukskaunrpa.jpg",0,0
//Break Periods
2,98251,100612
//Storyboard Layer 0 (Background)
//Storyboard Layer 1 (Fail)
//Storyboard Layer 2 (Pass)
//Storyboard Layer 3 (Foreground)
//Storyboard Layer 4 (Overlay)
//Storyboard Sound Samples

[TimingPoints]
2052,413.793103448276,4,2,32,60,1,0
2052,-86.9565217391304,4,2,32,60,0,0
6810,-86.9565217391304,4,2,32,60,0,0
7948,-86.9565217391304,4,2,32,5,0,0
8052,-86.9565217391304,4,2,32,60,0,0
8672,-86.9565217391304,4,2,32,60,0,0
10948,-86.9565217391304,4,2,32,5,0,0
11052,-86.9565217391304,4,2,32,60,0,0
13431,-86.9565217391304,4,2,32,60,0,0
14569,-86.9565217391304,4,2,32,5,0,0
14672,-86.9565217391304,4,2,32,60,0,0
15293,-86.9565217391304,4,2,32,60,0,0
20052,-86.9565217391304,4,2,32,60,0,0
21189,-86.9565217391304,4,2,32,5,0,0
21293,-86.9565217391304,4,2,32,60,0,0
21914,-86.9565217391304,4,2,32,60,0,0
24189,-86.9565217391304,4,2,32,5,0,0
24293,-86.9565217391304,4,2,32,60,0,0
26983,-86.9565217391304,4,2,77,60,0,0
27293,-86.9565217391304,4,2,32,60,0,0
27396,-86.9565217391304,4,2,77,60,0,0
27707,-76.9230769230769,4,2,97,60,0,0
28120,-76.9230769230769,4,2,98,60,0,0
28534,-83.3333333333333,4,2,64,70,0,0
28845,-83.3333333333333,4,2,64,5,0,0
28948,-83.3333333333333,4,2,64,70,0,0
29258,-83.3333333333333,4,2,0,70,0,0
29672,-83.3333333333333,4,2,64,70,0,0
30500,-83.3333333333333,4,2,64,5,0,0
30603,-83.3333333333333,4,2,64,70,0,0
30914,-83.3333333333333,4,2,0,70,0,0
31327,-83.3333333333333,4,2,64,70,0,0
32155,-83.3333333333333,4,2,64,5,0,0
32258,-83.3333333333333,4,2,64,70,0,0
32569,-83.3333333333333,4,2,0,70,0,0
32983,-83.3333333333333,4,2,64,70,0,0
33810,-83.3333333333333,4,2,64,5,0,0
33914,-83.3333333333333,4,2,64,70,0,0
34224,-83.3333333333333,4,2,64,5,0,0
34327,-83.3333333333333,4,2,64,70,0,0
38776,-83.3333333333333,4,2,64,5,0,0
38879,-83.3333333333333,4,2,64,70,0,0
40948,-83.3333333333333,4,2,64,70,0,0
41362,-111.111111111111,4,2,64,55,0,0
41776,-75.7575757575758,4,2,77,90,0,1
42086,-75.7575757575758,4,2,77,5,0,1
42189,-75.7575757575758,4,2,77,90,0,1
43017,-75.7575757575758,4,2,77,90,0,1
43431,-75.7575757575758,4,2,77,90,0,1
45396,-75.7575757575758,4,2,77,5,0,1
45500,-75.7575757575758,4,2,77,90,0,1
46327,-75.7575757575758,4,2,77,90,0,1
46741,-75.7575757575758,4,2,77,90,0,1
49638,-75.7575757575758,4,2,77,90,0,1
50052,-75.7575757575758,4,2,77,90,0,1
52017,-75.7575757575758,4,2,77,5,0,1
52120,-75.7575757575758,4,2,77,90,0,1
53465,-75.7575757575758,4,2,77,5,0,1
53569,-75.7575757575758,4,2,77,90,0,1
55327,-75.7575757575758,4,2,77,5,0,1
55431,-75.7575757575758,4,2,77,90,0,1
56258,-75.7575757575758,4,2,77,90,0,1
56672,-75.7575757575758,4,2,77,90,0,1
58638,-75.7575757575758,4,2,77,5,0,1
58741,-75.7575757575758,4,2,77,90,0,1
59569,-75.7575757575758,4,2,77,90,0,1
59983,-75.7575757575758,4,2,77,90,0,1
61948,-75.7575757575758,4,2,77,5,0,1
62052,-75.7575757575758,4,2,77,90,0,1
62879,-75.7575757575758,4,2,77,90,0,1
63293,-75.7575757575758,4,2,77,90,0,1
65258,-75.7575757575758,4,2,77,5,0,1
65362,-75.7575757575758,4,2,77,90,0,1
66707,-75.7575757575758,4,2,77,5,0,1
66810,-75.7575757575758,4,2,77,90,0,1
67845,-75.7575757575758,4,2,77,95,0,1
68258,-83.3333333333333,4,2,77,90,0,0
68672,-83.3333333333333,4,2,77,75,0,0
70638,-83.3333333333333,4,2,77,5,0,0
70741,-83.3333333333333,4,2,77,75,0,0
73948,-83.3333333333333,4,2,77,5,0,0
74052,-83.3333333333333,4,2,77,75,0,0
77258,-83.3333333333333,4,2,77,5,0,0
77362,-83.3333333333333,4,2,77,75,0,0
81500,-83.3333333333333,4,2,77,75,0,0
81810,-83.3333333333333,4,2,77,5,0,0
81914,-83.3333333333333,4,2,77,75,0,0
83879,-83.3333333333333,4,2,77,5,0,0
83983,-83.3333333333333,4,2,77,75,0,0
85120,-83.3333333333333,4,2,77,5,0,0
85224,-83.3333333333333,4,2,77,75,0,0
87189,-83.3333333333333,4,2,77,5,0,0
87293,-83.3333333333333,4,2,77,75,0,0
88431,-83.3333333333333,4,2,77,5,0,0
88534,-83.3333333333333,4,2,77,75,0,0
90500,-83.3333333333333,4,2,77,5,0,0
90603,-83.3333333333333,4,2,77,75,0,0
91741,-83.3333333333333,4,2,77,5,0,0
91845,-83.3333333333333,4,2,77,75,0,0
94741,-166.666666666667,4,2,77,75,0,0
94845,-166.666666666667,4,2,77,40,0,0
98052,-166.666666666667,4,2,77,40,0,0
101362,-100,4,2,77,40,0,0
107569,-76.9230769230769,4,2,77,80,0,0
107879,-76.9230769230769,4,2,77,5,0,0
107983,-86.9565217391304,4,2,32,60,0,0
112741,-86.9565217391304,4,2,32,60,0,0
114189,-86.9565217391304,4,2,77,60,0,0
114396,-86.9565217391304,4,2,64,60,0,0
114603,-86.9565217391304,4,2,32,60,0,0
116879,-86.9565217391304,4,2,32,5,0,0
116983,-86.9565217391304,4,2,32,60,0,0
119362,-86.9565217391304,4,2,32,60,0,0
120810,-86.9565217391304,4,2,77,60,0,0
121017,-86.9565217391304,4,2,64,60,0,0
121224,-83.3333333333333,4,2,64,70,0,0
126500,-83.3333333333333,4,2,64,5,0,0
126603,-83.3333333333333,4,2,64,70,0,0
126914,-83.3333333333333,4,2,64,5,0,0
127017,-83.3333333333333,4,2,64,70,0,0
127327,-83.3333333333333,4,2,64,5,0,0
127431,-83.3333333333333,4,2,64,70,0,0
131465,-83.3333333333333,4,2,64,5,0,0
131569,-83.3333333333333,4,2,64,70,0,0
133327,-83.3333333333333,4,2,0,70,0,0
133431,-83.3333333333333,4,2,99,70,0,0
133534,-83.3333333333333,4,2,0,70,0,0
133638,-83.3333333333333,4,2,77,70,0,0
134052,-83.3333333333333,4,2,77,70,0,0
134258,-83.3333333333333,4,2,64,70,0,0
134465,-166.666666666667,4,2,77,70,0,0
134569,-166.666666666667,4,2,77,40,0,0
135707,-166.666666666667,4,2,77,5,0,0
135914,-166.666666666667,4,2,77,40,0,0
137776,-100,4,2,77,40,0,0
138189,-100,4,2,77,45,0,0
138603,-100,4,2,77,50,0,0
139017,-100,4,2,77,55,0,0
139431,-100,4,2,77,60,0,0
139845,-100,4,2,77,65,0,0
140258,-100,4,2,64,80,0,0
140569,-100,4,2,64,5,0,0
140672,-100,4,2,64,40,0,0
141086,-100,4,2,99,50,0,0
141189,-100,4,2,77,50,0,0
141500,-100,4,2,64,60,0,0
141914,-75.7575757575758,4,2,77,90,0,1
142327,-75.7575757575758,4,2,77,90,0,1
142741,-75.7575757575758,4,2,77,90,0,1
144707,-75.7575757575758,4,2,77,5,0,1
144810,-75.7575757575758,4,2,77,90,0,1
146155,-75.7575757575758,4,2,77,5,0,1
146258,-75.7575757575758,4,2,77,90,0,1
148017,-75.7575757575758,4,2,77,5,0,1
148120,-75.7575757575758,4,2,77,90,0,1
148948,-75.7575757575758,4,2,77,90,0,1
149362,-75.7575757575758,4,2,77,90,0,1
151327,-75.7575757575758,4,2,77,5,0,1
151431,-75.7575757575758,4,2,77,90,0,1
152258,-75.7575757575758,4,2,77,90,0,1
152672,-75.7575757575758,4,2,77,90,0,1
155569,-75.7575757575758,4,2,77,90,0,1
155983,-75.7575757575758,4,2,77,90,0,1
157948,-75.7575757575758,4,2,77,5,0,1
158052,-75.7575757575758,4,2,77,90,0,1
159396,-75.7575757575758,4,2,77,5,0,1
159500,-75.7575757575758,4,2,77,90,0,1
160845,-75.7575757575758,4,2,77,90,0,0
160948,-75.7575757575758,4,2,77,90,0,1
161258,-75.7575757575758,4,2,77,5,0,1
161362,-75.7575757575758,4,2,77,90,0,1
161776,-75.7575757575758,4,2,77,90,0,1
162086,-75.7575757575758,4,2,77,5,0,1
162189,-75.7575757575758,4,2,77,90,0,1
162603,-75.7575757575758,4,2,77,90,0,1
163741,-75.7575757575758,4,2,77,5,0,1
163845,-75.7575757575758,4,2,77,90,0,1
164569,-75.7575757575758,4,2,77,5,0,1
164672,-75.7575757575758,4,2,77,90,0,1
165086,-75.7575757575758,4,2,77,90,0,1
165396,-75.7575757575758,4,2,77,5,0,1
165500,-75.7575757575758,4,2,77,90,0,1
165914,-75.7575757575758,4,2,77,90,0,1
167155,-75.7575757575758,4,2,99,90,0,1
167569,-75.7575757575758,4,2,77,90,0,1
167879,-75.7575757575758,4,2,77,5,0,1
167983,-75.7575757575758,4,2,77,90,0,1
168396,-75.7575757575758,4,2,77,90,0,1
168707,-75.7575757575758,4,2,77,5,0,1
168810,-75.7575757575758,4,2,77,90,0,1
169224,-75.7575757575758,4,2,77,90,0,1
170362,-75.7575757575758,4,2,77,5,0,1
170465,-75.7575757575758,4,2,77,90,0,1
171189,-75.7575757575758,4,2,77,5,0,1
171293,-75.7575757575758,4,2,77,90,0,1
171707,-75.7575757575758,4,2,77,90,0,1
172017,-75.7575757575758,4,2,77,5,0,1
172120,-75.7575757575758,4,2,77,90,0,1
174189,-83.3333333333333,4,2,77,80,0,0
174293,-83.3333333333333,4,2,77,75,0,0
174500,-83.3333333333333,4,2,77,5,0,0
174603,-83.3333333333333,4,2,77,75,0,0
175017,-83.3333333333333,4,2,77,75,0,0
175431,-83.3333333333333,4,2,77,75,0,0
175845,-83.3333333333333,4,2,77,75,0,0
176258,-83.3333333333333,4,2,77,75,0,0
176672,-83.3333333333333,4,2,77,75,0,0
177086,-83.3333333333333,4,2,77,75,0,0
177500,-83.3333333333333,4,2,77,75,0,0
177810,-83.3333333333333,4,2,77,5,0,0
177914,-83.3333333333333,4,2,77,75,0,0
178327,-83.3333333333333,4,2,77,75,0,0
178741,-83.3333333333333,4,2,77,75,0,0
179155,-83.3333333333333,4,2,77,75,0,0
179569,-83.3333333333333,4,2,77,75,0,0
179983,-83.3333333333333,4,2,77,75,0,0
180396,-83.3333333333333,4,2,77,85,0,0
180810,-83.3333333333333,4,2,77,50,0,0

[Colours]
Combo1 : 255,253,174
Combo2 : 151,255,255
Combo3 : 43,253,190

[HitObjects]
133,49,2052,6,0,P|109:29|143:28,1,80.5000015354157,6|0,1:2|0:2,0:0:0:0:
156,131,2465,2,0,P|180:151|146:152,1,80.5000015354157,10|0,0:2|0:2,0:0:0:0:
129,249,2879,2,0,P|178:214|247:234,1,120.750002303124,10|2,0:0|0:0,0:0:0:0:
235,225,3500,1,2,0:0:0:0:
341,179,3707,6,0,L|419:144,1,80.5000015354157,10|0,0:0|0:0,0:0:0:0:
403,67,4120,2,0,L|431:254,1,161.000003070831,10|10,0:0|0:0,0:0:0:0:
477,315,4741,1,2,0:0:0:0:
395,377,4948,2,0,P|362:358|319:362,1,80.5000015354157,10|2,0:0|0:0,0:0:0:0:
259,258,5362,6,0,B|239:271|238:290|238:290|239:271|226:253,1,80.5000015354157,10|0,0:0|0:0,0:0:0:0:
166,345,5776,2,0,B|153:327|154:308|154:308|153:327|134:341,1,80.5000015354157,10|0,0:0|0:0,0:0:0:0:
47,289,6189,2,0,P|10:240|44:201,1,120.750002303124,10|2,0:0|0:0,0:0:0:0:
196,57,6810,6,0,B|130:48|130:48|108:58|108:58|39:49,1,161.000003070831,2|2,0:0|0:0,0:0:0:0:
0,142,7431,1,10,0:0:0:0:
64,223,7638,2,0,P|110:193|175:200,1,120.750002303124,2|0,0:0|0:0,0:0:0:0:
193,168,8052,2,0,L|205:251,2,80.5000015354157,2|10|2,0:0|0:0|0:0,0:0:0:0:
281,51,8672,6,0,P|275:78|308:63,1,80.5000015354157,10|0,0:0|0:0,0:0:0:0:
406,62,9086,2,0,P|400:89|433:74,1,80.5000015354157,10|0,0:0|0:0,0:0:0:0:
504,145,9500,2,0,P|445:143|406:185,1,120.750002303124,10|2,0:0|0:0,0:0:0:0:
405,185,10120,1,2,0:0:0:0:
493,315,10327,6,0,B|508:276|508:276|489:236,1,80.5000015354157,10|0,0:0|0:0,0:0:0:0:
397,300,10741,2,0,L|314:300,1,80.5000015354157,10|0,0:0|0:0,0:0:0:0:
317,341,11052,2,0,P|270:306|199:300,1,120.750002303124,2|2,0:0|0:0,0:0:0:0:
149,217,11569,1,10,0:0:0:0:
248,176,11776,1,2,0:0:0:0:
351,134,11983,6,0,L|342:52,1,80.5000015354157,10|0,0:0|0:0,0:0:0:0:
252,8,12396,2,0,P|223:24|256:32,1,80.5000015354157,10|0,0:0|0:0,0:0:0:0:
139,53,12810,2,0,B|83:53|83:53|59:71|21:65,1,120.750002303124,10|2,0:0|0:0,0:0:0:0:
2,250,13431,6,0,B|63:239|63:239|93:251|93:251|164:238,1,161.000003070831,2|2,0:0|0:0,0:0:0:0:
252,288,14052,1,10,0:0:0:0:
344,340,14258,2,0,P|401:335|412:271,1,120.750002303124,2|0,0:0|0:0,0:0:0:0:
449,259,14672,2,0,B|435:220|435:220|448:184,2,80.5000015354157,2|10|2,0:0|0:0|0:0,0:0:0:0:
308,244,15293,6,0,P|269:250|234:233,1,80.5000015354157,6|0,1:2|0:0,0:0:0:0:
320,163,15707,2,0,P|284:145|245:151,1,80.5000015354157,10|0,0:2|0:0,0:0:0:0:
146,178,16120,2,0,L|17:163,1,120.750002303124,10|2,0:0|0:0,0:0:0:0:
26,164,16741,1,2,0:0:0:0:
16,297,16948,6,0,P|50:277|99:284,1,80.5000015354157,10|0,0:0|0:0,0:0:0:0:
161,215,17362,2,0,P|144:179|110:160,1,80.5000015354157,10|0,0:0|0:0,0:0:0:0:
278,167,17776,2,0,P|278:206|247:245,2,80.5000015354157,10|2|10,0:0|0:0|0:0,0:0:0:0:
161,215,18396,1,2,0:0:0:0:
112,334,18603,6,0,P|83:324|114:313,1,80.5000015354157,10|0,0:0|0:0,0:0:0:0:
201,360,19017,2,0,P|230:370|199:381,1,80.5000015354157,10|0,0:0|0:0,0:0:0:0:
315,334,19431,2,0,B|367:334|367:334|383:342|383:342|437:342,1,120.750002303124,10|2,0:0|0:0,0:0:0:0:
512,192,20052,6,0,B|530:123|530:123|540:83|513:68|489:85|485:104|506:113,1,161.000003070831,2|2,0:0|0:0,0:0:0:0:
403,146,20672,1,10,0:0:0:0:
354,55,20879,2,0,P|307:86|246:78,1,120.750002303124,2|0,0:0|0:0,0:0:0:0:
216,104,21293,2,0,L|223:15,2,80.5000015354157,2|10|2,0:0|0:0|0:0,0:0:0:0:
100,176,21914,6,0,L|185:226,1,80.5000015354157,2|0,1:2|0:0,0:0:0:0:
123,285,22327,2,0,L|44:238,1,80.5000015354157,10|0,0:0|0:0,0:0:0:0:
91,371,22741,2,0,P|138:335|199:340,1,120.750002303124,10|2,0:0|0:0,0:0:0:0:
196,339,23362,1,2,0:0:0:0:
300,268,23569,6,0,B|318:251|335:251|335:251|318:251|299:235,1,80.5000015354157,10|0,0:0|0:0,0:0:0:0:
215,173,23983,2,0,P|197:135|215:101,1,80.5000015354157,10|0,0:0|0:0,0:0:0:0:
194,67,24293,2,0,L|319:92,1,120.750002303124,2|2,0:0|0:0,0:0:0:0:
416,111,24810,1,10,0:0:0:0:
348,193,25017,1,2,0:0:0:0:
473,214,25224,6,0,P|502:230|473:237,1,80.5000015354157,10|0,0:0|0:0,0:0:0:0:
488,349,25638,2,0,P|455:328|414:329,1,80.5000015354157,10|0,0:0|0:0,0:0:0:0:
321,280,26052,2,0,B|285:280|285:280|263:288|263:288|241:280|241:280|203:280,1,120.750002303124,10|2,0:0|0:0,0:0:0:0:
106,142,26672,1,2,0:0:0:0:
175,62,26879,5,8,0:0:0:0:
182,76,26983,1,0,3:2:0:0:
189,90,27086,1,2,3:2:0:0:
196,104,27189,1,0,3:2:0:0:
203,118,27293,2,0,L|232:75,3,40.2500007677078,10|0|2|0,3:2|3:2|3:2|3:2,0:0:0:0:
169,185,27707,6,0,P|211:166|253:174,1,90.9999958343508,10|2,0:0|0:0,0:0:0:0:
349,108,28120,2,0,B|371:120|392:120|392:120|371:120|348:136,1,90.9999958343508,10|6,3:2|3:0,0:0:0:0:
279,15,28534,6,0,B|229:24|229:24|205:15|205:15|156:22,1,125.999996154785,6|0,1:2|0:0,0:0:0:0:
155,22,28948,1,10,0:0:0:0:
89,104,29155,1,0,1:2:0:0:
89,104,29258,2,0,L|38:114,2,41.9999987182618,0|2|0,3:0|3:2|3:0,0:0:0:0:
127,196,29672,2,0,P|185:188|234:228,1,125.999996154785,2|2,0:0|1:2,0:0:0:0:
332,159,30189,6,0,B|369:159|369:159|396:159|390:173|420:173|420:173|457:173,1,125.999996154785,2|0,1:2|0:0,0:0:0:0:
455,173,30603,1,10,0:0:0:0:
481,283,30810,1,0,1:2:0:0:
481,283,30914,2,0,P|501:269|528:268,2,41.9999987182618,0|2|0,3:0|3:2|3:0,0:0:0:0:
423,375,31327,2,0,P|381:331|316:329,1,125.999996154785,2|2,0:0|1:2,0:0:0:0:
313,312,31741,1,0,1:2:0:0:
306,296,31845,6,0,L|177:296,1,125.999996154785,2|0,1:2|0:0,0:0:0:0:
180,296,32258,1,10,0:0:0:0:
81,331,32465,1,0,1:2:0:0:
81,331,32569,2,0,L|61:368,2,41.9999987182618,0|2|0,3:0|3:2|3:0,0:0:0:0:
97,226,32983,2,0,L|61:104,1,125.999996154785,2|2,0:0|1:2,0:0:0:0:
181,42,33500,6,0,P|226:51|182:60,1,125.999996154785,2|0,1:2|0:0,0:0:0:0:
163,139,33914,2,0,P|215:108|283:118,1,125.999996154785,2|0,1:2|0:0,0:0:0:0:
349,83,34327,5,2,1:2:0:0:
309,233,34638,1,2,0:0:0:0:
456,279,34948,1,2,0:0:0:0:
512,199,35155,6,0,B|496:241|445:253|400:207|425:152|425:152|453:95|422:44|363:42|346:89,1,335.999989746094,2|2,1:2|1:2,0:0:0:0:
192,15,36293,1,0,1:2:0:0:
192,15,36396,2,0,B|234:22|234:22|270:1,1,83.9999974365235,10|2,0:0|1:2,0:0:0:0:
155,109,36810,6,0,P|117:89|72:95,2,83.9999974365235,2|2|8,1:2|0:0|0:0,0:0:0:0:
125,212,37431,2,0,B|195:201|195:201|222:212|222:212|290:201,1,167.999994873047,2|2,0:0|0:0,0:0:0:0:
383,188,38052,1,10,0:0:0:0:
473,231,38258,1,2,1:2:0:0:
492,335,38465,6,0,P|450:378|377:366,1,125.999996154785,2|0,1:2|0:0,0:0:0:0:
348,358,38879,2,0,L|261:358,1,83.9999974365235,10|0,0:0|0:0,0:0:0:0:
171,298,39293,2,0,P|146:324|140:289,2,83.9999974365235,2|2|10,1:2|2:2|0:0,0:0:0:0:
174,199,39914,1,2,1:2:0:0:
183,93,40120,5,0,1:2:0:0:
166,97,40224,1,0,1:2:0:0:
149,101,40327,1,2,1:2:0:0:
132,105,40431,1,0,1:2:0:0:
116,110,40534,2,0,L|131:63,3,41.9999987182618,8|0|2|0,0:0|1:2|1:2|1:2,0:0:0:0:
43,130,40948,6,0,P|83:147|94:190,1,83.9999974365235,10|2,0:0|0:0,0:0:0:0:
7,287,41362,6,0,B|-5:274|-21:273|-21:273|-5:273|8:260,1,62.9999980773926,6|6,3:0|3:0,0:0:0:0:
98,363,41776,6,0,B|166:363|166:363|194:383|234:375,1,138.599999577026,6|0,1:2|0:0,0:0:0:0:
274,384,42189,2,0,B|293:341|293:341|273:300,1,92.3999997180176,2|0,0:0|0:0,0:0:0:0:
326,204,42603,1,10,0:0:0:0:
326,204,43017,2,0,P|292:185|329:173,1,92.3999997180176,2|2,0:0|1:2,0:0:0:0:
423,284,43431,6,0,B|446:265|446:265|479:265|479:265|501:244,2,92.3999997180176,2|2|0,0:0|0:0|1:2,0:0:0:0:
475,377,44052,2,0,P|413:312|321:317,1,184.799999436035,2|2,0:0|1:2,0:0:0:0:
257,244,44672,1,2,0:0:0:0:
338,176,44879,1,2,0:0:0:0:
257,99,45086,6,0,P|195:124|130:98,1,138.599999577026,2|0,1:2|0:0,0:0:0:0:
123,56,45500,2,0,L|141:172,1,92.3999997180176,2|0,0:0|0:0,0:0:0:0:
154,255,45914,1,10,0:0:0:0:
154,255,46327,2,0,P|112:238|58:248,1,92.3999997180176,2|2,0:0|1:2,0:0:0:0:
88,122,46741,6,0,B|124:147|124:147|172:132,1,92.3999997180176,2|2,0:0|0:0,0:0:0:0:
265,101,47155,1,0,1:2:0:0:
364,70,47362,2,0,B|472:70|472:70|497:97|465:126|442:100,1,184.799999436035,2|2,0:0|1:2,0:0:0:0:
399,187,47983,1,2,0:0:0:0:
468,261,48189,1,2,0:0:0:0:
399,343,48396,5,10,0:0:0:0:
381,338,48500,1,8,0:0:0:0:
363,333,48603,1,4,0:3:0:0:
345,328,48707,1,4,0:3:0:0:
328,323,48810,2,0,B|305:316|295:293|295:293|305:316|293:341,1,92.3999997180176,2|0,0:0|0:0,0:0:0:0:
182,370,49224,6,0,B|132:389|92:359|92:359|54:328|8:346,1,184.799999436035,14|2,0:0|0:0,0:0:0:0:
52,252,49845,1,2,1:2:0:0:
107,145,50052,6,0,P|73:133|106:120,2,92.3999997180176,2|2|0,0:0|0:0|1:2,0:0:0:0:
188,210,50672,2,0,B|253:194|253:194|298:213|298:213|366:195,1,184.799999436035,2|2,0:0|1:2,0:0:0:0:
349,299,51293,1,2,0:0:0:0:
447,344,51500,1,2,1:2:0:0:
510,249,51707,6,0,P|539:185|496:120,1,138.599999577026,2|0,1:2|0:0,0:0:0:0:
512,87,52120,2,0,P|475:118|430:110,1,92.3999997180176,2|0,0:0|0:0,0:0:0:0:
344,165,52534,1,10,0:0:0:0:
436,225,52741,1,2,0:0:0:0:
347,287,52948,1,2,0:0:0:0:
247,225,53155,6,0,B|179:225|179:225|152:244|111:237,1,138.599999577026,2|0,1:2|0:0,0:0:0:0:
101,275,53569,2,0,B|64:243|64:243|16:244,1,92.3999997180176,2|0,1:2|0:0,0:0:0:0:
27,137,53983,2,0,P|-7:152|1:113,2,92.3999997180176,2|10|2,0:0|0:0|1:2,0:0:0:0:
122,99,54603,1,2,0:0:0:0:
239,113,54810,1,2,1:2:0:0:
239,113,54914,1,0,1:2:0:0:
239,113,55017,6,0,B|297:113|297:113|315:123|315:123|379:123,1,138.599999577026,6|0,1:2|0:0,0:0:0:0:
414,134,55431,2,0,P|391:90|405:48,1,92.3999997180176,2|0,0:0|0:0,0:0:0:0:
512,157,55845,1,10,0:0:0:0:
512,157,56258,2,0,L|536:250,1,92.3999997180176,2|2,0:0|1:2,0:0:0:0:
404,231,56672,6,0,L|314:256,2,92.3999997180176,2|2|0,0:0|0:0|1:2,0:0:0:0:
367,340,57293,2,0,P|312:274|217:269,1,184.799999436035,2|2,0:0|1:2,0:0:0:0:
200,155,57914,1,2,0:0:0:0:
312,184,58120,1,2,1:2:0:0:
434,128,58327,6,0,B|480:109|466:60|466:60|417:33,1,138.599999577026,2|0,1:2|0:0,0:0:0:0:
433,0,58741,2,0,P|385:16|341:-6,1,92.3999997180176,2|0,0:0|0:0,0:0:0:0:
246,33,59155,1,10,0:0:0:0:
246,33,59569,2,0,L|154:33,1,92.3999997180176,2|2,0:0|1:2,0:0:0:0:
30,46,59983,6,0,P|-2:27|30:23,1,92.3999997180176,2|2,0:0|0:0,0:0:0:0:
64,129,60396,1,2,1:2:0:0:
99,226,60603,2,0,B|225:185|225:185|197:230,1,184.799999436035,2|2,0:0|1:2,0:0:0:0:
112,191,61224,1,2,0:0:0:0:
136,74,61431,1,2,1:2:0:0:
267,105,61638,6,0,P|335:109|387:67,1,138.599999577026,6|0,1:2|0:0,0:0:0:0:
368,32,62052,1,2,0:0:0:0:
470,100,62258,1,2,0:0:0:0:
401,200,62465,1,10,0:0:0:0:
401,200,62879,2,0,B|389:217|360:217|360:217|389:217|401:234,1,92.3999997180176,2|2,0:0|1:2,0:0:0:0:
501,128,63293,6,0,P|535:111|498:99,2,92.3999997180176,2|2|0,0:0|0:0|1:2,0:0:0:0:
424,33,63914,2,0,B|382:33|382:33|324:33|344:3|291:3|291:3|243:3,1,184.799999436035,2|2,0:0|1:2,0:0:0:0:
189,89,64534,1,2,0:2:0:0:
261,172,64741,1,2,1:2:0:0:
335,264,64948,6,0,P|263:277|226:342,1,138.599999577026,2|0,1:2|0:0,0:0:0:0:
202,295,65362,2,0,L|106:295,1,92.3999997180176,2|0,0:0|0:0,0:0:0:0:
26,248,65776,1,10,0:0:0:0:
9,152,65983,1,2,0:0:0:0:
66,67,66189,1,2,0:0:0:0:
170,36,66396,6,0,P|224:76|292:55,1,138.599999577026,2|0,1:2|0:0,0:0:0:0:
311,23,66810,2,0,L|339:112,1,92.3999997180176,2|0,1:2|0:0,0:0:0:0:
446,160,67224,6,0,L|538:132,2,92.3999997180176,2|10|2,0:0|0:0|1:2,0:0:0:0:
488,272,67845,5,2,0:0:0:0:
414,359,68052,5,2,1:2:0:0:
307,303,68258,5,4,1:2:0:0:
307,303,68672,2,0,P|293:264|306:225,1,83.9999974365235,10|2,0:0|0:0,0:0:0:0:
386,187,69086,2,0,L|262:157,1,125.999996154785,2|0,1:2|1:2,0:0:0:0:
251,120,69500,2,0,P|216:145|164:143,1,83.9999974365235,10|0,0:0|1:2,0:0:0:0:
59,149,69914,6,0,P|29:159|61:166,1,83.9999974365235,2|2,1:2|0:0,0:0:0:0:
123,245,70327,2,0,B|134:322|134:322|189:315,1,125.999996154785,10|0,0:0|0:0,0:0:0:0:
175,352,70741,2,0,P|229:321|295:332,1,125.999996154785,2|0,1:2|1:2,0:0:0:0:
295,293,71155,1,10,0:0:0:0:
395,312,71362,1,0,1:2:0:0:
414,214,71569,5,0,1:2:0:0:
414,214,71983,2,0,L|490:249,1,83.9999974365235,10|2,0:0|0:0,0:0:0:0:
388,122,72396,2,0,L|268:68,1,125.999996154785,2|0,1:2|1:2,0:0:0:0:
249,43,72810,2,0,P|263:83|247:122,1,83.9999974365235,10|0,0:0|1:2,0:0:0:0:
246,246,73224,6,0,P|273:213|315:208,1,83.9999974365235,2|2,1:2|0:0,0:0:0:0:
168,181,73638,2,0,L|40:181,1,125.999996154785,10|0,0:2|0:0,0:0:0:0:
22,148,74052,2,0,P|1:178|-16:147,2,83.9999974365235,2|2|8,1:2|0:0|0:0,0:0:0:0:
64,53,74672,1,2,1:2:0:0:
167,84,74879,5,0,1:2:0:0:
167,84,75293,2,0,B|185:69|185:48|185:48|185:69|206:86,1,83.9999974365235,10|2,0:0|0:0,0:0:0:0:
283,144,75707,2,0,B|335:144|335:144|355:153|355:153|417:153,1,125.999996154785,2|0,1:2|1:2,0:0:0:0:
434,124,76120,2,0,L|444:211,1,83.9999974365235,10|0,0:0|1:2,0:0:0:0:
473,324,76534,6,0,P|433:306|389:312,1,83.9999974365235,2|2,1:2|0:0,0:0:0:0:
312,249,76948,2,0,P|259:297|258:358,1,125.999996154785,10|0,0:0|0:0,0:0:0:0:
288,369,77362,2,0,P|227:342|166:356,1,125.999996154785,2|0,1:2|1:2,0:0:0:0:
138,371,77776,1,10,0:0:0:0:
48,316,77983,1,0,1:2:0:0:
138,258,78189,5,0,1:2:0:0:
138,258,78603,2,0,L|235:278,1,83.9999974365235,10|2,0:0|0:0,0:0:0:0:
272,370,79017,2,0,P|323:333|387:337,1,125.999996154785,2|0,1:2|1:2,0:0:0:0:
407,308,79431,2,0,B|424:270|424:270|404:230,1,83.9999974365235,10|0,0:0|1:2,0:0:0:0:
340,140,79845,6,0,P|373:143|351:117,2,83.9999974365235,2|2|10,1:2|0:0|0:0,0:0:0:0:
252,190,80465,1,0,0:0:0:0:
164,241,80672,2,0,P|130:244|152:218,2,83.9999974365235,2|2|10,1:2|0:0|0:0,0:0:0:0:
252,313,81293,1,2,1:2:0:0:
340,384,81500,6,0,P|387:344|459:352,1,125.999996154785,4|0,1:2|0:0,0:0:0:0:
474,375,81914,2,0,L|451:290,1,83.9999974365235,10|2,0:0|0:0,0:0:0:0:
476,191,82327,2,0,B|428:182|428:182|401:195|401:195|351:187,1,125.999996154785,2|0,1:2|1:2,0:0:0:0:
323,163,82741,2,0,P|366:171|408:144,1,83.9999974365235,10|0,0:0|1:2,0:0:0:0:
224,178,83155,6,0,L|138:178,1,83.9999974365235,2|2,1:2|0:0,0:0:0:0:
48,221,83569,2,0,P|8:177|49:135,1,125.999996154785,10|0,0:0|0:0,0:0:0:0:
33,99,83983,2,0,P|96:108|138:58,1,125.999996154785,2|0,1:2|1:2,0:0:0:0:
129,31,84396,1,10,0:0:0:0:
232,47,84603,1,0,1:2:0:0:
220,158,84810,6,0,B|278:153|278:153|307:173|344:160,1,125.999996154785,0|0,1:2|0:0,0:0:0:0:
367,188,85224,2,0,P|401:166|443:170,1,83.9999974365235,10|2,0:0|0:0,0:0:0:0:
484,70,85638,2,0,B|512:47|541:47|541:47|512:47|483:27,1,125.999996154785,2|0,1:2|1:2,0:0:0:0:
455,0,86052,2,0,L|372:0,1,83.9999974365235,10|0,0:0|1:2,0:0:0:0:
272,71,86465,6,0,L|272:-19,1,83.9999974365235,2|2,1:2|0:0,0:0:0:0:
173,0,86879,2,0,L|33:0,1,125.999996154785,10|0,0:0|0:0,0:0:0:0:
57,37,87293,2,0,P|19:51|-25:36,2,83.9999974365235,2|2|8,1:2|0:0|0:0,0:0:0:0:
16,135,87914,1,2,1:2:0:0:
111,192,88120,6,0,B|160:184|160:184|185:196|185:196|234:188,1,125.999996154785,0|0,1:2|0:0,0:0:0:0:
269,202,88534,2,0,P|254:158|273:119,1,83.9999974365235,10|2,0:0|0:0,0:0:0:0:
241,291,88948,2,0,P|284:253|355:258,1,125.999996154785,2|0,1:2|1:2,0:0:0:0:
373,227,89362,2,0,L|458:227,1,83.9999974365235,10|0,0:0|1:2,0:0:0:0:
509,333,89776,6,0,P|539:321|504:307,1,83.9999974365235,2|2,1:2|0:0,0:0:0:0:
428,375,90189,2,0,B|400:375|400:375|363:375|370:359|332:359|332:359|303:359,1,125.999996154785,10|0,0:0|0:0,0:0:0:0:
293,325,90603,2,0,P|235:350|176:323,1,125.999996154785,2|0,1:2|1:2,2:2:0:0:
162,359,91017,1,10,0:0:0:0:
64,315,91224,1,0,1:2:0:0:
77,205,91431,6,0,L|90:67,1,125.999996154785,0|0,1:2|0:0,0:0:0:0:
107,48,91845,2,0,L|22:48,1,83.9999974365235,10|2,0:0|0:0,0:0:0:0:
197,12,92258,2,0,P|234:61|301:53,1,125.999996154785,2|0,1:2|1:2,0:0:0:0:
316,86,92672,2,0,P|350:64|394:69,1,83.9999974365235,10|0,0:0|0:0,0:0:0:0:
463,159,93086,6,0,B|487:151|495:132|495:132|487:151|495:171,2,83.9999974365235,2|2|10,1:2|0:0|0:0,0:0:0:0:
363,192,93707,1,0,0:0:0:0:
397,290,93914,2,0,B|389:310|397:329|397:329|389:310|365:302,2,83.9999974365235,2|2|10,0:0|1:2|0:0,0:0:0:0:
363,192,94534,1,2,0:2:0:0:
240,240,94741,6,0,B|188:240|162:194|177:153|189:85|107:64|7:70|-32:120|-45:195|-25:277|30:320|87:309|187:308|181:244|162:195|181:145|241:142,1,671.999979492188,4|2,1:2|0:0,0:0:0:0:
86,99,101362,5,2,0:0:0:0:
196,121,101776,1,2,0:0:0:0:
306,143,102189,2,0,P|327:92|299:53,2,105,2|2|0,0:0|0:0|0:0,0:0:0:0:
378,200,103017,6,0,P|310:181|256:218,1,140,2|2,0:0|0:0,0:0:0:0:
160,166,103741,1,2,0:0:0:0:
160,166,104052,2,0,L|90:166,2,70,2|2|2,0:0|0:0|0:0,0:0:0:0:
208,98,104672,5,2,0:0:0:0:
233,216,105086,1,2,0:0:0:0:
258,334,105500,2,0,B|301:334|301:334|316:343|316:343|368:343,2,105,2|2|0,0:0|0:0|0:0,0:0:0:0:
175,361,106327,6,0,P|115:371|73:310,1,140,2|2,0:0|0:0,0:0:0:0:
164,247,107052,1,2,0:0:0:0:
104,153,107362,1,2,0:0:0:0:
166,99,107569,6,0,L|30:110,1,136.499993751526,2|0,0:0|0:0,0:0:0:0:
2,71,107983,6,0,P|32:89|74:79,1,80.5000015354157,2|0,1:2|0:0,0:0:0:0:
121,0,108396,2,0,P|151:18|193:8,1,80.5000015354157,10|0,0:0|0:0,0:0:0:0:
260,72,108810,2,0,B|286:98|313:98|313:98|286:98|260:126,1,120.750002303124,2|2,0:0|0:0,0:0:0:0:
261,124,109431,1,2,1:2:0:0:
175,207,109638,6,0,L|252:247,1,80.5000015354157,2|0,0:0|1:2,0:0:0:0:
353,247,110052,2,0,L|316:319,1,80.5000015354157,10|0,0:0|0:0,0:0:0:0:
428,178,110465,2,0,L|351:138,2,80.5000015354157,2|2|10,0:0|1:2|0:0,0:0:0:0:
503,109,111086,1,2,0:0:0:0:
427,23,111293,6,0,P|422:55|397:32,1,80.5000015354157,2|0,1:2|0:0,0:0:0:0:
317,23,111707,2,0,P|322:-9|347:14,1,80.5000015354157,10|0,0:0|0:0,0:0:0:0:
226,32,112120,2,0,B|191:32|191:32|167:41|167:41|143:32|143:32|107:32,1,120.750002303124,2|2,0:0|0:0,0:0:0:0:
19,204,112741,6,0,B|-1:212|-9:190|3:167|31:171|37:200|37:200|52:277,1,161.000003070831,2|2,1:2|1:2,0:0:0:0:
155,261,113362,1,10,0:0:0:0:
173,363,113569,2,0,B|237:355|237:355|267:366|267:366|334:357,1,161.000003070831,2|2,0:0|1:2,0:0:0:0:
376,263,114189,1,8,0:0:0:0:
361,255,114293,1,8,0:0:0:0:
346,247,114396,1,6,0:3:0:0:
331,239,114500,1,4,0:3:0:0:
317,230,114603,6,0,B|330:194|330:194|312:148,1,80.5000015354157,2|0,1:2|0:0,0:0:0:0:
231,206,115017,2,0,P|201:193|231:184,1,80.5000015354157,10|0,0:0|0:0,0:0:0:0:
117,193,115431,2,0,B|62:193|62:193|36:213|0:205,1,120.750002303124,2|2,0:0|0:0,0:0:0:0:
0,204,116052,1,2,1:2:0:0:
41,93,116258,6,0,L|24:15,1,80.5000015354157,2|0,0:0|1:2,0:0:0:0:
125,39,116672,2,0,L|208:25,1,80.5000015354157,10|0,0:0|0:0,0:0:0:0:
233,0,116983,2,0,P|269:42|327:28,1,120.750002303124,2|2,0:0|0:0,0:0:0:0:
302,132,117500,1,10,0:0:0:0:
377,205,117707,1,2,0:0:0:0:
482,196,117914,6,0,B|499:233|499:233|481:274,1,80.5000015354157,2|0,1:2|0:0,0:0:0:0:
445,354,118327,2,0,B|429:317|429:317|446:280,1,80.5000015354157,10|0,0:0|0:0,0:0:0:0:
330,317,118741,2,0,B|296:317|296:317|268:317|272:331|243:331|243:331|209:331,1,120.750002303124,2|2,0:0|0:0,0:0:0:0:
110,173,119362,6,0,B|153:156|185:181|185:181|220:206|264:189,1,161.000003070831,2|2,1:2|1:2,0:0:0:0:
361,225,119983,1,10,0:0:0:0:
392,129,120189,2,0,P|444:83|387:37,1,161.000003070831,2|2,1:2|0:2,0:0:0:0:
293,0,120810,1,8,0:0:0:0:
292,16,120914,1,8,0:0:0:0:
291,32,121017,1,6,0:3:0:0:
290,48,121120,1,4,0:3:0:0:
288,65,121224,6,0,B|273:80|251:80|251:80|273:80|289:96,1,83.9999974365235,2|0,1:2|0:0,0:0:0:0:
229,165,121638,2,0,B|214:180|192:180|192:180|214:180|230:196,1,83.9999974365235,10|0,0:0|1:2,0:0:0:0:
196,278,122052,2,0,P|240:240|307:249,1,125.999996154785,2|2,0:0|0:0,0:0:0:0:
303,247,122672,1,2,1:2:0:0:
387,167,122879,6,0,P|422:172|403:144,1,83.9999974365235,2|0,1:2|0:0,0:0:0:0:
497,257,123293,2,0,B|514:239|534:239|534:239|514:239|497:222,1,83.9999974365235,10|0,0:0|1:2,0:0:0:0:
414,346,123707,2,0,P|428:315|395:322,2,83.9999974365235,2|2|10,0:0|0:0|0:0,0:0:0:0:
309,276,124327,1,2,1:2:0:0:
309,276,124431,1,0,1:2:0:0:
309,276,124534,6,0,L|225:277,1,83.9999974365235,2|0,1:2|0:0,0:0:0:0:
132,321,124948,2,0,B|92:337|92:337|75:298,1,83.9999974365235,10|0,0:0|1:2,0:0:0:0:
0,225,125362,2,0,P|11:168|71:162,1,125.999996154785,2|2,0:0|0:0,0:0:0:0:
196,42,125983,5,2,1:2:0:0:
196,42,126189,2,0,L|290:144,1,125.999996154785,2|0,1:2|0:0,0:0:0:0:
322,113,126603,2,0,L|228:215,1,125.999996154785,2|0,1:2|0:0,0:0:0:0:
199,197,127017,2,0,L|293:299,1,125.999996154785,2|0,1:2|0:0,0:0:0:0:
312,317,127431,1,10,0:0:0:0:
225,381,127638,1,2,0:0:0:0:
122,317,127845,6,0,B|64:366|-16:333|-41:259|8:186|69:201|69:201|69:254,1,335.999989746094,2|2,1:2|1:2,0:0:0:0:
179,119,128983,1,0,1:2:0:0:
179,119,129086,2,0,P|209:104|176:92,1,83.9999974365235,10|2,0:0|1:2,0:0:0:0:
55,80,129500,6,0,L|45:-3,2,83.9999974365235,2|2|8,1:2|0:0|0:0,0:0:0:0:
2,176,130120,2,0,P|80:184|126:263,1,167.999994873047,2|2,0:0|0:0,0:0:0:0:
211,309,130741,1,10,0:0:0:0:
307,282,130948,1,2,1:2:0:0:
329,181,131155,6,0,B|382:181|382:181|402:190|402:190|457:190,1,125.999996154785,2|0,1:2|0:0,0:0:0:0:
487,202,131569,2,0,P|503:163|478:119,1,83.9999974365235,10|0,0:0|0:0,0:0:0:0:
432,28,131983,2,0,P|473:35|510:11,2,83.9999974365235,2|2|10,1:2|0:0|0:0,0:0:0:0:
328,43,132603,1,2,1:2:0:0:
205,25,132810,5,0,1:2:0:0:
206,40,132914,1,0,1:2:0:0:
208,56,133017,1,2,1:2:0:0:
210,72,133121,1,0,1:2:0:0:
212,87,133224,2,0,L|167:68,3,41.9999987182618,8|2|2|2,0:0|3:0|3:0|3:0,0:0:0:0:
268,142,133638,6,0,B|226:134|226:134|194:162,1,83.9999974365235,2|2,3:2|0:0,0:0:0:0:
102,235,134052,1,10,0:0:0:0:
116,240,134155,1,8,0:0:0:0:
131,246,134258,1,6,2:3:0:0:
147,252,134362,1,4,2:3:0:0:
163,258,134465,6,0,B|227:233|279:285|279:285|329:337|393:309,1,251.999992309571,4|0,1:2|0:0,0:0:0:0:
467,384,135914,1,0,1:2:0:0:
467,384,136534,1,0,1:2:0:0:
467,384,137569,1,0,1:2:0:0:
395,334,137776,6,0,P|465:347|514:303,2,140,2|2|2,1:2|0:0|0:0,0:0:0:0:
211,325,139017,2,0,P|185:335|210:347,1,70,2|2,0:0|1:2,0:0:0:0:
267,240,139431,6,0,L|245:168,2,70,2|2|0,0:0|0:0|1:2,0:0:0:0:
346,174,140052,1,2,0:0:0:0:
276,98,140258,2,0,P|243:127|184:119,1,105,8|0,0:0|0:0,0:0:0:0:
153,137,140672,6,0,L|153:82,3,35,2|0|2|0,3:0|3:0|3:0|3:0,0:0:0:0:
86,191,141086,6,0,L|43:191,3,35,2|2|2|2,3:0|3:0|3:0|3:0,0:0:0:0:
154,247,141500,5,6,3:0:0:0:
171,252,141603,1,4,3:0:0:0:
189,247,141707,1,4,3:0:0:0:
205,252,141810,1,4,3:0:0:0:
222,247,141914,6,0,P|254:324|346:321,1,184.799999436035,14|2,0:2|0:0,0:0:0:0:
439,372,142534,1,2,1:2:0:0:
485,259,142741,6,0,P|514:282|484:279,2,92.3999997180176,2|2|0,0:0|0:0|1:2,0:0:0:0:
401,193,143362,2,0,P|481:219|539:146,1,184.799999436035,2|2,0:0|1:2,0:0:0:0:
448,91,143983,1,2,0:0:0:0:
354,30,144189,1,2,0:0:0:0:
252,91,144396,6,0,B|186:91|186:91|159:112|115:100,1,138.599999577026,2|0,1:2|0:0,0:0:0:0:
125,147,144810,2,0,L|107:52,1,92.3999997180176,2|0,0:0|0:0,0:0:0:0:
53,214,145224,1,10,0:0:0:0:
150,265,145431,1,2,0:0:0:0:
75,353,145638,1,2,0:0:0:0:
205,384,145845,6,0,P|256:348|327:362,1,138.599999577026,2|0,1:2|0:0,0:0:0:0:
320,320,146258,2,0,B|366:335|366:335|415:318,1,92.3999997180176,2|0,1:2|0:0,0:0:0:0:
442,218,146672,2,0,L|536:218,2,92.3999997180176,2|10|2,0:0|0:0|1:2,0:0:0:0:
407,116,147293,1,2,0:0:0:0:
377,13,147500,1,2,1:2:0:0:
377,13,147603,1,0,1:2:0:0:
377,13,147707,6,0,B|346:13|346:13|308:13|316:33|277:33|277:33|241:33,1,138.599999577026,6|0,1:2|0:0,0:0:0:0:
205,13,148120,2,0,P|226:56|206:95,1,92.3999997180176,2|0,0:0|0:0,0:0:0:0:
95,159,148534,1,10,0:0:0:0:
95,159,148948,2,0,P|74:116|94:77,1,92.3999997180176,2|2,0:0|1:2,0:0:0:0:
11,206,149362,6,0,B|1:228|-27:228|-27:228|1:228|13:249,2,92.3999997180176,2|2|0,0:0|0:0|1:2,0:0:0:0:
0,334,149983,2,0,P|39:263|134:266,1,184.799999436035,2|2,0:0|1:2,0:0:0:0:
198,183,150603,1,2,0:0:0:0:
294,236,150810,1,2,1:2:0:0:
346,135,151017,6,0,B|398:142|398:142|422:167|422:167|474:173,1,138.599999577026,2|0,1:2|0:0,0:0:0:0:
488,138,151431,2,0,P|534:122|529:74,1,92.3999997180176,2|0,0:0|0:0,0:0:0:0:
449,9,151845,1,10,0:0:0:0:
449,9,152258,2,0,L|354:20,1,92.3999997180176,2|2,0:0|1:2,0:0:0:0:
246,20,152672,6,0,P|213:6|246:-1,1,92.3999997180176,2|2,0:0|0:0,0:0:0:0:
246,108,153086,1,0,1:2:0:0:
246,197,153293,2,0,B|154:197|154:197|117:197|112:233|134:253|164:240|159:220,1,184.799999436035,2|2,0:0|1:2,0:0:0:0:
106,130,153914,1,2,0:0:0:0:
5,177,154120,1,2,1:2:0:0:
51,277,154327,5,10,0:2:0:0:
60,293,154431,1,8,0:0:0:0:
69,309,154534,1,4,3:0:0:0:
78,325,154638,1,4,3:0:0:0:
86,342,154741,2,0,P|127:336|162:368,1,92.3999997180176,2|2,0:0|0:0,0:0:0:0:
237,275,155155,6,0,B|314:275|314:275|342:288|342:288|422:288,1,184.799999436035,14|2,0:0|0:0,0:0:0:0:
506,215,155776,1,2,1:2:0:0:
424,120,155983,6,0,P|470:119|494:83,2,92.3999997180176,2|2|0,0:0|0:0|1:2,0:0:0:0:
328,76,156603,2,0,B|271:38|271:38|308:164,1,184.799999436035,2|2,0:0|1:2,0:0:0:0:
256,246,157224,1,2,0:0:0:0:
359,299,157431,1,2,1:2:0:0:
271,382,157638,6,0,P|207:356|146:382,1,138.599999577026,2|0,1:2|0:0,0:0:0:0:
118,356,158052,2,0,B|85:360|85:360|76:300,1,92.3999997180176,2|0,0:0|0:0,0:0:0:0:
11,213,158465,1,10,0:0:0:0:
113,165,158672,1,2,0:0:0:0:
203,235,158879,1,2,0:0:0:0:
275,132,159086,6,0,P|319:177|388:167,1,138.599999577026,2|0,1:2|0:0,0:0:0:0:
416,192,159500,2,0,L|509:192,1,92.3999997180176,2|0,1:2|0:0,0:0:0:0:
461,88,159914,2,0,L|482:-4,2,92.3999997180176,2|10|2,0:0|0:0|1:2,0:0:0:0:
355,59,160534,1,2,0:0:0:0:
251,36,160741,1,0,1:2:0:0:
251,36,160845,1,0,1:2:0:0:
251,36,160948,6,0,B|212:24|185:46|185:46|159:67|116:55,1,138.599999577026,6|0,1:2|0:0,0:0:0:0:
87,24,161362,2,0,B|134:33|134:33|173:8,1,92.3999997180176,2|0,0:0|0:0,0:0:0:0:
150,140,161776,2,0,L|174:284,1,138.599999577026,10|0,0:0|0:0,0:0:0:0:
161,316,162189,2,0,P|204:302|250:314,1,92.3999997180176,2|0,0:0|1:2,0:0:0:0:
343,216,162603,6,0,L|252:196,1,92.3999997180176,2|2,0:0|0:0,0:0:0:0:
252,196,162914,1,0,0:0:0:0:
252,196,163017,1,2,1:2:0:0:
172,276,163224,1,2,0:0:0:0:
86,350,163431,2,0,P|37:300|-27:311,1,138.599999577026,10|0,0:0|0:0,0:0:0:0:
0,271,163845,2,0,B|-18:230|-18:230|1:185,1,92.3999997180176,2|0,0:0|0:0,0:0:0:0:
109,120,164258,6,0,B|140:120|140:120|178:120|170:140|209:140|209:140|243:140,1,138.599999577026,2|0,1:2|0:0,0:0:0:0:
278,160,164672,2,0,P|295:126|308:164,1,92.3999997180176,2|0,0:0|0:0,0:0:0:0:
410,107,165086,2,0,B|441:171|441:171|412:233,1,138.599999577026,10|0,0:0|0:0,0:0:0:0:
425,272,165500,2,0,P|385:250|339:259,1,92.3999997180176,2|0,0:0|1:2,0:0:0:0:
411,365,165914,6,0,P|366:372|326:351,1,92.3999997180176,2|2,0:0|0:0,0:0:0:0:
326,351,166224,1,0,0:0:0:0:
326,351,166327,1,2,1:2:0:0:
220,367,166534,1,2,0:0:0:0:
107,376,166741,5,10,0:0:0:0:
113,358,166845,1,8,0:0:0:0:
119,340,166948,1,8,3:0:0:0:
125,322,167052,1,8,3:0:0:0:
131,304,167155,2,0,L|94:275,3,46.1999998590088,6|4|6|4,3:0|3:0|3:0|3:0,0:0:0:0:
101,200,167569,6,0,P|70:258|5:255,1,138.599999577026,6|0,1:2|0:0,0:0:0:0:
0,218,167983,2,0,B|-26:182|-26:182|-2:131,1,92.3999997180176,2|0,0:0|0:0,0:0:0:0:
79,65,168396,2,0,B|121:65|121:65|148:75|148:75|175:65|175:65|221:65,1,138.599999577026,10|0,0:0|0:0,0:0:0:0:
235,31,168810,2,0,P|268:69|308:66,1,92.3999997180176,2|0,0:0|1:2,0:0:0:0:
378,169,169224,6,0,L|287:189,1,92.3999997180176,2|2,0:0|0:0,0:0:0:0:
287,188,169534,1,0,0:0:0:0:
287,188,169638,1,2,1:2:0:0:
186,157,169845,1,2,0:0:0:0:
137,259,170052,2,0,P|93:301|145:343,1,138.599999577026,10|0,0:0|0:0,0:0:0:0:
133,383,170465,2,0,P|174:357|226:368,1,92.3999997180176,2|0,1:2|0:0,0:0:0:0:
324,300,170879,6,0,B|377:308|377:308|397:333|397:333|449:341,1,138.599999577026,2|0,1:2|0:0,0:0:0:0:
451,300,171293,2,0,P|495:312|530:273,1,92.3999997180176,2|0,0:0|0:0,0:0:0:0:
468,194,171707,2,0,L|441:59,1,138.599999577026,10|0,0:0|0:0,0:0:0:0:
433,22,172120,1,2,0:0:0:0:
320,88,172327,6,0,P|240:93|188:13,1,184.799999436035,2|2,1:2|1:2,0:0:0:0:
146,110,172948,2,0,L|232:70,1,92.3999997180176,2|0,0:0|0:0,0:0:0:0:
58,147,173362,1,10,0:0:0:0:
157,207,173569,1,2,1:2:0:0:
55,260,173776,1,2,0:0:0:0:
178,319,173983,1,0,1:2:0:0:
178,319,174086,1,0,1:2:0:0:
178,319,174189,6,0,P|231:347|287:318,1,125.999996154785,6|0,1:2|0:0,0:0:0:0:
313,343,174603,2,0,B|353:331|353:331|394:344,1,83.9999974365235,2|0,0:0|0:0,0:0:0:0:
443,253,175017,2,0,L|504:137,2,125.999996154785,10|2|2,0:0|0:0|1:2,0:0:0:0:
492,347,175845,6,0,P|443:309|377:310,1,125.999996154785,2|2,0:0|0:0,0:0:0:0:
381,308,176258,1,2,1:2:0:0:
287,266,176465,1,2,0:0:0:0:
188,308,176672,2,0,P|158:294|190:292,1,83.9999974365235,10|2,0:0|0:0,0:0:0:0:
155,190,177086,2,0,P|125:176|157:174,1,83.9999974365235,2|2,0:0|0:0,0:0:0:0:
118,61,177500,6,0,B|168:48|168:48|191:55|191:55|250:39,1,125.999996154785,2|0,1:2|0:0,0:0:0:0:
246,10,177914,2,0,L|223:117,1,83.9999974365235,2|0,0:0|0:0,0:0:0:0:
339,86,178327,2,0,L|310:226,2,125.999996154785,10|2|2,0:0|0:0|1:2,0:0:0:0:
461,137,179155,6,0,B|485:98|534:107|534:107|485:98|467:59,1,167.999994873047,2|2,0:0|1:2,0:0:0:0:
373,93,179776,1,0,0:0:0:0:
373,93,179879,2,0,B|339:103|312:87|312:87|284:68|252:79,1,125.999996154785,2|2,0:0|1:2,0:0:0:0:
147,57,180396,5,2,0:0:0:0:
149,72,180500,1,2,0:0:0:0:
152,88,180603,1,2,1:2:0:0:
154,104,180707,1,2,0:0:0:0:
157,120,180810,5,4,0:0:0:0:
