osu file format v14

[General]
AudioFilename: audio.mp3
AudioLeadIn: 0
PreviewTime: 40677
Countdown: 0
SampleSet: Soft
StackLeniency: 0.4
Mode: 0
LetterboxInBreaks: 0
WidescreenStoryboard: 0

[Editor]
DistanceSpacing: 0.4
BeatDivisor: 4
GridSize: 4
TimelineZoom: 2.3

[Metadata]
Title:Puppy Raceway
TitleUnicode:Puppy Raceway
Artist:Hyper Potions & SAMME
ArtistUnicode:Hyper Potions & SAMME
Creator:Niva
Version:Checkered Flag
Source:osu!
Tags:ハイパー ポーションズ haipaaa future bass kevin villecco ian tsuchiura sushi killer imsamme neon fm msdt featured artist fa chequered mappers' guild mini pack mini-pack instrumental electronic
BeatmapID:2483305
BeatmapSetID:1191714

[Difficulty]
HPDrainRate:6
CircleSize:4
OverallDifficulty:7.5
ApproachRate:9.2
SliderMultiplier:1.4
SliderTickRate:1

[Events]
//Background and Video events
0,0,"iukskaunrpa.jpg",0,0
//Break Periods
2,98251,100750
//Storyboard Layer 0 (Background)
//Storyboard Layer 1 (Fail)
//Storyboard Layer 2 (Pass)
//Storyboard Layer 3 (Foreground)
//Storyboard Layer 4 (Overlay)
//Storyboard Sound Samples

[TimingPoints]
2052,413.793103448276,4,2,32,60,1,0
2052,-80,4,2,32,60,0,0
2155,-80,4,2,32,5,0,0
2258,-80,4,2,32,60,0,0
2362,-80,4,2,32,5,0,0
2465,-80,4,2,32,60,0,0
2569,-80,4,2,32,5,0,0
2672,-80,4,2,32,60,0,0
2776,-80,4,2,32,5,0,0
2879,-80,4,2,32,60,0,0
3603,-80,4,2,32,5,0,0
3707,-80,4,2,32,60,0,0
4431,-80,4,2,32,5,0,0
4534,-80,4,2,32,60,0,0
4638,-80,4,2,32,5,0,0
4741,-80,4,2,32,60,0,0
4845,-80,4,2,32,5,0,0
4939,-80,4,2,32,60,0,0
5052,-80,4,2,32,5,0,0
5155,-80,4,2,32,60,0,0
5258,-80,4,2,32,5,0,0
5362,-80,4,2,32,60,0,0
5465,-80,4,2,32,5,0,0
5569,-80,4,2,32,60,0,0
5672,-80,4,2,32,5,0,0
5776,-80,4,2,32,60,0,0
5879,-80,4,2,32,5,0,0
5983,-80,4,2,32,60,0,0
6086,-80,4,2,32,5,0,0
6189,-80,4,2,32,60,0,0
6810,-74.0740740740741,4,2,32,60,0,0
7120,-74.0740740740741,4,2,32,5,0,0
7224,-74.0740740740741,4,2,32,60,0,0
7948,-74.0740740740741,4,2,32,5,0,0
8052,-74.0740740740741,4,2,32,60,0,0
8155,-74.0740740740741,4,2,32,5,0,0
8258,-74.0740740740741,4,2,32,60,0,0
8362,-74.0740740740741,4,2,32,5,0,0
8465,-74.0740740740741,4,2,32,60,0,0
8569,-74.0740740740741,4,2,32,5,0,0
8672,-80,4,2,32,60,0,0
8776,-80,4,2,32,5,0,0
8879,-80,4,2,32,60,0,0
8983,-80,4,2,32,5,0,0
9086,-80,4,2,32,60,0,0
9189,-80,4,2,32,5,0,0
9293,-80,4,2,32,60,0,0
9396,-80,4,2,32,5,0,0
9500,-80,4,2,32,60,0,0
10224,-80,4,2,32,5,0,0
10327,-80,4,2,32,60,0,0
10948,-80,4,2,32,5,0,0
11052,-80,4,2,32,60,0,0
11672,-80,4,2,32,5,0,0
11776,-80,4,2,32,60,0,0
11879,-80,4,2,32,5,0,0
11983,-80,4,2,32,60,0,0
12086,-80,4,2,32,5,0,0
12189,-80,4,2,32,60,0,0
12293,-80,4,2,32,5,0,0
12396,-80,4,2,32,60,0,0
12500,-80,4,2,32,5,0,0
12603,-80,4,2,32,60,0,0
12707,-80,4,2,32,5,0,0
12810,-80,4,2,32,60,0,0
13431,-74.0740740740741,4,2,32,60,0,0
13741,-74.0740740740741,4,2,32,5,0,0
13845,-74.0740740740741,4,2,32,60,0,0
14569,-74.0740740740741,4,2,32,5,0,0
14672,-74.0740740740741,4,2,32,60,0,0
14776,-74.0740740740741,4,2,32,5,0,0
14879,-74.0740740740741,4,2,32,60,0,0
14983,-74.0740740740741,4,2,32,5,0,0
15086,-74.0740740740741,4,2,32,60,0,0
15189,-74.0740740740741,4,2,32,5,0,0
15293,-80,4,2,32,60,0,0
15396,-80,4,2,32,5,0,0
15500,-80,4,2,32,60,0,0
15603,-80,4,2,32,5,0,0
15707,-80,4,2,32,60,0,0
15810,-80,4,2,32,5,0,0
15914,-80,4,2,32,60,0,0
16017,-80,4,2,32,5,0,0
16120,-80,4,2,32,60,0,0
16845,-80,4,2,32,5,0,0
16948,-80,4,2,32,60,0,0
17879,-80,4,2,5,5,0,0
17983,-80,4,2,32,60,0,0
18086,-80,4,2,32,5,0,0
18189,-80,4,2,32,60,0,0
18293,-80,4,2,32,5,0,0
18396,-80,4,2,32,60,0,0
18500,-80,4,2,32,5,0,0
18603,-80,4,2,32,60,0,0
18707,-80,4,2,32,5,0,0
18810,-80,4,2,32,60,0,0
18914,-80,4,2,32,5,0,0
19017,-80,4,2,32,60,0,0
19120,-80,4,2,32,5,0,0
19224,-80,4,2,32,60,0,0
19327,-80,4,2,32,5,0,0
19431,-80,4,2,32,60,0,0
20052,-74.0740740740741,4,2,32,60,0,0
20362,-74.0740740740741,4,2,32,5,0,0
20465,-74.0740740740741,4,2,32,60,0,0
21189,-74.0740740740741,4,2,32,5,0,0
21293,-74.0740740740741,4,2,32,60,0,0
21396,-74.0740740740741,4,2,32,5,0,0
21500,-74.0740740740741,4,2,32,60,0,0
21603,-74.0740740740741,4,2,32,5,0,0
21707,-74.0740740740741,4,2,32,60,0,0
21810,-74.0740740740741,4,2,32,5,0,0
21914,-80,4,2,32,60,0,0
22017,-80,4,2,32,5,0,0
22120,-80,4,2,32,60,0,0
22224,-80,4,2,32,5,0,0
22327,-80,4,2,32,60,0,0
22431,-80,4,2,32,5,0,0
22534,-80,4,2,32,60,0,0
22638,-80,4,2,32,5,0,0
22741,-80,4,2,32,60,0,0
23465,-80,4,2,32,5,0,0
23569,-80,4,2,32,60,0,0
24189,-80,4,2,32,5,0,0
24293,-80,4,2,32,60,0,0
24914,-80,4,2,32,5,0,0
25017,-80,4,2,32,60,0,0
25120,-80,4,2,32,5,0,0
25224,-80,4,2,32,60,0,0
25327,-80,4,2,32,5,0,0
25431,-80,4,2,32,60,0,0
25534,-80,4,2,32,5,0,0
25638,-80,4,2,32,60,0,0
25741,-80,4,2,32,5,0,0
25845,-80,4,2,32,60,0,0
25948,-80,4,2,32,5,0,0
26052,-80,4,2,32,60,0,0
26776,-80,4,2,32,5,0,0
26879,-80,4,2,32,60,0,0
26983,-80,4,2,77,60,0,0
27293,-80,4,2,32,60,0,0
27396,-80,4,2,77,60,0,0
27707,-66.6666666666667,4,2,97,60,0,0
27810,-66.6666666666667,4,2,97,5,0,0
27914,-66.6666666666667,4,2,97,60,0,0
28017,-66.6666666666667,4,2,97,5,0,0
28120,-66.6666666666667,4,2,98,60,0,0
28534,-74.0740740740741,4,2,64,70,0,0
28845,-74.0740740740741,4,2,64,5,0,0
28948,-74.0740740740741,4,2,64,70,0,0
29258,-74.0740740740741,4,2,0,70,0,0
29672,-74.0740740740741,4,2,64,70,0,0
29879,-74.0740740740741,4,2,64,5,0,0
29983,-74.0740740740741,4,2,64,70,0,0
30086,-74.0740740740741,4,2,64,5,0,0
30189,-74.0740740740741,4,2,64,70,0,0
30500,-74.0740740740741,4,2,64,5,0,0
30603,-74.0740740740741,4,2,64,70,0,0
30914,-74.0740740740741,4,2,0,70,0,0
31327,-74.0740740740741,4,2,64,70,0,0
31534,-74.0740740740741,4,2,64,5,0,0
31638,-74.0740740740741,4,2,64,70,0,0
32155,-74.0740740740741,4,2,64,5,0,0
32258,-74.0740740740741,4,2,64,70,0,0
32569,-74.0740740740741,4,2,0,70,0,0
32983,-74.0740740740741,4,2,64,70,0,0
33189,-74.0740740740741,4,2,64,5,0,0
33293,-74.0740740740741,4,2,64,70,0,0
33396,-74.0740740740741,4,2,64,5,0,0
33500,-74.0740740740741,4,2,64,70,0,0
33810,-74.0740740740741,4,2,64,5,0,0
33914,-74.0740740740741,4,2,64,70,0,0
34224,-74.0740740740741,4,2,64,5,0,0
34327,-74.0740740740741,4,2,64,70,0,0
37741,-74.0740740740741,4,2,64,5,0,0
37845,-74.0740740740741,4,2,64,70,0,0
38052,-74.0740740740741,4,2,64,70,0,0
38155,-74.0740740740741,4,2,64,5,0,0
38258,-74.0740740740741,4,2,64,70,0,0
38362,-74.0740740740741,4,2,64,5,0,0
38465,-74.0740740740741,4,2,64,70,0,0
38776,-74.0740740740741,4,2,64,5,0,0
38879,-74.0740740740741,4,2,64,70,0,0
39189,-74.0740740740741,4,2,64,5,0,0
39293,-74.0740740740741,4,2,64,70,0,0
39396,-74.0740740740741,4,2,64,5,0,0
39500,-74.0740740740741,4,2,64,70,0,0
39603,-74.0740740740741,4,2,64,5,0,0
39707,-74.0740740740741,4,2,64,70,0,0
39810,-74.0740740740741,4,2,64,5,0,0
39914,-74.0740740740741,4,2,64,70,0,0
40017,-74.0740740740741,4,2,64,5,0,0
40120,-74.0740740740741,4,2,64,70,0,0
40948,-111.111111111111,4,2,64,70,0,0
41362,-111.111111111111,4,2,64,55,0,0
41465,-111.111111111111,4,2,64,5,0,0
41569,-111.111111111111,4,2,64,55,0,0
41672,-111.111111111111,4,2,64,5,0,0
41776,-60.6060606060606,4,2,77,90,0,1
42086,-60.6060606060606,4,2,77,5,0,1
42189,-60.6060606060606,4,2,77,90,0,1
42500,-60.6060606060606,4,2,77,5,0,1
42603,-60.6060606060606,4,2,77,90,0,1
43017,-100,4,2,77,90,0,1
43120,-100,4,2,77,5,0,1
43224,-100,4,2,77,90,0,1
43327,-100,4,2,77,5,0,1
43431,-60.6060606060606,4,2,77,90,0,1
43534,-60.6060606060606,4,2,77,5,0,1
43638,-60.6060606060606,4,2,77,90,0,1
43741,-60.6060606060606,4,2,77,5,0,1
43845,-60.6060606060606,4,2,77,90,0,1
43948,-60.6060606060606,4,2,77,5,0,1
44052,-60.6060606060606,4,2,77,90,0,1
44362,-60.6060606060606,4,2,77,5,0,1
44465,-60.6060606060606,4,2,77,90,0,1
44569,-60.6060606060606,4,2,77,5,0,1
44672,-60.6060606060606,4,2,77,90,0,1
44776,-60.6060606060606,4,2,77,5,0,1
44879,-60.6060606060606,4,2,77,90,0,1
44983,-60.6060606060606,4,2,77,5,0,1
45086,-60.6060606060606,4,2,77,90,0,1
45396,-60.6060606060606,4,2,77,5,0,1
45500,-60.6060606060606,4,2,77,90,0,1
45810,-60.6060606060606,4,2,77,5,0,1
45914,-60.6060606060606,4,2,77,90,0,1
46327,-100,4,2,77,90,0,1
46431,-100,4,2,77,5,0,1
46534,-100,4,2,77,90,0,1
46638,-100,4,2,77,5,0,1
46741,-60.6060606060606,4,2,77,90,0,1
46845,-60.6060606060606,4,2,77,5,0,1
46948,-60.6060606060606,4,2,77,90,0,1
47052,-60.6060606060606,4,2,77,5,0,1
47155,-60.6060606060606,4,2,77,90,0,1
47258,-60.6060606060606,4,2,77,5,0,1
47362,-60.6060606060606,4,2,77,90,0,1
47672,-60.6060606060606,4,2,77,5,0,1
47776,-60.6060606060606,4,2,77,90,0,1
47879,-60.6060606060606,4,2,77,5,0,1
47983,-60.6060606060606,4,2,77,90,0,1
48086,-60.6060606060606,4,2,77,5,0,1
48189,-60.6060606060606,4,2,77,90,0,1
48293,-60.6060606060606,4,2,77,5,0,1
48396,-60.6060606060606,4,2,77,90,0,1
49120,-60.6060606060606,4,2,77,5,0,1
49224,-60.6060606060606,4,2,77,90,0,1
49534,-60.6060606060606,4,2,77,5,0,1
49638,-100,4,2,77,90,0,1
49741,-100,4,2,77,5,0,1
49845,-100,4,2,77,90,0,1
49948,-100,4,2,77,5,0,1
50052,-60.6060606060606,4,2,77,90,0,1
50155,-60.6060606060606,4,2,77,5,0,1
50258,-60.6060606060606,4,2,77,90,0,1
50362,-60.6060606060606,4,2,77,5,0,1
50465,-60.6060606060606,4,2,77,90,0,1
50569,-60.6060606060606,4,2,77,5,0,1
50672,-60.6060606060606,4,2,77,90,0,1
50983,-60.6060606060606,4,2,77,5,0,1
51086,-60.6060606060606,4,2,77,90,0,1
51189,-60.6060606060606,4,2,77,5,0,1
51293,-60.6060606060606,4,2,77,90,0,1
51396,-60.6060606060606,4,2,77,5,0,1
51500,-60.6060606060606,4,2,77,90,0,1
51603,-60.6060606060606,4,2,77,5,0,1
51707,-60.6060606060606,4,2,77,90,0,1
52017,-60.6060606060606,4,2,77,5,0,1
52120,-60.6060606060606,4,2,77,90,0,1
52431,-60.6060606060606,4,2,77,5,0,1
52534,-60.6060606060606,4,2,77,90,0,1
52638,-60.6060606060606,4,2,77,5,0,1
52741,-60.6060606060606,4,2,77,90,0,1
52845,-60.6060606060606,4,2,77,5,0,1
52948,-60.6060606060606,4,2,77,90,0,1
53052,-60.6060606060606,4,2,77,5,0,1
53155,-60.6060606060606,4,2,77,90,0,1
53465,-60.6060606060606,4,2,77,5,0,1
53569,-60.6060606060606,4,2,77,90,0,1
53983,-60.6060606060606,4,2,77,90,0,1
54086,-60.6060606060606,4,2,77,5,0,1
54189,-60.6060606060606,4,2,77,90,0,1
54293,-60.6060606060606,4,2,77,5,0,1
54396,-60.6060606060606,4,2,77,90,0,1
54500,-60.6060606060606,4,2,77,5,0,1
54603,-60.6060606060606,4,2,77,90,0,1
54707,-60.6060606060606,4,2,77,5,0,1
54810,-60.6060606060606,4,2,77,90,0,1
55017,-60.6060606060606,4,2,77,90,0,1
55327,-60.6060606060606,4,2,77,5,0,1
55431,-60.6060606060606,4,2,77,90,0,1
55741,-60.6060606060606,4,2,77,5,0,1
55845,-60.6060606060606,4,2,77,90,0,1
56258,-100,4,2,77,90,0,1
56362,-100,4,2,77,5,0,1
56465,-100,4,2,77,90,0,1
56569,-100,4,2,77,5,0,1
56672,-60.6060606060606,4,2,77,90,0,1
56776,-60.6060606060606,4,2,77,5,0,1
56879,-60.6060606060606,4,2,77,90,0,1
56983,-60.6060606060606,4,2,77,5,0,1
57086,-60.6060606060606,4,2,77,90,0,1
57189,-60.6060606060606,4,2,77,5,0,1
57293,-60.6060606060606,4,2,77,90,0,1
57603,-60.6060606060606,4,2,77,5,0,1
57707,-60.6060606060606,4,2,77,90,0,1
57810,-60.6060606060606,4,2,77,5,0,1
57914,-60.6060606060606,4,2,77,90,0,1
58017,-60.6060606060606,4,2,77,5,0,1
58120,-60.6060606060606,4,2,77,90,0,1
58224,-60.6060606060606,4,2,77,5,0,1
58327,-60.6060606060606,4,2,77,90,0,1
58638,-60.6060606060606,4,2,77,5,0,1
58741,-60.6060606060606,4,2,77,90,0,1
59052,-60.6060606060606,4,2,77,5,0,1
59155,-60.6060606060606,4,2,77,90,0,1
59569,-100,4,2,77,90,0,1
59672,-100,4,2,77,5,0,1
59776,-100,4,2,77,90,0,1
59879,-100,4,2,77,5,0,1
59983,-60.6060606060606,4,2,77,90,0,1
60086,-60.6060606060606,4,2,77,5,0,1
60189,-60.6060606060606,4,2,77,90,0,1
60293,-60.6060606060606,4,2,77,5,0,1
60396,-60.6060606060606,4,2,77,90,0,1
60500,-60.6060606060606,4,2,77,5,0,1
60603,-60.6060606060606,4,2,77,90,0,1
60914,-60.6060606060606,4,2,77,5,0,1
61017,-60.6060606060606,4,2,77,90,0,1
61120,-60.6060606060606,4,2,77,5,0,1
61224,-60.6060606060606,4,2,77,90,0,1
61327,-60.6060606060606,4,2,77,5,0,1
61431,-60.6060606060606,4,2,77,90,0,1
61534,-60.6060606060606,4,2,77,5,0,1
61638,-60.6060606060606,4,2,77,90,0,1
61948,-60.6060606060606,4,2,77,5,0,1
62052,-60.6060606060606,4,2,77,90,0,1
62155,-60.6060606060606,4,2,77,5,0,1
62258,-60.6060606060606,4,2,77,90,0,1
62362,-60.6060606060606,4,2,77,5,0,1
62465,-60.6060606060606,4,2,77,90,0,1
62879,-100,4,2,77,90,0,1
62983,-100,4,2,77,5,0,1
63086,-100,4,2,77,90,0,1
63189,-100,4,2,77,5,0,1
63293,-60.6060606060606,4,2,77,90,0,1
63396,-60.6060606060606,4,2,77,5,0,1
63500,-60.6060606060606,4,2,77,90,0,1
63603,-60.6060606060606,4,2,77,5,0,1
63707,-60.6060606060606,4,2,77,90,0,1
63810,-60.6060606060606,4,2,77,5,0,1
63914,-60.6060606060606,4,2,77,90,0,1
64224,-60.6060606060606,4,2,77,5,0,1
64327,-60.6060606060606,4,2,77,90,0,1
64431,-60.6060606060606,4,2,77,5,0,1
64534,-60.6060606060606,4,2,77,90,0,1
64638,-60.6060606060606,4,2,77,5,0,1
64741,-60.6060606060606,4,2,77,90,0,1
64845,-60.6060606060606,4,2,77,5,0,1
64948,-60.6060606060606,4,2,77,90,0,1
65258,-60.6060606060606,4,2,77,5,0,1
65362,-60.6060606060606,4,2,77,90,0,1
65672,-60.6060606060606,4,2,77,5,0,1
65776,-60.6060606060606,4,2,77,90,0,1
65879,-60.6060606060606,4,2,77,5,0,1
65983,-60.6060606060606,4,2,77,90,0,1
66086,-60.6060606060606,4,2,77,5,0,1
66189,-60.6060606060606,4,2,77,90,0,1
66293,-60.6060606060606,4,2,77,5,0,1
66396,-60.6060606060606,4,2,77,90,0,1
66707,-60.6060606060606,4,2,77,5,0,1
66810,-60.6060606060606,4,2,77,90,0,1
67224,-60.6060606060606,4,2,77,90,0,1
67327,-60.6060606060606,4,2,77,5,0,1
67431,-60.6060606060606,4,2,77,90,0,1
67534,-60.6060606060606,4,2,77,5,0,1
67638,-60.6060606060606,4,2,77,90,0,1
67741,-60.6060606060606,4,2,77,5,0,1
67845,-50,4,2,77,95,0,1
67948,-50,4,2,77,5,0,1
68052,-50,4,2,77,95,0,1
68155,-50,4,2,77,5,0,1
68258,-74.0740740740741,4,2,77,90,0,0
68672,-74.0740740740741,4,2,77,75,0,0
68776,-74.0740740740741,4,2,77,5,0,0
68879,-74.0740740740741,4,2,77,75,0,0
68983,-74.0740740740741,4,2,77,5,0,0
69086,-74.0740740740741,4,2,77,75,0,0
69500,-74.0740740740741,4,2,77,75,0,0
70017,-74.0740740740741,4,2,77,5,0,0
70120,-74.0740740740741,4,2,77,75,0,0
70224,-74.0740740740741,4,2,77,5,0,0
70327,-74.0740740740741,4,2,77,75,0,0
70638,-74.0740740740741,4,2,77,5,0,0
70741,-74.0740740740741,4,2,77,75,0,0
71155,-74.0740740740741,4,2,77,75,0,0
72086,-74.0740740740741,4,2,77,5,0,0
72189,-74.0740740740741,4,2,77,75,0,0
72293,-74.0740740740741,4,2,77,5,0,0
72396,-74.0740740740741,4,2,77,75,0,0
72810,-74.0740740740741,4,2,77,75,0,0
73327,-74.0740740740741,4,2,77,5,0,0
73431,-74.0740740740741,4,2,77,75,0,0
73534,-74.0740740740741,4,2,77,5,0,0
73638,-74.0740740740741,4,2,77,75,0,0
73948,-74.0740740740741,4,2,77,5,0,0
74052,-74.0740740740741,4,2,77,75,0,0
74155,-74.0740740740741,4,2,77,5,0,0
74258,-74.0740740740741,4,2,77,75,0,0
74465,-74.0740740740741,4,2,77,75,0,0
74569,-74.0740740740741,4,2,77,5,0,0
74672,-74.0740740740741,4,2,77,75,0,0
74776,-74.0740740740741,4,2,77,5,0,0
74879,-74.0740740740741,4,2,77,75,0,0
75396,-74.0740740740741,4,2,77,5,0,0
75500,-74.0740740740741,4,2,77,75,0,0
75603,-74.0740740740741,4,2,77,5,0,0
75707,-74.0740740740741,4,2,77,75,0,0
76120,-74.0740740740741,4,2,77,75,0,0
76638,-74.0740740740741,4,2,77,5,0,0
76741,-74.0740740740741,4,2,77,75,0,0
76845,-74.0740740740741,4,2,77,5,0,0
76948,-74.0740740740741,4,2,77,75,0,0
77258,-74.0740740740741,4,2,77,5,0,0
77362,-74.0740740740741,4,2,77,75,0,0
77776,-74.0740740740741,4,2,77,75,0,0
78707,-74.0740740740741,4,2,77,5,0,0
78810,-74.0740740740741,4,2,77,75,0,0
78914,-74.0740740740741,4,2,77,5,0,0
79017,-74.0740740740741,4,2,77,75,0,0
79431,-74.0740740740741,4,2,77,75,0,0
79948,-74.0740740740741,4,2,77,5,0,0
80052,-74.0740740740741,4,2,77,75,0,0
80155,-74.0740740740741,4,2,77,5,0,0
80258,-74.0740740740741,4,2,77,75,0,0
80362,-74.0740740740741,4,2,77,5,0,0
80465,-74.0740740740741,4,2,77,75,0,0
80569,-74.0740740740741,4,2,77,5,0,0
80672,-74.0740740740741,4,2,77,75,0,0
80776,-74.0740740740741,4,2,77,5,0,0
80879,-74.0740740740741,4,2,77,75,0,0
81086,-74.0740740740741,4,2,77,75,0,0
81189,-74.0740740740741,4,2,77,5,0,0
81293,-74.0740740740741,4,2,77,75,0,0
81396,-74.0740740740741,4,2,77,5,0,0
81500,-66.6666666666667,4,2,77,75,0,0
81810,-66.6666666666667,4,2,77,5,0,0
81914,-66.6666666666667,4,2,77,75,0,0
82017,-66.6666666666667,4,2,77,5,0,0
82120,-66.6666666666667,4,2,77,75,0,0
82224,-66.6666666666667,4,2,77,5,0,0
82327,-66.6666666666667,4,2,77,75,0,0
82741,-66.6666666666667,4,2,77,75,0,0
83155,-66.6666666666667,4,2,77,75,0,0
83258,-66.6666666666667,4,2,77,5,0,0
83362,-66.6666666666667,4,2,77,75,0,0
83465,-66.6666666666667,4,2,77,5,0,0
83569,-66.6666666666667,4,2,77,75,0,0
83879,-66.6666666666667,4,2,77,5,0,0
83983,-66.6666666666667,4,2,77,75,0,0
84396,-66.6666666666667,4,2,77,75,0,0
85120,-66.6666666666667,4,2,77,5,0,0
85224,-66.6666666666667,4,2,77,75,0,0
85327,-66.6666666666667,4,2,77,5,0,0
85431,-66.6666666666667,4,2,77,75,0,0
85534,-66.6666666666667,4,2,77,5,0,0
85638,-66.6666666666667,4,2,77,75,0,0
86052,-66.6666666666667,4,2,77,75,0,0
86569,-66.6666666666667,4,2,77,5,0,0
86672,-66.6666666666667,4,2,77,75,0,0
86776,-66.6666666666667,4,2,77,5,0,0
86879,-66.6666666666667,4,2,77,75,0,0
87189,-66.6666666666667,4,2,77,5,0,0
87293,-66.6666666666667,4,2,77,75,0,0
87396,-66.6666666666667,4,2,77,5,0,0
87500,-66.6666666666667,4,2,77,75,0,0
87707,-66.6666666666667,4,2,77,75,0,0
87810,-66.6666666666667,4,2,77,5,0,0
87914,-66.6666666666667,4,2,77,75,0,0
88017,-66.6666666666667,4,2,77,5,0,0
88120,-66.6666666666667,4,2,77,75,0,0
88431,-66.6666666666667,4,2,77,5,0,0
88534,-66.6666666666667,4,2,77,75,0,0
88638,-66.6666666666667,4,2,77,5,0,0
88741,-66.6666666666667,4,2,77,75,0,0
88845,-66.6666666666667,4,2,77,5,0,0
88948,-66.6666666666667,4,2,77,75,0,0
89362,-66.6666666666667,4,2,77,75,0,0
89879,-66.6666666666667,4,2,77,5,0,0
89983,-66.6666666666667,4,2,77,75,0,0
90086,-66.6666666666667,4,2,77,5,0,0
90189,-66.6666666666667,4,2,77,75,0,0
90500,-66.6666666666667,4,2,77,5,0,0
90603,-66.6666666666667,4,2,77,75,0,0
91017,-66.6666666666667,4,2,77,75,0,0
91741,-66.6666666666667,4,2,77,5,0,0
91845,-66.6666666666667,4,2,77,75,0,0
91948,-66.6666666666667,4,2,77,5,0,0
92052,-66.6666666666667,4,2,77,75,0,0
92155,-66.6666666666667,4,2,77,5,0,0
92258,-66.6666666666667,4,2,77,75,0,0
92672,-66.6666666666667,4,2,77,75,0,0
92983,-66.6666666666667,4,2,77,5,0,0
93086,-66.6666666666667,4,2,77,75,0,0
93189,-66.6666666666667,4,2,77,5,0,0
93293,-66.6666666666667,4,2,77,75,0,0
93396,-66.6666666666667,4,2,77,5,0,0
93500,-66.6666666666667,4,2,77,75,0,0
93603,-66.6666666666667,4,2,77,5,0,0
93707,-66.6666666666667,4,2,77,75,0,0
93914,-66.6666666666667,4,2,77,75,0,0
94017,-66.6666666666667,4,2,77,5,0,0
94120,-66.6666666666667,4,2,77,75,0,0
94224,-66.6666666666667,4,2,77,5,0,0
94327,-66.6666666666667,4,2,77,75,0,0
94431,-66.6666666666667,4,2,77,5,0,0
94534,-66.6666666666667,4,2,77,75,0,0
94638,-66.6666666666667,4,2,77,5,0,0
94741,-166.666666666667,4,2,77,75,0,0
94845,-166.666666666667,4,2,77,40,0,0
98052,-166.666666666667,4,2,77,40,0,0
101362,-100,4,2,77,40,0,0
107465,-100,4,2,77,5,0,0
107569,-66.6666666666667,4,2,77,80,0,0
107879,-66.6666666666667,4,2,77,5,0,0
107983,-80,4,2,32,60,0,0
108086,-80,4,2,32,5,0,0
108189,-80,4,2,32,60,0,0
108293,-80,4,2,32,5,0,0
108396,-80,4,2,32,60,0,0
108500,-80,4,2,32,5,0,0
108603,-80,4,2,32,60,0,0
108707,-80,4,2,32,5,0,0
108810,-80,4,2,32,60,0,0
109534,-80,4,2,32,5,0,0
109638,-80,4,2,32,60,0,0
110569,-80,4,2,32,5,0,0
110672,-80,4,2,32,60,0,0
110776,-80,4,2,32,5,0,0
110879,-80,4,2,32,60,0,0
110983,-80,4,2,32,5,0,0
111086,-80,4,2,32,60,0,0
111189,-80,4,2,32,5,0,0
111293,-80,4,2,32,60,0,0
111396,-80,4,2,32,5,0,0
111500,-80,4,2,32,60,0,0
111603,-80,4,2,32,5,0,0
111707,-80,4,2,32,60,0,0
111810,-80,4,2,32,5,0,0
111914,-80,4,2,32,60,0,0
112017,-80,4,2,32,5,0,0
112120,-80,4,2,32,60,0,0
112741,-74.0740740740741,4,2,32,60,0,0
113052,-74.0740740740741,4,2,32,5,0,0
113155,-74.0740740740741,4,2,32,60,0,0
113879,-74.0740740740741,4,2,32,5,0,0
113983,-74.0740740740741,4,2,32,60,0,0
114086,-74.0740740740741,4,2,32,5,0,0
114189,-74.0740740740741,4,2,77,60,0,0
114396,-74.0740740740741,4,2,64,60,0,0
114603,-80,4,2,32,60,0,0
114707,-80,4,2,32,5,0,0
114810,-80,4,2,32,60,0,0
114914,-80,4,2,32,5,0,0
115017,-80,4,2,32,60,0,0
115120,-80,4,2,32,5,0,0
115224,-80,4,2,32,60,0,0
115327,-80,4,2,32,5,0,0
115431,-80,4,2,32,60,0,0
116155,-80,4,2,32,5,0,0
116258,-80,4,2,32,60,0,0
116879,-80,4,2,32,5,0,0
116983,-80,4,2,32,60,0,0
117603,-80,4,2,32,5,0,0
117707,-80,4,2,32,60,0,0
117810,-80,4,2,32,5,0,0
117914,-80,4,2,32,60,0,0
118017,-80,4,2,32,5,0,0
118120,-80,4,2,32,60,0,0
118224,-80,4,2,32,5,0,0
118327,-80,4,2,32,60,0,0
118431,-80,4,2,32,5,0,0
118534,-80,4,2,32,60,0,0
118638,-80,4,2,32,5,0,0
118741,-80,4,2,32,60,0,0
119362,-74.0740740740741,4,2,32,60,0,0
119672,-74.0740740740741,4,2,32,5,0,0
119776,-74.0740740740741,4,2,32,60,0,0
120500,-74.0740740740741,4,2,32,5,0,0
120603,-74.0740740740741,4,2,32,60,0,0
120707,-74.0740740740741,4,2,32,5,0,0
120810,-74.0740740740741,4,2,77,60,0,0
121017,-74.0740740740741,4,2,64,60,0,0
121224,-66.6666666666667,4,2,64,70,0,0
121327,-66.6666666666667,4,2,64,5,0,0
121431,-66.6666666666667,4,2,64,70,0,0
121534,-66.6666666666667,4,2,64,5,0,0
121638,-66.6666666666667,4,2,64,70,0,0
121741,-66.6666666666667,4,2,64,5,0,0
121845,-66.6666666666667,4,2,64,70,0,0
121948,-66.6666666666667,4,2,64,5,0,0
122052,-66.6666666666667,4,2,64,70,0,0
122776,-66.6666666666667,4,2,64,5,0,0
122879,-66.6666666666667,4,2,64,70,0,0
123810,-66.6666666666667,4,2,64,5,0,0
123914,-66.6666666666667,4,2,64,70,0,0
124017,-66.6666666666667,4,2,64,5,0,0
124120,-66.6666666666667,4,2,64,70,0,0
124224,-66.6666666666667,4,2,64,5,0,0
124327,-66.6666666666667,4,2,64,70,0,0
124638,-66.6666666666667,4,2,64,5,0,0
124741,-66.6666666666667,4,2,64,70,0,0
124845,-66.6666666666667,4,2,64,5,0,0
124948,-66.6666666666667,4,2,64,70,0,0
125052,-66.6666666666667,4,2,64,5,0,0
125155,-66.6666666666667,4,2,64,70,0,0
125258,-66.6666666666667,4,2,64,5,0,0
125362,-66.6666666666667,4,2,64,70,0,0
126500,-66.6666666666667,4,2,64,5,0,0
126603,-66.6666666666667,4,2,64,70,0,0
126914,-66.6666666666667,4,2,64,5,0,0
127017,-66.6666666666667,4,2,64,70,0,0
127327,-66.6666666666667,4,2,64,5,0,0
127431,-66.6666666666667,4,2,64,70,0,0
127534,-66.6666666666667,4,2,64,5,0,0
127638,-66.6666666666667,4,2,64,70,0,0
127741,-66.6666666666667,4,2,64,5,0,0
127845,-66.6666666666667,4,2,64,70,0,0
130431,-66.6666666666667,4,2,64,5,0,0
130534,-66.6666666666667,4,2,64,70,0,0
130845,-66.6666666666667,4,2,64,5,0,0
130948,-66.6666666666667,4,2,64,70,0,0
131052,-66.6666666666667,4,2,64,5,0,0
131155,-66.6666666666667,4,2,64,70,0,0
131465,-66.6666666666667,4,2,64,5,0,0
131569,-66.6666666666667,4,2,64,70,0,0
131879,-66.6666666666667,4,2,64,5,0,0
131983,-66.6666666666667,4,2,64,70,0,0
132086,-66.6666666666667,4,2,64,5,0,0
132189,-66.6666666666667,4,2,64,70,0,0
132500,-66.6666666666667,4,2,64,5,0,0
132603,-66.6666666666667,4,2,64,70,0,0
132707,-66.6666666666667,4,2,64,5,0,0
132810,-66.6666666666667,4,2,64,70,0,0
133327,-66.6666666666667,4,2,0,70,0,0
133431,-66.6666666666667,4,2,99,70,0,0
133534,-66.6666666666667,4,2,0,70,0,0
133638,-100,4,2,77,70,0,0
133741,-100,4,2,77,5,0,0
133845,-100,4,2,77,70,0,0
133948,-100,4,2,77,5,0,0
134052,-100,4,2,77,70,0,0
134258,-100,4,2,64,70,0,0
134465,-166.666666666667,4,2,77,70,0,0
134569,-166.666666666667,4,2,77,40,0,0
135707,-166.666666666667,4,2,77,5,0,0
135914,-166.666666666667,4,2,77,40,0,0
137776,-100,4,2,77,40,0,0
138189,-100,4,2,77,45,0,0
138603,-100,4,2,77,50,0,0
139017,-100,4,2,77,55,0,0
139431,-100,4,2,77,60,0,0
139845,-100,4,2,77,65,0,0
140258,-100,4,2,64,80,0,0
140569,-100,4,2,64,5,0,0
140672,-100,4,2,64,40,0,0
141086,-80,4,2,99,50,0,0
141189,-80,4,2,77,50,0,0
141500,-66.6666666666667,4,2,64,60,0,0
141914,-60.6060606060606,4,2,77,90,0,1
142224,-60.6060606060606,4,2,77,5,0,1
142327,-100,4,2,77,90,0,1
142431,-100,4,2,77,5,0,1
142534,-100,4,2,77,90,0,1
142638,-100,4,2,77,5,0,1
142741,-60.6060606060606,4,2,77,90,0,1
142845,-60.6060606060606,4,2,77,5,0,1
142948,-60.6060606060606,4,2,77,90,0,1
143052,-60.6060606060606,4,2,77,5,0,1
143155,-60.6060606060606,4,2,77,90,0,1
143258,-60.6060606060606,4,2,77,5,0,1
143362,-60.6060606060606,4,2,77,90,0,1
143672,-60.6060606060606,4,2,77,5,0,1
143776,-60.6060606060606,4,2,77,90,0,1
143879,-60.6060606060606,4,2,77,5,0,1
143983,-60.6060606060606,4,2,77,90,0,1
144086,-60.6060606060606,4,2,77,5,0,1
144189,-60.6060606060606,4,2,77,90,0,1
144293,-60.6060606060606,4,2,77,5,0,1
144396,-60.6060606060606,4,2,77,90,0,1
144707,-60.6060606060606,4,2,77,5,0,1
144810,-60.6060606060606,4,2,77,90,0,1
145120,-60.6060606060606,4,2,77,5,0,1
145224,-60.6060606060606,4,2,77,90,0,1
145327,-60.6060606060606,4,2,77,5,0,1
145431,-60.6060606060606,4,2,77,90,0,1
145534,-60.6060606060606,4,2,77,5,0,1
145638,-60.6060606060606,4,2,77,90,0,1
145741,-60.6060606060606,4,2,77,5,0,1
145845,-60.6060606060606,4,2,77,90,0,1
146155,-60.6060606060606,4,2,77,5,0,1
146258,-60.6060606060606,4,2,77,90,0,1
146672,-60.6060606060606,4,2,77,90,0,1
146776,-60.6060606060606,4,2,77,5,0,1
146879,-60.6060606060606,4,2,77,90,0,1
146983,-60.6060606060606,4,2,77,5,0,1
147086,-60.6060606060606,4,2,77,90,0,1
147189,-60.6060606060606,4,2,77,5,0,1
147293,-60.6060606060606,4,2,77,90,0,1
147396,-60.6060606060606,4,2,77,5,0,1
147500,-60.6060606060606,4,2,77,90,0,1
148017,-60.6060606060606,4,2,77,5,0,1
148120,-60.6060606060606,4,2,77,90,0,1
148431,-60.6060606060606,4,2,77,5,0,1
148534,-60.6060606060606,4,2,77,90,0,1
148948,-100,4,2,77,90,0,1
149052,-100,4,2,77,5,0,1
149155,-100,4,2,77,90,0,1
149258,-100,4,2,77,5,0,1
149362,-60.6060606060606,4,2,77,90,0,1
149465,-60.6060606060606,4,2,77,5,0,1
149569,-60.6060606060606,4,2,77,90,0,1
149672,-60.6060606060606,4,2,77,5,0,1
149776,-60.6060606060606,4,2,77,90,0,1
149879,-60.6060606060606,4,2,77,5,0,1
149983,-60.6060606060606,4,2,77,90,0,1
150293,-60.6060606060606,4,2,77,5,0,1
150396,-60.6060606060606,4,2,77,90,0,1
150500,-60.6060606060606,4,2,77,5,0,1
150603,-60.6060606060606,4,2,77,90,0,1
150707,-60.6060606060606,4,2,77,5,0,1
150810,-60.6060606060606,4,2,77,90,0,1
150914,-60.6060606060606,4,2,77,5,0,1
151017,-60.6060606060606,4,2,77,90,0,1
151327,-60.6060606060606,4,2,77,5,0,1
151431,-60.6060606060606,4,2,77,90,0,1
151741,-60.6060606060606,4,2,77,5,0,1
151845,-60.6060606060606,4,2,77,90,0,1
152258,-100,4,2,77,90,0,1
152362,-100,4,2,77,5,0,1
152465,-100,4,2,77,90,0,1
152569,-100,4,2,77,5,0,1
152672,-60.6060606060606,4,2,77,90,0,1
152776,-60.6060606060606,4,2,77,5,0,1
152879,-60.6060606060606,4,2,77,90,0,1
152983,-60.6060606060606,4,2,77,5,0,1
153086,-60.6060606060606,4,2,77,90,0,1
153189,-60.6060606060606,4,2,77,5,0,1
153293,-60.6060606060606,4,2,77,90,0,1
153603,-60.6060606060606,4,2,77,5,0,1
153707,-60.6060606060606,4,2,77,90,0,1
153810,-60.6060606060606,4,2,77,5,0,1
153914,-60.6060606060606,4,2,77,90,0,1
154017,-60.6060606060606,4,2,77,5,0,1
154120,-60.6060606060606,4,2,77,90,0,1
154224,-60.6060606060606,4,2,77,5,0,1
154327,-60.6060606060606,4,2,77,90,0,1
154845,-60.6060606060606,4,2,77,5,0,1
154948,-60.6060606060606,4,2,77,90,0,1
155052,-60.6060606060606,4,2,77,5,0,1
155155,-60.6060606060606,4,2,77,90,0,1
155465,-60.6060606060606,4,2,77,5,0,1
155569,-100,4,2,77,90,0,1
155672,-100,4,2,77,5,0,1
155776,-100,4,2,77,90,0,1
155879,-100,4,2,77,5,0,1
155983,-60.6060606060606,4,2,77,90,0,1
156086,-60.6060606060606,4,2,77,5,0,1
156189,-60.6060606060606,4,2,77,90,0,1
156293,-60.6060606060606,4,2,77,5,0,1
156396,-60.6060606060606,4,2,77,90,0,1
156500,-60.6060606060606,4,2,77,5,0,1
156603,-60.6060606060606,4,2,77,90,0,1
156914,-60.6060606060606,4,2,77,5,0,1
157017,-60.6060606060606,4,2,77,90,0,1
157120,-60.6060606060606,4,2,77,5,0,1
157224,-60.6060606060606,4,2,77,90,0,1
157327,-60.6060606060606,4,2,77,5,0,1
157431,-60.6060606060606,4,2,77,90,0,1
157534,-60.6060606060606,4,2,77,5,0,1
157638,-60.6060606060606,4,2,77,90,0,1
157948,-60.6060606060606,4,2,77,5,0,1
158052,-60.6060606060606,4,2,77,90,0,1
158362,-60.6060606060606,4,2,77,5,0,1
158465,-60.6060606060606,4,2,77,90,0,1
158569,-60.6060606060606,4,2,77,5,0,1
158672,-60.6060606060606,4,2,77,90,0,1
158776,-60.6060606060606,4,2,77,5,0,1
158879,-60.6060606060606,4,2,77,90,0,1
158983,-60.6060606060606,4,2,77,5,0,1
159086,-60.6060606060606,4,2,77,90,0,1
159396,-60.6060606060606,4,2,77,5,0,1
159500,-60.6060606060606,4,2,77,90,0,1
160017,-60.6060606060606,4,2,77,5,0,1
160120,-60.6060606060606,4,2,77,90,0,1
160224,-60.6060606060606,4,2,77,5,0,1
160327,-60.6060606060606,4,2,77,90,0,1
160431,-60.6060606060606,4,2,77,5,0,1
160534,-60.6060606060606,4,2,77,90,0,1
160638,-60.6060606060606,4,2,77,5,0,1
160741,-60.6060606060606,4,2,77,90,0,1
160845,-60.6060606060606,4,2,77,90,0,0
160948,-60.6060606060606,4,2,77,90,0,1
161258,-60.6060606060606,4,2,77,5,0,1
161362,-133.333333333333,4,2,77,90,0,1
161776,-55.5555555555556,4,2,77,90,0,1
162086,-55.5555555555556,4,2,77,5,0,1
162189,-100,4,2,77,90,0,1
162603,-60.6060606060606,4,2,77,90,0,1
163741,-60.6060606060606,4,2,77,5,0,1
163845,-60.6060606060606,4,2,77,90,0,1
164155,-60.6060606060606,4,2,77,5,0,1
164258,-60.6060606060606,4,2,77,90,0,1
164569,-60.6060606060606,4,2,77,5,0,1
164672,-100,4,2,77,90,0,1
165086,-60.6060606060606,4,2,77,90,0,1
165396,-60.6060606060606,4,2,77,5,0,1
165500,-100,4,2,77,90,0,1
165815,-100,4,2,77,5,0,1
165914,-60.6060606060606,4,2,77,90,0,1
167155,-60.6060606060606,4,2,99,90,0,1
167569,-60.6060606060606,4,2,77,90,0,1
167879,-60.6060606060606,4,2,77,5,0,1
167983,-100,4,2,77,90,0,1
168396,-60.6060606060606,4,2,77,90,0,1
168707,-60.6060606060606,4,2,77,5,0,1
168810,-100,4,2,77,90,0,1
169120,-100,4,2,77,5,0,1
169224,-60.6060606060606,4,2,77,90,0,1
170362,-60.6060606060606,4,2,77,5,0,1
170465,-60.6060606060606,4,2,77,90,0,1
170776,-60.6060606060606,4,2,77,5,0,1
170879,-60.6060606060606,4,2,77,90,0,1
171189,-60.6060606060606,4,2,77,5,0,1
171293,-100,4,2,77,90,0,1
171707,-60.6060606060606,4,2,77,90,0,1
172017,-60.6060606060606,4,2,77,5,0,1
172120,-60.6060606060606,4,2,77,90,0,1
172224,-60.6060606060606,4,2,77,5,0,1
172327,-60.6060606060606,4,2,77,90,0,1
172638,-60.6060606060606,4,2,77,5,0,1
172741,-60.6060606060606,4,2,77,90,0,1
172845,-60.6060606060606,4,2,77,5,0,1
172948,-60.6060606060606,4,2,77,90,0,1
173258,-60.6060606060606,4,2,77,5,0,1
173362,-60.6060606060606,4,2,77,90,0,1
173465,-60.6060606060606,4,2,77,5,0,1
173569,-60.6060606060606,4,2,77,90,0,1
173672,-60.6060606060606,4,2,77,5,0,1
173776,-60.6060606060606,4,2,77,90,0,1
173879,-60.6060606060606,4,2,77,5,0,1
173983,-60.6060606060606,4,2,77,90,0,1
174189,-74.0740740740741,4,2,77,80,0,0
174500,-74.0740740740741,4,2,77,5,0,0
174603,-74.0740740740741,4,2,77,80,0,0
176776,-74.0740740740741,4,2,77,5,0,0
176879,-74.0740740740741,4,2,77,80,0,0
176983,-74.0740740740741,4,2,77,5,0,0
177086,-74.0740740740741,4,2,77,80,0,0
177189,-74.0740740740741,4,2,77,5,0,0
177293,-74.0740740740741,4,2,77,80,0,0
177396,-74.0740740740741,4,2,77,5,0,0
177500,-74.0740740740741,4,2,77,80,0,0
177810,-74.0740740740741,4,2,77,5,0,0
177914,-74.0740740740741,4,2,77,80,0,0

[Colours]
Combo1 : 255,253,174
Combo2 : 151,255,255
Combo3 : 43,253,190

[HitObjects]
154,105,2052,6,0,L|162:59,1,43.75,6|0,1:2|0:0,0:0:0:0:
72,30,2258,2,0,L|64:74,1,43.75,0|0,0:2|0:0,0:0:0:0:
169,99,2465,6,0,L|177:53,1,43.75,10|0,0:2|0:0,0:0:0:0:
87,24,2672,2,0,L|79:68,1,43.75,0|0,0:2|0:0,0:0:0:0:
235,144,2879,6,0,B|179:144|179:144|163:154|163:154|107:154,1,131.25,10|2,0:0|0:0,0:0:0:0:
106,154,3500,2,0,P|120:138|101:126,1,43.75,2|0,0:0|0:0,0:0:0:0:
60,230,3707,5,10,0:0:0:0:
141,320,3914,1,0,0:0:0:0:
222,230,4120,2,0,B|249:230|249:230|290:230|283:214|320:214|320:214|350:214,1,131.25,10|0,0:0|0:0,0:0:0:0:
431,269,4534,6,0,B|433:280|433:280|425:287|425:287|423:276|423:276|431:269,1,43.75,10|0,0:0|0:0,0:0:0:0:
506,231,4741,2,0,B|517:232|517:232|521:242|521:242|511:240|511:240|506:231,1,43.75,2|0,0:0|0:0,0:0:0:0:
493,148,4948,2,0,B|497:137|497:137|508:136|508:136|504:146|504:146|493:148,1,43.75,10|0,0:0|0:0,0:0:0:0:
409,143,5155,2,0,B|400:135|400:135|401:126|401:126|410:131|410:131|409:143,1,43.75,2|0,0:0|0:0,0:0:0:0:
265,113,5362,6,0,P|270:137|259:167,1,43.75,10|0,0:0|0:0,0:0:0:0:
306,240,5569,2,0,P|287:256|256:261,1,43.75,0|0,0:0|0:0,0:0:0:0:
282,127,5776,6,0,P|280:151|262:177,1,43.75,10|0,0:0|0:0,0:0:0:0:
302,262,5983,2,0,P|280:273|248:270,1,43.75,0|0,0:0|0:0,0:0:0:0:
203,384,6189,6,0,P|158:338|95:339,1,131.25,10|2,0:0|0:0,0:0:0:0:
299,183,6810,6,0,B|276:183|277:154|302:138|328:153|316:198|316:198|307:241,1,141.750000540733,2|0,0:0|0:0,0:0:0:0:
307,239,7224,1,2,0:0:0:0:
179,230,7431,1,10,0:0:0:0:
158,361,7638,2,0,B|213:355|213:355|238:367|238:367|298:360,1,141.750000540733,2|0,0:0|0:0,0:0:0:0:
386,378,8052,6,0,B|389:368|395:369|402:371|408:379|401:389|392:390|386:386|386:378,1,47.2500001802444,2|0,0:0|0:0,0:0:0:0:
411,278,8258,2,0,B|420:274|423:279|427:284|427:296|413:296|406:291|405:284|411:278,1,47.2500001802444,10|0,0:0|0:0,0:0:0:0:
512,247,8465,2,0,B|521:250|520:256|520:264|511:268|502:263|499:253|503:247|512:247,1,47.2500001802444,2|0,0:0|0:0,0:0:0:0:
494,124,8672,6,0,L|439:118,1,43.75,10|0,0:0|0:0,0:0:0:0:
365,140,8879,2,0,L|310:134,1,43.75,0|0,0:0|0:0,0:0:0:0:
482,110,9086,6,0,L|427:104,1,43.75,10|0,0:0|0:0,0:0:0:0:
353,125,9293,2,0,L|298:119,1,43.75,0|0,0:0|0:0,0:0:0:0:
193,55,9500,6,0,B|210:88|202:122|183:108|176:145|192:180,1,131.25,10|2,0:0|0:0,0:0:0:0:
193,181,10120,2,0,L|248:175,1,43.75,2|0,0:0|0:0,0:0:0:0:
319,167,10327,5,10,0:0:0:0:
188,92,10534,1,0,0:0:0:0:
63,156,10741,2,0,P|47:193|68:235,1,87.5,10|0,0:0|0:0,0:0:0:0:
139,275,11052,2,0,P|74:267|26:307,1,131.25,2|2,0:0|0:0,0:0:0:0:
234,175,11569,2,0,L|225:116,1,43.75,10|0,0:0|0:0,0:0:0:0:
313,165,11776,2,0,L|304:106,1,43.75,2|0,0:0|0:0,0:0:0:0:
293,263,11983,6,0,P|277:272|293:281,1,43.75,10|0,0:0|0:0,0:0:0:0:
381,272,12189,2,0,L|438:272,1,43.75,0|0,0:0|0:0,0:0:0:0:
293,280,12396,6,0,P|277:289|293:298,1,43.75,10|0,0:0|0:0,0:0:0:0:
381,289,12603,2,0,L|438:289,1,43.75,0|0,0:0|0:0,0:0:0:0:
334,384,12810,6,0,P|281:347|203:370,1,131.25,10|2,0:0|0:0,0:0:0:0:
73,202,13431,6,0,B|54:91|54:91|78:115,1,141.750000540733,2|0,0:0|0:0,0:0:0:0:
74,111,13845,1,2,0:0:0:0:
53,220,14052,1,10,0:0:0:0:
24,332,14258,2,0,B|61:332|61:332|96:332|84:350|127:350|127:350|164:350,1,141.750000540733,2|0,0:0|0:0,0:0:0:0:
191,376,14672,6,0,P|198:350|184:324,1,47.2500001802444,2|0,0:0|0:0,0:0:0:0:
307,354,14879,2,0,P|314:328|300:302,1,47.2500001802444,10|0,0:0|0:0,0:0:0:0:
424,330,15086,2,0,P|431:304|417:278,1,47.2500001802444,2|0,0:0|0:0,0:0:0:0:
392,154,15293,6,0,B|401:145|412:145|412:145|401:145|393:135,1,43.75,6|0,1:2|0:0,0:0:0:0:
279,104,15500,2,0,B|271:114|260:114|260:114|271:114|279:124,1,43.75,0|0,0:0|0:0,0:0:0:0:
391,173,15707,6,0,B|399:163|410:163|410:163|399:163|391:153,1,43.75,10|0,0:2|0:0,0:0:0:0:
277,122,15914,2,0,B|269:132|258:132|258:132|269:132|277:142,1,43.75,0|0,0:0|0:0,0:0:0:0:
320,277,16120,6,0,B|330:354|330:354|384:349,1,131.25,10|2,0:0|0:0,0:0:0:0:
383,349,16741,2,0,P|365:357|375:373,1,43.75,2|0,0:0|0:0,0:0:0:0:
433,273,16948,5,10,0:0:0:0:
387,184,17155,1,0,0:0:0:0:
299,123,17362,1,10,0:0:0:0:
187,104,17569,1,0,0:0:0:0:
72,125,17776,6,0,B|62:127|60:121|58:115|60:106|72:107|78:113|77:121|72:125,1,43.75,10|0,0:0|0:0,0:0:0:0:
187,104,17983,2,0,B|177:100|179:95|181:88|188:83|197:90|198:99|194:104|187:104,1,43.75,2|0,0:0|0:0,0:0:0:0:
299,123,18189,2,0,B|291:114|295:110|300:105|309:105|314:114|310:122|304:125|299:123,1,43.75,10|0,0:0|0:0,0:0:0:0:
387,183,18396,2,0,B|382:174|387:171|393:168|402:171|403:182|398:188|391:188|387:183,1,43.75,2|0,0:0|0:0,0:0:0:0:
485,87,18603,6,0,P|502:83|490:64,1,43.75,10|0,0:0|0:0,0:0:0:0:
393,45,18810,2,0,P|410:41|398:22,1,43.75,0|0,0:0|0:0,0:0:0:0:
477,108,19017,6,0,P|494:104|482:85,1,43.75,10|0,0:0|0:0,0:0:0:0:
385,66,19224,2,0,P|402:62|390:43,1,43.75,0|0,0:0|0:0,0:0:0:0:
405,191,19431,6,0,P|452:149|517:155,1,131.25,10|2,0:0|0:0,0:0:0:0:
260,121,20052,6,0,B|210:108|210:108|175:123|175:123|122:110,1,141.750000540733,2|0,0:0|0:0,0:0:0:0:
125,111,20465,1,2,0:0:0:0:
31,220,20672,1,10,0:0:0:0:
106,342,20879,2,0,P|155:296|234:299,1,141.750000540733,2|0,0:0|0:0,0:0:0:0:
214,316,21293,6,0,L|207:250,1,47.2500001802444,2|0,0:0|0:0,0:0:0:0:
248,185,21500,2,0,L|294:180,1,47.2500001802444,10|0,0:0|0:0,0:0:0:0:
193,111,21707,2,0,L|186:45,1,47.2500001802444,2|0,0:0|0:0,0:0:0:0:
302,13,21914,6,0,P|296:34|305:57,1,43.75,2|0,1:2|0:0,0:0:0:0:
396,84,22120,2,0,P|402:63|393:40,1,43.75,0|0,0:0|0:0,0:0:0:0:
290,22,22327,6,0,P|284:43|293:66,1,43.75,10|0,0:0|0:0,0:0:0:0:
384,93,22534,2,0,P|390:72|381:49,1,43.75,0|0,0:0|0:0,0:0:0:0:
355,202,22741,6,0,B|454:186|454:186|437:212,1,131.25,10|2,0:0|0:0,0:0:0:0:
437,211,23362,2,0,L|426:159,1,43.75,2|0,0:0|0:0,0:0:0:0:
455,297,23569,5,10,0:0:0:0:
316,285,23776,1,0,0:0:0:0:
177,273,23983,2,0,P|173:301|178:273,1,87.5,10|0,0:0|0:0,0:0:0:0:
224,365,24293,2,0,P|170:332|101:347,1,131.25,2|2,0:0|0:0,0:0:0:0:
8,191,24810,2,0,L|49:157,1,43.75,10|0,0:0|0:0,0:0:0:0:
43,190,25017,2,0,L|9:162,1,43.75,2|0,0:0|0:0,0:0:0:0:
129,130,25224,6,0,B|146:145|146:145|161:130,1,43.75,10|0,0:0|0:0,0:0:0:0:
260,129,25431,2,0,P|276:118|260:107,1,43.75
162,107,25638,6,0,P|146:118|162:129,1,43.75,10|10,0:0|0:0,0:0:0:0:
260,129,25845,2,0,B|277:142|277:142|295:129,1,43.75
214,245,26052,6,0,L|214:387,1,131.25,10|2,0:0|0:0,0:0:0:0:
214,376,26672,2,0,B|230:371|237:380|237:380|230:372|230:353,1,43.75,2|0,0:0|0:0,0:0:0:0:
131,295,26879,5,8,0:0:0:0:
103,316,26983,1,0,3:2:0:0:
68,321,27086,1,2,3:2:0:0:
35,308,27189,1,0,3:2:0:0:
14,279,27293,1,10,3:2:0:0:
9,244,27396,1,0,3:2:0:0:
23,212,27500,1,2,3:2:0:0:
51,192,27603,1,0,3:2:0:0:
85,185,27707,6,0,L|25:172,1,52.5000020027161,10|0,0:0|0:0,0:0:0:0:
171,90,27914,2,0,L|192:150,1,52.5000020027161,2|0,0:0|0:0,0:0:0:0:
186,272,28120,2,0,L|249:230,1,52.5000020027161,10|8,3:2|3:2,0:0:0:0:
351,171,28327,2,0,L|276:153,1,52.5000020027161,6|4,3:0|3:0,0:0:0:0:
329,351,28534,6,0,P|383:312|459:327,1,141.750000540733,6|0,1:2|0:0,0:0:0:0:
453,323,28948,1,10,0:0:0:0:
511,198,29155,1,0,1:2:0:0:
509,179,29258,1,0,3:0:0:0:
508,160,29362,1,2,3:2:0:0:
506,141,29465,1,0,3:0:0:0:
325,162,29672,2,0,P|360:191|407:176,1,94.5000003604889,2|0,0:0|0:0,0:0:0:0:
404,179,29983,2,0,L|400:131,1,47.2500001802444,2|0,1:2|0:0,0:0:0:0:
398,288,30189,6,0,B|390:274|398:259|433:255|436:295|436:295|439:333|474:335|482:322|473:302,1,141.750000540733,2|0,1:2|0:0,0:0:0:0:
477,315,30603,1,10,0:0:0:0:
342,384,30810,1,0,1:2:0:0:
319,366,30914,1,0,3:0:0:0:
291,360,31017,1,2,3:2:0:0:
263,364,31120,1,0,3:0:0:0:
164,287,31327,2,0,P|129:278|163:267,1,94.5000003604889,2|0,0:0|0:0,0:0:0:0:
171,383,31638,1,2,1:2:0:0:
171,383,31741,1,0,1:2:0:0:
171,383,31845,6,0,P|127:329|58:329,1,141.750000540733,2|0,1:2|0:0,0:0:0:0:
59,328,32258,1,10,0:0:0:0:
97,142,32465,1,0,1:2:0:0:
99,165,32569,1,0,3:0:0:0:
101,186,32672,1,2,3:2:0:0:
103,209,32776,1,0,3:0:0:0:
222,65,32983,2,0,L|232:170,1,94.5000003604889,2|0,0:0|0:0,0:0:0:0:
230,159,33293,2,0,P|251:156|239:127,1,47.2500001802444,2|0,1:2|0:0,0:0:0:0:
305,271,33500,6,0,B|270:291|239:272|239:272|205:252|171:272,1,141.750000540733,2|0,1:2|0:0,0:0:0:0:
170,272,33914,2,0,B|205:292|236:273|236:273|270:253|304:270,1,141.750000540733,2|0,1:2|0:0,0:0:0:0:
407,293,34327,5,2,1:2:0:0:
505,147,34638,1,2,0:0:0:0:
361,46,34948,1,2,0:0:0:0:
259,93,35155,6,0,B|139:60|139:60|88:47|59:88|62:130|79:160|117:179|165:164|179:128|166:96,1,378.000001441956,2|2,1:2|1:2,0:0:0:0:
51,286,36293,1,0,1:2:0:0:
51,286,36396,2,0,B|36:292|20:283|19:265|28:255|43:248|61:253|66:278|51:286,1,94.5000003604889,10|2,0:0|1:2,0:0:0:0:
99,384,36810,5,2,1:2:0:0:
183,301,37017,1,2,0:0:0:0:
313,281,37224,1,8,0:0:0:0:
453,308,37431,2,0,P|484:245|445:192,1,141.750000540733,2|0,0:0|0:0,0:0:0:0:
436,210,37845,6,0,L|491:184,1,47.2500001802444,2|0,0:0|1:2,0:0:0:0:
308,238,38052,2,0,L|334:293,1,47.2500001802444,10|0,0:0|0:0,0:0:0:0:
339,148,38258,2,0,L|313:93,1,47.2500001802444,2|0,1:2|0:0,0:0:0:0:
202,155,38465,6,0,B|162:177|135:164|135:164|162:151|202:176,1,141.750000540733,2|0,1:2|0:0,0:0:0:0:
272,285,38879,2,0,P|342:296|390:244,1,141.750000540733,10|0,0:0|0:0,0:0:0:0:
467,123,39293,6,0,B|478:123|486:111|486:111|471:111|467:123,1,47.2500001802444,2|0,1:2|1:2,0:0:0:0:
387,92,39500,2,0,B|391:80|382:70|382:70|378:83|387:92,1,47.2500001802444,2|0,2:2|0:0,0:0:0:0:
375,226,39707,2,0,B|363:231|364:246|364:246|376:237|375:227,1,47.2500001802444,10|0,0:0|0:0,0:0:0:0:
460,208,39914,2,0,B|462:219|474:225|474:225|471:208|461:208,1,47.2500001802444,2|0,1:2|0:0,0:0:0:0:
327,152,40120,5,0,1:2:0:0:
308,158,40224,1,0,1:2:0:0:
290,152,40327,1,2,1:2:0:0:
271,158,40431,1,0,1:2:0:0:
252,152,40534,1,8,0:0:0:0:
234,158,40638,1,0,1:2:0:0:
215,152,40741,1,2,1:2:0:0:
197,158,40845,1,0,1:2:0:0:
178,152,40948,5,10,0:0:0:0:
75,207,41155,1,2,0:0:0:0:
49,91,41362,6,0,L|85:88,1,31.4999990386963,6|0,3:0|0:0,0:0:0:0:
48,79,41569,2,0,L|84:76,1,31.4999990386963,6|0,3:0|0:0,0:0:0:0:
178,152,41776,6,0,B|116:156|116:156|106:44,1,173.250001652241,6|0,1:2|0:0,0:0:0:0:
265,239,42189,2,0,P|327:183|409:199,1,173.250001652241,2|0,0:0|0:0,0:0:0:0:
446,68,42603,1,10,0:0:0:0:
446,68,43017,2,0,L|456:30,1,35,2|0,0:0|0:0,0:0:0:0:
433,49,43224,2,0,L|468:56,1,35,2|0,1:2|0:0,0:0:0:0:
487,192,43431,6,0,B|492:178|506:179|514:189|510:200|501:205|492:204|487:192,1,57.7500005507469,2|0,0:0|0:0,0:0:0:0:
405,256,43638,2,0,L|390:311,1,57.7500005507469,2|0,0:0|0:0,0:0:0:0:
324,174,43845,2,0,B|315:161|323:147|323:147|332:160|324:174,1,57.7500005507469,0|0,1:2|0:0,0:0:0:0:
227,256,44052,2,0,B|108:256|108:256|91:272|61:282,1,173.250001652241,2|0,0:0|0:0,0:0:0:0:
51,252,44465,6,0,L|69:310,1,57.7500005507469,2|0,1:2|0:0,0:0:0:0:
144,163,44672,2,0,L|167:232,1,57.7500005507469,2|0,0:0|0:0,0:0:0:0:
238,76,44879,2,0,L|259:138,1,57.7500005507469,2|0,0:0|0:0,0:0:0:0:
124,11,45086,6,0,B|139:20|153:17|162:2|154:-23|114:-10|114:-10|29:19,1,173.250001652241,2|0,1:2|0:0,0:0:0:0:
0,152,45500,2,0,P|85:156|134:223,1,173.250001652241,2|0,0:0|0:0,0:0:0:0:
254,199,45914,1,10,0:0:0:0:
254,199,46327,2,0,L|263:235,1,35,2|0,0:0|0:0,0:0:0:0:
345,218,46534,2,0,L|355:254,1,35,2|0,1:2|0:0,0:0:0:0:
428,125,46741,6,0,B|439:99|439:99|427:73,1,57.7500005507469,2|0,0:0|0:0,0:0:0:0:
301,44,46948,2,0,B|313:71|313:71|302:97,1,57.7500005507469,2|0,0:0|0:0,0:0:0:0:
175,69,47155,2,0,B|186:43|186:43|173:14,1,57.7500005507469,0|0,1:2|0:0,0:0:0:0:
67,177,47362,2,0,P|129:243|203:225,1,173.250001652241,2|0,0:0|0:0,0:0:0:0:
312,192,47776,6,0,L|323:258,1,57.7500005507469,2|0,1:2|0:0,0:0:0:0:
191,168,47983,2,0,L|208:252,1,57.7500005507469,2|0,0:0|0:0,0:0:0:0:
316,97,48189,2,0,L|327:159,1,57.7500005507469,2|0,0:0|0:0,0:0:0:0:
449,228,48396,5,10,0:0:0:0:
465,243,48500,1,8,0:0:0:0:
483,257,48603,1,4,0:3:0:0:
462,267,48707,1,4,0:3:0:0:
443,281,48810,6,0,P|379:230|292:252,1,173.250001652241,2|0,0:0|0:0,0:0:0:0:
129,194,49224,2,0,B|128:213|106:220|85:204|97:182|97:182|202:166,1,173.250001652241,14|0,0:0|0:0,0:0:0:0:
302,87,49638,2,0,B|303:92|309:95|317:93|321:86|316:81|309:79|303:83|302:86,1,35,2|0,0:0|0:0,0:0:0:0:
198,20,49845,2,0,B|197:25|191:28|183:26|179:19|184:14|191:12|197:16|198:19,1,35,2|0,1:2|0:0,0:0:0:0:
302,88,50052,6,0,L|361:81,1,57.7500005507469,2|0,0:0|0:0,0:0:0:0:
205,167,50258,2,0,L|141:158,1,57.7500005507469,2|0,0:0|0:0,0:0:0:0:
295,249,50465,2,0,L|357:241,1,57.7500005507469,0|0,1:2|0:0,0:0:0:0:
213,328,50672,2,0,B|146:319|146:319|114:337|114:337|46:328,1,173.250001652241,2|0,0:0|0:2,0:0:0:0:
37,223,51086,6,0,B|23:217|23:217|19:205|19:205|32:208|32:208|37:223,1,57.7500005507469,2|0,1:2|0:0,0:0:0:0:
136,160,51293,2,0,B|126:148|126:148|130:135|130:135|139:144|139:144|136:160,1,57.7500005507469,2|0,0:0|0:0,0:0:0:0:
259,166,51500,2,0,B|259:150|259:150|269:142|269:142|270:156|270:156|259:166,1,57.7500005507469,2|0,1:2|0:0,0:0:0:0:
365,269,51707,6,0,P|424:262|365:255,1,173.250001652241,2|0,1:2|0:0,0:0:0:0:
471,134,52120,2,0,B|442:99|458:54|458:54|442:99|396:112,1,173.250001652241,2|0,0:0|0:0,0:0:0:0:
258,150,52534,6,0,P|267:179|252:212,1,57.7500005507469,10|0,0:0|0:0,0:0:0:0:
400,214,52741,2,0,P|388:242|355:257,1,57.7500005507469,2|0,0:0|0:0,0:0:0:0:
464,349,52948,2,0,P|439:367|403:364,1,57.7500005507469,2|0,0:0|0:0,0:0:0:0:
512,224,53155,6,0,L|501:44,1,173.250001652241,2|0,1:2|0:0,0:0:0:0:
375,33,53569,2,0,P|395:111|485:118,1,173.250001652241,2|0,1:2|1:2,0:0:0:0:
363,233,53983,6,0,B|358:247|375:254|385:245|387:229|373:221|363:233,1,57.7500005507469,2|0,0:0|0:0,0:0:0:0:
260,127,54189,2,0,B|244:129|237:115|249:103|262:102|272:117|260:127,1,57.7500005507469,10|0,0:0|0:0,0:0:0:0:
279,274,54396,2,0,B|263:274|262:292|274:299|289:296|292:280|279:274,1,57.7500005507469,2|0,1:2|0:0,0:0:0:0:
351,141,54603,2,0,B|343:127|355:116|370:123|375:136|363:149|351:141,1,57.7500005507469,2|0,0:0|0:0,0:0:0:0:
216,211,54810,1,2,1:2:0:0:
216,211,54914,1,0,1:2:0:0:
216,211,55017,6,0,B|92:184|92:184|119:222,1,173.250001652241,6|0,1:2|0:0,0:0:0:0:
224,357,55431,2,0,P|287:311|373:338,1,173.250001652241,2|0,0:0|0:0,0:0:0:0:
400,184,55845,1,10,0:0:0:0:
400,184,56258,6,0,L|430:216,1,35,2|0,0:0|0:0,0:0:0:0:
462,133,56465,2,0,L|492:165,1,35,2|0,1:2|0:0,0:0:0:0:
440,299,56672,6,0,P|420:317|403:299,1,57.7500005507469,2|0,0:0|0:0,0:0:0:0:
276,322,56879,2,0,L|215:322,1,57.7500005507469,2|0,0:0|0:0,0:0:0:0:
441,345,57086,2,0,P|455:320|428:296,1,57.7500005507469,0|0,1:2|0:0,0:0:0:0:
283,331,57293,2,0,B|195:331|195:331|164:358|114:345,1,173.250001652241,2|0,0:0|0:0,0:0:0:0:
39,233,57707,6,0,B|60:253|60:253|94:238,1,57.7500005507469,2|0,1:2|0:0,0:0:0:0:
116,99,57914,2,0,P|108:126|128:146,1,57.7500005507469,2|0,0:0|0:0,0:0:0:0:
275,86,58120,2,0,P|246:93|234:118,1,57.7500005507469,2|0,1:2|0:0,0:0:0:0:
341,207,58327,6,0,B|406:195|406:195|440:211|440:211|509:198,1,173.250001652241,2|0,1:2|0:0,0:0:0:0:
388,306,58741,2,0,P|333:252|244:267,1,173.250001652241,2|0,0:0|0:0,0:0:0:0:
155,144,59155,1,10,0:0:0:0:
155,144,59569,2,0,L|187:117,1,35,2|0,0:0|0:0,0:0:0:0:
182,144,59776,2,0,L|155:121,1,35,2|0,1:2|0:0,0:0:0:0:
236,250,59983,6,0,B|227:264|211:259|211:259|221:246|236:249,1,57.7500005507469,2|0,0:0|0:0,0:0:0:0:
337,269,60189,2,0,B|353:270|357:287|357:287|340:283|336:269,1,57.7500005507469,2|0,0:0|0:0,0:0:0:0:
299,167,60396,2,0,B|292:150|304:140|304:140|310:154|299:167,1,57.7500005507469,2|0,1:2|0:0,0:0:0:0:
448,282,60603,2,0,P|368:296|340:380,1,173.250001652241,2|0,0:0|0:0,0:0:0:0:
449,98,61017,6,0,P|470:115|494:133,1,57.7500005507469,2|0,1:2|0:0,0:0:0:0:
348,0,61224,2,0,L|314:46,1,57.7500005507469,2|0,0:0|0:0,0:0:0:0:
262,177,61431,2,0,P|239:158|216:142,1,57.7500005507469,2|0,1:2|0:0,0:0:0:0:
191,339,61638,6,0,P|251:286|340:299,1,173.250001652241,6|0,1:2|0:0,0:0:0:0:
451,177,62052,2,0,P|425:194|393:194,1,57.7500005507469,2|0,0:0|0:0,0:0:0:0:
345,96,62258,2,0,P|317:81|301:54,1,57.7500005507469,2|0,0:0|0:0,0:0:0:0:
430,0,62465,1,10,0:0:0:0:
430,0,62879,2,0,L|428:46,1,35,2|0,0:0|0:0,0:0:0:0:
508,5,63086,2,0,L|504:61,1,35,2|0,1:2|0:0,0:0:0:0:
472,165,63293,6,0,P|453:165|472:166,1,57.7500005507469,2|0,0:0|0:0,0:0:0:0:
363,143,63500,2,0,B|352:171|352:171|367:202,1,57.7500005507469,2|0,0:0|0:0,0:0:0:0:
258,165,63707,2,0,P|239:165|258:166,1,57.7500005507469,0|0,1:2|0:0,0:0:0:0:
143,165,63914,2,0,B|99:165|99:165|51:165|65:188|19:188|19:188|-31:188,1,173.250001652241,2|0,0:0|0:0,0:0:0:0:
115,307,64327,6,0,B|99:307|90:318|90:318|99:307|97:292,1,57.7500005507469,2|0,1:2|0:0,0:0:0:0:
232,245,64534,2,0,B|240:258|255:261|255:261|240:258|229:269,1,57.7500005507469,2|0,0:2|0:0,0:0:0:0:
120,173,64741,2,0,B|128:159|123:145|123:145|128:159|143:165,1,57.7500005507469,2|0,1:2|0:0,0:0:0:0:
189,17,64948,6,0,P|243:76|326:56,1,173.250001652241,2|0,1:2|0:0,0:0:0:0:
429,202,65362,2,0,B|362:186|362:186|326:204|326:204|263:190,1,173.250001652241,2|0,0:0|0:0,0:0:0:0:
467,64,65776,6,0,B|464:50|464:50|475:40|475:40|478:55|478:55|468:64,1,57.7500005507469,10|0,0:0|0:0,0:0:0:0:
355,38,65983,2,0,B|342:30|342:30|344:16|344:16|356:23|356:23|355:37,1,57.7500005507469,2|0,0:0|0:0,0:0:0:0:
243,88,66189,2,0,B|229:91|229:91|219:80|219:80|234:77|234:77|243:87,1,57.7500005507469,2|0,0:0|0:0,0:0:0:0:
211,220,66396,6,0,P|301:232|334:300,1,173.250001652241,2|0,1:2|0:0,0:0:0:0:
178,299,66810,2,0,P|218:226|301:220,1,173.250001652241,2|0,1:2|1:2,0:0:0:0:
376,115,67224,6,0,L|414:69,1,57.7500005507469,2|0,0:0|0:0,0:0:0:0:
256,68,67431,2,0,L|256:6,1,57.7500005507469,10|0,0:0|0:0,0:0:0:0:
136,115,67638,2,0,L|98:69,1,57.7500005507469,2|0,1:2|0:0,0:0:0:0:
72,251,67845,6,0,B|95:256|100:269|100:269|95:256|105:234,1,70,2|0,0:0|0:0,0:0:0:0:
90,310,68052,6,0,P|115:288|151:282,1,70,2|0,1:2|0:0,0:0:0:0:
297,220,68258,5,4,1:2:0:0:
297,220,68672,2,0,P|284:241|308:255,1,47.2500001802444,10|0,0:0|0:0,0:0:0:0:
278,346,68879,2,0,P|252:347|246:326,1,47.2500001802444,2|0,0:0|0:0,0:0:0:0:
366,380,69086,2,0,P|417:339|497:341,1,141.750000540733,2|0,1:2|1:2,0:0:0:0:
477,290,69500,2,0,L|506:385,1,94.5000003604889,10|0,0:0|1:2,0:0:0:0:
512,170,69914,6,0,P|528:169|512:168,1,47.2500001802444,2|0,1:2|0:0,0:0:0:0:
434,108,70120,2,0,P|442:94|436:109,1,47.2500001802444,2|0,0:0|0:0,0:0:0:0:
341,143,70327,2,0,B|308:143|308:143|268:143|278:121|237:121|237:121|199:121,1,141.750000540733,10|0,0:0|0:0,0:0:0:0:
204,144,70741,2,0,B|237:144|237:144|277:144|267:122|308:122|308:122|346:122,1,141.750000540733,2|0,1:2|1:2,0:0:0:0:
398,54,71155,1,10,0:0:0:0:
493,105,71362,1,0,1:2:0:0:
417,208,71569,5,0,1:2:0:0:
417,208,71983,2,0,L|422:260,1,47.2500001802444,10|0,0:0|0:0,0:0:0:0:
461,335,72189,2,0,L|456:287,1,47.2500001802444,2|0,0:0|0:0,0:0:0:0:
362,381,72396,2,0,P|305:341|233:354,1,141.750000540733,2|0,1:2|1:2,0:0:0:0:
215,319,72810,2,0,P|262:324|300:297,1,94.5000003604889,10|0,0:0|1:2,0:0:0:0:
282,112,73224,6,0,L|336:136,1,47.2500001802444,2|0,1:2|0:0,0:0:0:0:
341,43,73431,2,0,L|365:-11,1,47.2500001802444,2|0,0:0|0:0,0:0:0:0:
274,126,73638,2,0,B|333:152|333:152|347:189|394:195,1,141.750000540733,10|0,0:2|0:0,0:0:0:0:
506,217,74052,6,0,B|515:195|515:195|500:165,1,47.2500001802444,2|0,1:2|0:0,0:0:0:0:
393,239,74258,2,0,B|407:218|389:190,1,47.2500001802444,2|0,0:0|1:2,0:0:0:0:
276,217,74465,6,0,L|227:217,1,47.2500001802444,8|0,0:0|0:0,0:0:0:0:
138,217,74672,2,0,L|89:217,1,47.2500001802444,2|0,1:2|0:0,0:0:0:0:
0,217,74879,5,0,1:2:0:0:
0,217,75293,2,0,B|-18:200|-18:200|-13:170,1,47.2500001802444,10|0,0:0|0:0,0:0:0:0:
81,188,75500,2,0,B|84:165|84:165|66:148,1,47.2500001802444,2|0,0:0|0:0,0:0:0:0:
74,285,75707,2,0,P|114:225|188:220,1,141.750000540733,2|0,1:2|1:2,0:0:0:0:
191,140,76120,2,0,P|209:169|201:136,1,94.5000003604889,10|0,0:0|1:2,0:0:0:0:
241,289,76534,6,0,L|259:350,1,47.2500001802444,2|0,1:2|0:0,0:0:0:0:
340,331,76741,2,0,L|359:288,1,47.2500001802444,2|0,0:0|0:0,0:0:0:0:
412,380,76948,2,0,P|485:379|524:329,1,141.750000540733,10|0,0:0|0:0,0:0:0:0:
484,234,77362,2,0,L|543:371,1,141.750000540733,2|0,1:2|1:2,0:0:0:0:
466,313,77776,1,10,0:0:0:0:
356,293,77983,1,0,1:2:0:0:
244,334,78189,5,0,1:2:0:0:
244,334,78603,2,0,P|227:347|249:352,1,47.2500001802444,10|0,0:0|0:0,0:0:0:0:
244,243,78810,2,0,L|244:193,1,47.2500001802444,2|0,0:0|0:0,0:0:0:0:
244,334,79016,2,0,B|185:334|185:334|165:345|165:345|103:346,1,141.750000540733,2|0,1:2|1:2,0:0:0:0:
31,307,79431,2,0,P|56:347|31:384,1,94.5000003604889,10|0,0:0|1:2,0:0:0:0:
25,152,79845,6,0,B|27:139|17:131|17:131|14:142|24:152,1,47.2500001802444,2|0,1:2|0:0,0:0:0:0:
109,135,80052,2,0,B|117:124|112:112|112:112|104:121|109:135,1,47.2500001802444,2|0,0:0|0:0,0:0:0:0:
195,165,80258,2,0,B|207:161|210:148|210:148|199:150|195:164,1,47.2500001802444,10|0,0:0|0:0,0:0:0:0:
244,244,80465,2,0,B|256:249|266:242|266:242|256:235|244:243,1,47.2500001802444,0|0,0:0|0:0,0:0:0:0:
236,341,80672,6,0,B|242:352|255:352|255:352|250:341|236:340,1,47.2500001802444,2|0,1:2|0:0,0:0:0:0:
307,254,80879,2,0,B|306:266|316:274|316:274|317:262|307:253,1,47.2500001802444,2|0,0:0|1:2,0:0:0:0:
409,235,81086,2,0,B|402:246|408:258|408:258|415:247|409:235,1,47.2500001802444,10|0,0:0|0:0,0:0:0:0:
504,259,81293,2,0,B|495:266|493:279|493:279|504:272|505:259,1,47.2500001802444,2|0,1:2|0:0,0:0:0:0:
487,108,81500,6,0,B|423:97|423:97|396:111|396:111|328:100,1,157.500006008148,4|0,1:2|0:0,0:0:0:0:
235,103,81914,2,0,P|212:105|218:127,1,52.5000020027161,10|0,0:0|0:0,0:0:0:0:
317,124,82120,2,0,P|340:122|334:100,1,52.5000020027161,2|0,0:0|0:0,0:0:0:0:
218,127,82327,2,0,B|101:110|101:110|123:143,1,157.500006008148,2|0,1:2|1:2,0:0:0:0:
122,142,82741,1,10,0:0:0:0:
199,14,82948,1,0,1:2:0:0:
339,113,83155,6,0,L|404:122,1,52.5000020027161,2|0,1:2|0:0,0:0:0:0:
461,50,83362,2,0,P|478:38|459:20,1,52.5000020027161,2|0,0:0|0:0,0:0:0:0:
363,38,83569,2,0,L|374:196,1,157.500006008148,10|0,0:0|0:0,0:0:0:0:
448,285,83983,2,0,P|399:340|320:319,1,157.500006008148,2|0,1:2|1:2,0:0:0:0:
268,378,84396,1,10,0:0:0:0:
174,288,84603,1,0,1:2:0:0:
266,180,84810,6,0,B|289:141|331:141|331:141|287:141|264:104,1,157.500006008148,0|0,1:2|0:0,0:0:0:0:
158,62,85224,2,0,P|174:81|182:61,1,52.5000020027161,10|0,0:0|0:0,0:0:0:0:
75,105,85431,2,0,L|16:105,1,52.5000020027161,2|0,0:0|0:0,0:0:0:0:
44,27,85638,2,0,L|60:201,1,157.500006008148,2|0,1:2|1:2,0:0:0:0:
58,183,86052,1,10,0:0:0:0:
10,292,86258,1,0,1:2:0:0:
139,352,86465,6,0,B|132:363|132:363|139:374|139:374|146:363|146:363|139:352,1,52.5000020027161,2|0,1:2|0:0,0:0:0:0:
113,248,86672,2,0,B|120:237|120:237|113:226|113:226|106:237|106:237|113:248,1,52.5000020027161,2|0,0:0|0:0,0:0:0:0:
204,310,86879,2,0,B|160:310|160:310|122:310|130:292|91:292|91:292|49:292,1,157.500006008148,10|0,0:0|0:0,0:0:0:0:
0,190,87293,6,0,B|-10:165|-10:165|2:137,1,52.5000020027161,2|0,1:2|0:0,0:0:0:0:
94,96,87500,2,0,B|104:121|104:121|92:151,1,52.5000020027161,2|0,0:0|1:2,0:0:0:0:
194,224,87707,6,0,P|187:199|195:173,1,52.5000020027161,8|0,0:0|0:0,0:0:0:0:
289,131,87914,2,0,P|296:156|288:182,1,52.5000020027161,2|0,1:2|0:0,0:0:0:0:
392,254,88120,6,0,B|435:284|466:271|466:271|435:256|393:285,1,157.500006008148,0|0,1:2|0:0,0:0:0:0:
337,365,88534,2,0,P|330:353|336:367,1,52.5000020027161,10|0,0:0|0:0,0:0:0:0:
223,343,88741,2,0,B|210:338|210:325|223:316|236:325|237:340|223:343,1,52.5000020027161,2|0,0:0|0:0,0:0:0:0:
126,365,88948,2,0,B|51:365|51:365|17:393|-27:377,1,157.500006008148,2|0,1:2|1:2,0:0:0:0:
0,360,89362,1,10,0:0:0:0:
90,278,89569,1,0,1:2:0:0:
191,188,89776,6,0,L|228:148,1,52.5000020027161,2|0,1:2|0:0,0:0:0:0:
193,149,89983,2,0,L|228:187,1,52.5000020027161,2|0,0:0|0:0,0:0:0:0:
265,320,90189,2,0,P|297:248|370:229,1,157.500006008148,10|0,0:0|0:0,0:0:0:0:
448,108,90603,2,0,B|434:101|436:81|453:71|469:82|469:82|469:186,1,157.500006008148,2|0,1:2|1:2,2:2:0:0:
509,254,91017,1,10,0:0:0:0:
430,316,91224,1,0,1:2:0:0:
339,384,91431,6,0,P|283:339|199:353,1,157.500006008148,0|0,1:2|0:0,0:0:0:0:
259,247,91845,2,0,L|268:305,1,52.5000020027161,10|0,0:0|0:0,0:0:0:0:
336,179,92052,2,0,B|347:170|347:170|357:176|357:176|349:185|349:185|336:179,1,52.5000020027161,2|0,0:0|0:0,0:0:0:0:
241,140,92258,2,0,L|216:-21,1,157.500006008148,2|0,1:2|1:2,0:0:0:0:
146,76,92672,2,0,L|309:50,1,157.500006008148,10|0,0:0|0:2,0:0:0:0:
403,24,93086,6,0,B|414:32|427:29|427:29|414:32|406:45,1,52.5000020027161,2|0,1:2|0:0,0:0:0:0:
478,104,93293,2,0,B|483:116|496:120|496:120|483:116|470:123,1,52.5000020027161,2|0,0:0|0:0,0:0:0:0:
491,228,93500,2,0,B|489:241|498:251|498:251|489:241|474:241,1,52.5000020027161,10|0,0:0|0:0,0:0:0:0:
438,343,93707,2,0,B|429:354|432:367|432:367|429:354|416:345,1,52.5000020027161,0|0,0:0|1:2,0:0:0:0:
328,229,93914,6,0,B|340:220|343:207|343:207|340:220|349:231,1,52.5000020027161,2|0,0:0|0:0,0:0:0:0:
278,336,94120,2,0,B|269:347|272:360|272:360|269:347|256:338,1,52.5000020027161,2|0,1:2|0:0,0:0:0:0:
174,249,94327,2,0,B|186:240|189:227|189:227|186:240|195:251,1,52.5000020027161,10|0,0:0|0:0,0:0:0:0:
104,331,94534,2,0,B|95:342|98:355|98:355|95:342|82:333,1,52.5000020027161,2|0,0:2|0:0,0:0:0:0:
1,273,94741,6,0,B|15:305|52:315|91:293|106:240|52:200|52:200|0:164|-38:92|0:18|65:-19|150:-1|195:46|199:113|183:170|140:196|92:193,1,671.999979492188,4|2,1:2|0:0,0:0:0:0:
430,318,101362,5,2,0:0:0:0:
322,296,101776,1,2,0:0:0:0:
214,274,102189,2,0,L|109:249,2,105,2|2|0,0:0|0:0|0:0,0:0:0:0:
208,362,103017,6,0,P|231:309|308:292,1,140,2|2,0:0|0:0,0:0:0:0:
395,190,103741,1,2,0:0:0:0:
395,190,104052,2,0,B|416:156|392:121,2,70,2|2|2,0:0|0:0|0:0,0:0:0:0:
458,258,104672,5,2,0:0:0:0:
322,282,105086,1,2,0:0:0:0:
186,306,105500,2,0,L|228:207,2,105,2|2|0,0:0|0:0|0:0,0:0:0:0:
285,287,106327,6,0,L|142:234,1,140,2|2,0:0|0:0,0:0:0:0:
43,200,107052,1,2,0:0:0:0:
43,200,107362,2,0,P|33:189|44:173,1,35,2|0,0:0|0:0,0:0:0:0:
0,261,107569,6,0,B|40:243|72:268|72:268|106:295|150:277,1,157.500006008148,2|0,0:0|0:0,0:0:0:0:
235,219,107983,6,0,L|195:184,1,43.75,2|0,1:2|0:0,0:0:0:0:
325,202,108189,2,0,L|365:237,1,43.75,0|0,0:0|0:0,0:0:0:0:
248,216,108396,6,0,L|208:181,1,43.75,10|0,0:0|0:0,0:0:0:0:
338,199,108603,2,0,L|378:234,1,43.75,0|0,0:0|0:0,0:0:0:0:
482,251,108810,6,0,B|509:220|539:221|539:221|509:220|477:193,1,131.25,2|2,0:0|0:0,0:0:0:0:
480,195,109431,2,0,L|534:176,1,43.75,2|0,1:2|0:0,0:0:0:0:
392,227,109638,5,2,0:0:0:0:
288,178,109845,1,0,1:2:0:0:
235,282,110052,1,10,0:0:0:0:
339,331,110259,1,0,0:0:0:0:
288,200,110465,6,0,P|303:191|284:179,1,43.75,2|0,0:0|0:0,0:0:0:0:
235,282,110672,2,0,P|250:290|251:268,1,43.75,2|0,1:2|0:0,0:0:0:0:
129,288,110879,2,0,P|129:305|149:295,1,43.75,10|0,0:0|0:0,0:0:0:0:
47,228,111086,2,0,P|32:237|50:249,1,43.75,2|0,0:0|0:0,0:0:0:0:
59,122,111293,6,0,L|14:126,1,43.75,2|0,1:2|0:0,0:0:0:0:
142,142,111500,2,0,L|185:138,1,43.75,0|0,0:0|0:0,0:0:0:0:
57,104,111707,6,0,L|12:108,1,43.75,10|0,0:0|0:0,0:0:0:0:
144,159,111914,2,0,L|187:155,1,43.75,0|0,0:0|0:0,0:0:0:0:
296,105,112120,6,0,B|312:80|342:109|326:130|309:152|306:178|334:192|349:170,1,131.25,2|2,0:0|0:0,0:0:0:0:
417,353,112741,6,0,P|366:310|290:323,1,141.750000540733,2|0,1:2|0:0,0:0:0:0:
295,319,113155,1,2,1:2:0:0:
375,221,113362,1,10,0:0:0:0:
310,121,113569,2,0,B|260:108|260:108|226:124|226:124|175:113,1,141.750000540733,2|0,0:0|0:0,0:0:0:0:
174,112,113983,6,0,P|190:99|170:86,1,47.2500001802444,2|0,1:2|0:0,0:0:0:0:
88,100,114189,1,8,0:0:0:0:
73,100,114293,1,8,0:0:0:0:
58,100,114396,1,6,0:3:0:0:
43,100,114500,1,4,0:3:0:0:
23,89,114603,6,0,L|30:151,1,43.75,2|0,1:2|0:0,0:0:0:0:
99,191,114810,2,0,L|106:253,1,43.75,0|0,0:0|0:0,0:0:0:0:
12,105,115017,6,0,L|19:167,1,43.75,10|0,0:0|0:0,0:0:0:0:
88,207,115224,2,0,L|95:269,1,43.75,0|0,0:0|0:0,0:0:0:0:
54,374,115431,6,0,P|103:341|169:359,1,131.25,2|2,0:0|0:0,0:0:0:0:
168,358,116052,2,0,P|188:341|170:328,1,43.75,2|0,1:2|0:0,0:0:0:0:
100,297,116258,5,2,0:0:0:0:
243,273,116465,1,0,1:2:0:0:
386,249,116672,2,0,B|419:206|379:164,1,87.5,10|0,0:0|0:0,0:0:0:0:
424,98,116983,2,0,P|379:138|311:122,1,131.25,2|2,0:0|0:0,0:0:0:0:
198,60,117500,2,0,B|190:53|194:48|197:41|206:44|213:49|209:57|206:63|198:60,1,43.75,10|0,0:0|0:0,0:0:0:0:
170,129,117707,2,0,B|162:122|166:117|169:110|178:113|185:118|181:126|178:132|170:129,1,43.75,2|0,0:0|0:0,0:0:0:0:
137,213,117914,6,0,L|116:264,1,43.75,2|0,1:2|0:0,0:0:0:0:
46,201,118120,2,0,L|2:186,1,43.75,0|0,0:0|0:0,0:0:0:0:
143,231,118327,6,0,L|122:282,1,43.75,10|0,0:0|0:0,0:0:0:0:
52,219,118534,2,0,L|8:204,1,43.75,0|0,0:0|0:0,0:0:0:0:
79,350,118741,6,0,P|132:319|202:333,1,131.25,2|2,0:0|0:0,0:0:0:0:
321,145,119362,6,0,B|354:124|354:124|326:227,1,141.750000540733,2|0,1:2|0:0,0:0:0:0:
327,223,119776,1,2,1:2:0:0:
408,336,119983,1,10,0:0:0:0:
283,384,120189,2,0,B|242:397|216:373|216:373|191:350|146:363,1,141.750000540733,2|0,1:2|0:0,0:0:0:0:
127,339,120603,6,0,B|152:344|152:344|170:328,1,47.2500001802444,2|0,0:2|0:0,0:0:0:0:
126,250,120810,1,8,0:0:0:0:
121,234,120913,1,8,0:0:0:0:
117,218,121016,1,6,0:3:0:0:
113,202,121120,1,4,0:3:0:0:
98,186,121224,6,0,P|125:176|110:160,1,52.5000020027161,2|0,1:2|0:0,0:0:0:0:
223,162,121431,2,0,P|250:152|235:136,1,52.5000020027161,0|0,0:0|0:0,0:0:0:0:
117,162,121638,6,0,P|144:152|129:136,1,52.5000020027161,10|0,0:0|0:0,0:0:0:0:
242,138,121845,2,0,P|269:128|254:112,1,52.5000020027161,0|0,1:2|0:0,0:0:0:0:
181,16,122052,6,0,B|113:16|113:16|94:26|94:26|24:26,1,157.500006008148,2|2,0:0|0:0,0:0:0:0:
25,26,122672,2,0,P|22:2|41:8,1,52.5000020027161,2|0,1:2|0:0,0:0:0:0:
105,73,122879,5,2,1:2:0:0:
182,140,123086,1,0,0:0:0:0:
271,73,123293,1,10,0:0:0:0:
352,8,123500,1,0,1:2:0:0:
236,35,123707,6,0,L|271:73,1,52.5000020027161,2|0,0:0|0:0,0:0:0:0:
171,145,123914,2,0,L|238:159,1,52.5000020027161,2|0,0:0|0:0,0:0:0:0:
175,271,124120,2,0,L|236:248,1,52.5000020027161,10|0,0:0|0:0,0:0:0:0:
268,369,124327,1,2,1:2:0:0:
268,369,124431,1,0,1:2:0:0:
268,369,124534,6,0,P|287:355|264:347,1,52.5000020027161,2|0,1:2|0:0,0:0:0:0:
174,296,124741,2,0,P|155:283|175:271,1,52.5000020027161,0|0,0:0|0:0,0:0:0:0:
268,344,124948,6,0,P|287:330|264:322,1,52.5000020027161,10|0,0:0|0:0,0:0:0:0:
174,271,125155,2,0,P|155:258|174:245,1,52.5000020027161,0|0,1:2|0:0,0:0:0:0:
268,140,125362,6,0,B|204:123|204:123|177:133|177:133|115:117,1,157.500006008148,2|2,0:0|0:0,0:0:0:0:
349,252,125983,5,2,1:2:0:0:
349,252,126189,2,0,B|382:226|422:226|422:226|382:226|348:203,1,157.500006008148,2|0,1:2|0:0,0:0:0:0:
212,266,126603,2,0,B|218:307|198:342|198:342|218:307|254:289,1,157.500006008148,2|0,1:2|0:0,0:0:0:0:
268,140,127017,2,0,B|228:124|208:89|208:89|228:124|226:165,1,157.500006008148,2|0,1:2|0:0,0:0:0:0:
349,252,127431,6,0,P|367:252|349:253,1,52.5000020027161,10|0,0:0|0:0,0:0:0:0:
288,339,127638,2,0,P|288:357|289:339,1,52.5000020027161,2|0,0:0|0:0,0:0:0:0:
159,323,127845,6,0,B|130:325|107:297|107:297|86:254|37:243|-12:277|-18:334|21:388|72:392|126:344|108:297|108:297|119:260|146:251,1,420.000016021729,2|2,1:2|1:2,0:0:0:0:
108,82,128983,1,0,1:2:0:0:
108,82,129086,2,0,P|58:93|20:56,1,105.000004005432,10|2,0:0|1:2,0:0:0:0:
38,141,129500,5,2,1:2:0:0:
108,82,129707,1,2,0:0:0:0:
209,71,129914,1,8,0:0:0:0:
315,101,130120,2,0,B|368:115|399:83|399:83|469:83,1,157.500006008148,2|0,0:0|0:0,0:0:0:0:
477,63,130534,6,0,L|422:63,1,52.5000020027161,2|0,0:0|1:2,0:0:0:0:
477,164,130741,2,0,P|463:183|478:181,1,52.5000020027161,10|0,0:0|0:0,0:0:0:0:
477,279,130948,2,0,L|422:279,1,52.5000020027161,2|0,1:2|0:0,0:0:0:0:
349,379,131155,6,0,P|292:331|214:341,1,157.500006008148,2|0,1:2|0:0,0:0:0:0:
164,240,131569,2,0,B|121:182|149:111|204:137|194:176,1,157.500006008148,10|0,0:0|0:0,0:0:0:0:
311,208,131983,6,0,B|302:218|289:222|289:222|302:218|316:223,1,52.5000020027161,2|0,1:2|0:0,0:0:0:0:
362,122,132189,2,0,B|351:113|347:100|347:100|351:113|346:127,1,52.5000020027161,2|0,0:0|1:2,0:0:0:0:
447,177,132396,2,0,B|455:166|468:162|468:162|455:166|441:161,1,52.5000020027161,10|0,0:0|0:0,0:0:0:0:
394,262,132603,2,0,B|404:270|408:283|408:283|404:270|409:256,1,52.5000020027161,2|0,1:2|0:0,0:0:0:0:
332,374,132810,5,0,1:2:0:0:
320,354,132913,1,0,1:2:0:0:
305,338,133016,1,2,1:2:0:0:
285,327,133120,1,0,1:2:0:0:
263,321,133223,1,8,0:0:0:0:
241,322,133327,1,2,3:0:0:0:
219,328,133430,1,2,3:0:0:0:
200,340,133534,1,2,3:0:0:0:
185,358,133638,6,0,L|189:315,1,35,2|0,3:2|0:0,0:0:0:0:
101,352,133845,2,0,L|105:309,1,35,2|2,0:0|0:0,0:0:0:0:
54,216,134052,5,10,0:0:0:0:
81,228,134155,1,8,0:0:0:0:
113,227,134258,1,6,2:3:0:0:
139,208,134362,1,4,2:3:0:0:
151,179,134465,6,0,B|211:179|211:179|298:179|253:211|340:211|340:211|400:211,1,251.999992309571,4|0,1:2|0:0,0:0:0:0:
465,293,135914,1,0,1:2:0:0:
465,293,136534,1,0,1:2:0:0:
465,293,137569,1,0,1:2:0:0:
387,344,137776,6,0,P|455:332|512:371,2,140,2|2|2,1:2|0:0|0:0,0:0:0:0:
276,255,139017,1,2,0:0:0:0:
200,277,139224,1,2,1:2:0:0:
124,299,139431,6,0,L|44:279,2,70,2|2|0,0:0|0:0|1:2,0:0:0:0:
227,354,140052,1,2,0:0:0:0:
271,237,140258,2,0,P|322:249|365:219,1,105,8|0,0:0|0:0,0:0:0:0:
387,233,140672,6,0,L|384:198,3,35,2|0|2|0,3:0|3:0|3:0|3:0,0:0:0:0:
472,265,141086,6,0,L|512:230,3,43.75,2|2|2|2,3:0|3:0|3:0|3:0,0:0:0:0:
453,369,141500,5,6,3:0:0:0:
422,349,141603,1,4,3:0:0:0:
385,343,141707,1,4,3:0:0:0:
349,353,141810,1,4,3:0:0:0:
322,383,141914,6,0,B|278:383|278:383|227:383|241:360|195:360|195:360|148:360,1,173.250001652241,14|0,0:2|0:0,0:0:0:0:
219,283,142327,2,0,B|225:300|225:300|219:316,1,35,2|0,0:0|0:0,0:0:0:0:
135,255,142534,2,0,B|129:238|129:238|135:222,1,35,2|0,1:2|0:2,0:0:0:0:
117,76,142741,6,0,B|116:65|107:61|96:64|94:73|94:85|103:89|114:86|117:76,1,57.7500005507469,2|0,0:0|0:0,0:0:0:0:
215,123,142948,2,0,B|226:121|234:128|234:139|225:144|215:147|207:139|206:129|215:123,1,57.7500005507469,2|0,0:0|0:0,0:0:0:0:
210,14,143155,2,0,B|202:5|205:-5|214:-11|223:-5|230:2|228:12|219:18|210:13,1,57.7500005507469,0|0,1:2|0:0,0:0:0:0:
175,221,143362,2,0,P|228:162|320:166,1,173.250001652241,2|0,0:0|0:0,0:0:0:0:
390,33,143776,6,0,P|414:49|452:49,1,57.7500005507469,2|0,1:2|0:0,0:0:0:0:
409,152,143983,2,0,P|433:168|471:168,1,57.7500005507469,2|0,0:0|0:0,0:0:0:0:
428,271,144189,2,0,P|452:287|490:287,1,57.7500005507469,2|0,0:0|0:0,0:0:0:0:
321,329,144396,6,0,B|257:319|257:319|220:343|220:343|156:334,1,173.250001652241,2|0,1:2|0:0,0:0:0:0:
67,242,144810,2,0,B|40:202|-3:195|-3:195|40:202|76:173,1,173.250001652241,2|0,0:0|0:0,0:0:0:0:
122,34,145224,6,0,P|126:53|95:43,1,57.7500005507469,10|0,0:0|0:0,0:0:0:0:
224,81,145431,2,0,P|236:95|206:113,1,57.7500005507469,2|0,0:0|0:0,0:0:0:0:
345,83,145638,2,0,P|363:92|353:126,1,57.7500005507469,2|0,0:0|0:0,0:0:0:0:
305,251,145845,6,0,B|351:237|387:270|387:270|424:304|467:288,1,173.250001652241,2|0,1:2|0:0,0:0:0:0:
465,251,146258,2,0,B|419:237|383:270|383:270|346:304|303:288,1,173.250001652241,2|0,1:2|1:2,0:0:0:0:
176,207,146672,6,0,B|160:210|147:202|147:202|160:210|166:226,1,57.7500005507469,2|0,0:0|0:0,0:0:0:0:
324,197,146879,2,0,B|337:182|348:179|348:179|337:183|320:175,1,57.7500005507469,10|0,0:0|0:0,0:0:0:0:
211,294,147086,2,0,B|208:311|199:321|199:321|208:311|225:309,1,57.7500005507469,2|0,1:2|0:0,0:0:0:0:
247,146,147293,2,0,B|238:131|241:118|241:118|238:131|225:142,1,57.7500005507469,2|0,0:0|0:0,0:0:0:0:
323,293,147500,1,2,1:2:0:0:
323,293,147603,1,0,1:2:0:0:
323,293,147707,6,0,B|401:283|401:283|440:313|494:291,1,173.250001652241,6|0,1:2|0:0,0:0:0:0:
455,147,148120,2,0,B|501:183|534:163|534:163|500:144|455:181,1,173.250001652241,2|0,0:0|0:0,0:0:0:0:
456,319,148534,1,10,0:0:0:0:
456,319,148948,2,0,L|456:272,1,35,2|0,0:0|0:0,0:0:0:0:
374,283,149155,2,0,L|374:324,1,35,2|0,1:2|0:0,0:0:0:0:
303,174,149362,6,0,P|306:194|282:183,1,57.7500005507469,2|0,0:0|0:0,0:0:0:0:
213,275,149569,2,0,P|192:258|155:262,1,57.7500005507469,2|0,0:0|0:0,0:0:0:0:
76,204,149776,2,0,L|10:204,1,57.7500005507469,0|0,1:2|0:0,0:0:0:0:
42,118,149983,2,0,L|56:305,1,173.250001652241,2|0,0:0|0:0,0:0:0:0:
179,290,150396,6,0,B|192:283|192:283|204:290|204:290|192:297|192:297|179:290,1,57.7500005507469,2|0,1:2|0:0,0:0:0:0:
292,238,150603,2,0,B|291:252|291:252|279:259|279:259|279:245|279:245|292:238,1,57.7500005507469,2|0,0:0|0:0,0:0:0:0:
282,359,150810,2,0,B|269:351|269:351|269:337|269:337|281:344|281:344|282:359,1,57.7500005507469,2|0,1:2|0:0,0:0:0:0:
417,331,151017,6,0,P|503:341|536:262,1,173.250001652241,2|0,1:2|0:0,0:0:0:0:
432,185,151431,2,0,B|349:185|349:185|318:214|263:198,1,173.250001652241,2|0,0:0|0:0,0:0:0:0:
153,283,151845,1,10,0:0:0:0:
153,283,152258,2,0,P|144:269|156:254,1,35,2|0,0:0|0:0,0:0:0:0:
172,183,152465,2,0,P|181:197|169:212,1,35,2|0,1:2|0:0,0:0:0:0:
55,198,152672,6,0,L|-7:198,1,57.7500005507469,2|0,0:0|0:0,0:0:0:0:
101,99,152879,2,0,L|61:55,1,57.7500005507469,2|0,0:0|0:0,0:0:0:0:
205,51,153086,2,0,L|191:-18,1,57.7500005507469,0|0,1:2|0:0,0:0:0:0:
310,126,153293,2,0,B|414:109|414:109|429:132|418:157|389:155|382:130,1,173.250001652241,2|0,0:0|0:0,0:0:0:0:
488,277,153707,6,0,B|501:249|501:249|486:220,1,57.7500005507469,2|0,1:2|0:0,0:0:0:0:
448,375,153914,2,0,L|521:387,1,57.7500005507469,2|0,0:0|0:0,0:0:0:0:
361,318,154120,2,0,L|288:306,1,57.7500005507469,2|0,1:2|0:0,0:0:0:0:
196,352,154327,5,10,0:2:0:0:
172,340,154431,1,8,0:0:0:0:
149,352,154534,1,4,3:0:0:0:
125,340,154638,1,4,3:0:0:0:
99,352,154741,6,0,B|70:343|70:343|44:352,1,57.7500005507469,2|0,0:0|0:0,0:0:0:0:
82,239,154948,2,0,P|63:224|84:225,1,57.7500005507469,2|0,0:0|0:0,0:0:0:0:
76,106,155155,2,0,B|150:106|150:106|171:120|171:120|246:120,1,173.250001652241,14|0,0:0|0:0,0:0:0:0:
371,109,155569,6,0,L|380:73,1,35,2|0,0:0|0:0,0:0:0:0:
272,107,155776,2,0,L|263:143,1,35,2|0,1:2|0:0,0:0:0:0:
404,95,155983,6,0,L|471:95,1,57.7500005507469,2|0,0:0|0:0,0:0:0:0:
509,224,156189,2,0,P|504:201|479:211,1,57.7500005507469,2|0,0:0|0:0,0:0:0:0:
432,325,156396,2,0,B|457:343|457:343|486:334,1,57.7500005507469,0|0,1:2|0:0,0:0:0:0:
318,384,156603,2,0,P|265:325|175:335,1,173.250001652241,2|0,0:0|0:0,0:0:0:0:
256,238,157017,6,0,L|243:295,1,57.7500005507469,2|0,1:2|0:0,0:0:0:0:
354,162,157224,2,0,L|382:232,1,57.7500005507469,2|0,0:0|0:0,0:0:0:0:
417,55,157431,2,0,L|476:102,1,57.7500005507469,2|0,1:2|0:0,0:0:0:0:
305,2,157638,6,0,B|315:-20|294:-45|243:-17|265:25|290:70|233:88|211:64|223:42,1,173.250001652241,2|0,1:2|0:0,0:0:0:0:
164,160,158052,2,0,P|221:108|310:125,1,173.250001652241,2|0,0:0|0:0,0:0:0:0:
420,42,158465,6,0,B|435:56|445:56|445:56|435:56|420:69,1,57.7500005507469,10|0,0:0|0:0,0:0:0:0:
449,166,158672,2,0,B|464:180|474:180|474:180|464:180|449:193,1,57.7500005507469,2|0,0:0|0:0,0:0:0:0:
482,298,158879,2,0,B|497:312|507:312|507:312|497:312|482:325,1,57.7500005507469,2|0,0:0|0:0,0:0:0:0:
360,378,159086,6,0,L|188:320,1,173.250001652241,2|0,1:2|0:0,0:0:0:0:
141,378,159500,2,0,L|313:320,1,173.250001652241,2|0,1:2|1:2,0:0:0:0:
448,304,159914,6,0,P|468:289|445:278,1,57.7500005507469,2|0,0:0|0:0,0:0:0:0:
392,139,160120,2,0,L|466:159,1,57.7500005507469,10|0,0:0|0:0,0:0:0:0:
259,194,160327,2,0,L|335:217,1,57.7500005507469,2|0,1:2|0:0,0:0:0:0:
126,255,160534,2,0,L|186:274,1,57.7500005507469,2|0,0:0|0:0,0:0:0:0:
28,178,160741,1,0,1:2:0:0:
39,173,160845,1,0,1:2:0:0:
50,170,160948,6,0,P|-10:161|51:149,1,173.250001652241,6|0,1:2|0:0,0:0:0:0:
156,155,161362,2,0,B|231:154,1,52.5000020027161,2|0,0:0|0:0,0:0:0:0:
403,222,161776,6,0,P|351:287|262:256,1,188.999994232178,10|0,0:0|0:0,0:0:0:0:
208,154,162189,2,0,B|208:86|208:86|223:81|232:95|226:107|215:107,1,105,2|0,0:0|0:0,0:0:0:0:
375,88,162603,6,0,B|367:56|384:32|384:32|367:56|336:64,1,115.500001101494,2|2,0:0|0:0,0:0:0:0:
338,63,162914,1,0,0:0:0:0:
338,63,163017,1,2,1:2:0:0:
317,167,163224,1,2,0:0:0:0:
287,273,163431,6,0,B|225:254|225:254|183:270|183:270|117:251,1,173.250001652241,10|0,0:0|0:0,0:0:0:0:
168,384,163845,2,0,P|226:354|186:258,1,173.250001652241,2|0,0:0|0:0,0:0:0:0:
55,341,164258,6,0,B|2:310|-27:326|-27:326|2:345|57:314,1,173.250001652241,2|0,1:2|0:0,0:0:0:0:
0,216,164672,2,0,B|-8:163|-8:163|7:182,1,70,2|0,0:0|0:0,0:0:0:0:
156,0,165086,6,0,P|169:56|144:2,1,173.250001652241,10|0,0:0|0:0,0:0:0:0:
139,135,165500,2,0,P|180:105|236:109,1,105,2|0,0:0|0:0,0:0:0:0:
344,34,165914,6,0,B|384:47|384:47|415:36|415:36|456:49,1,115.500001101494,2|2,0:0|0:0,0:0:0:0:
454,49,166224,1,0,0:0:0:0:
454,49,166327,1,2,1:2:0:0:
389,144,166534,1,2,0:0:0:0:
474,258,166741,5,10,0:0:0:0:
474,250,166845,1,8,0:0:0:0:
475,243,166948,1,8,3:0:0:0:
476,236,167052,1,8,3:0:0:0:
469,217,167155,5,6,3:0:0:0:
474,258,167258,1,4,3:0:0:0:
479,298,167362,1,6,3:0:0:0:
485,337,167465,1,4,3:0:0:0:
490,381,167569,6,0,P|424:332|339:348,1,173.250001652241,6|0,1:2|0:0,0:0:0:0:
291,284,167983,2,0,P|290:303|324:289,1,70,2|0,0:0|0:0,0:0:0:0:
159,325,168396,6,0,B|76:325|76:325|43:355|-9:338,1,173.250001652241,10|0,0:0|0:0,0:0:0:0:
135,379,168810,2,0,L|129:271,1,105,2|0,0:0|0:0,0:0:0:0:
99,150,169224,6,0,P|142:186|194:168,1,115.500001101494,2|2,0:0|0:0,0:0:0:0:
193,168,169534,1,0,0:0:0:0:
193,168,169638,1,2,1:2:0:0:
297,125,169845,1,2,0:0:0:0:
181,89,170052,2,0,L|223:268,1,173.250001652241,10|0,0:0|0:0,0:0:0:0:
171,358,170465,2,0,B|213:358|213:358|262:358|245:381|296:381|296:381|345:381,1,173.250001652241,2|0,1:2|0:0,0:0:0:0:
426,272,170879,6,0,B|421:282|437:297|463:289|462:263|462:263|356:233,1,173.250001652241,2|0,1:2|0:0,0:0:0:0:
398,141,171293,2,0,B|413:172|413:172|397:205,1,70,2|0,0:0|0:0,0:0:0:0:
283,9,171707,6,0,B|325:-10|363:20|363:20|401:50|445:29,1,173.250001652241,10|0,0:0|0:0,0:0:0:0:
512,103,172120,2,0,B|526:110|540:102|540:102|526:95|512:103,1,57.7500005507469,2|0,0:0|0:0,0:0:0:0:
446,9,172327,2,0,B|402:-12|364:17|364:17|326:48|284:29,1,173.250001652241,2|0,1:2|0:0,0:0:0:0:
214,130,172741,6,0,B|190:144|190:144|162:134,1,57.7500005507469,2|0,1:2|0:0,0:0:0:0:
349,167,172948,2,0,B|325:181|325:181|297:171,1,57.7500005507469,2|0,0:0|1:2,0:0:0:0:
484,204,173155,2,0,B|460:218|460:218|432:208,1,57.7500005507469,0|0,0:0|0:0,0:0:0:0:
447,85,173362,6,0,P|468:94|446:102,1,57.7500005507469,10|0,0:0|0:0,0:0:0:0:
348,149,173569,2,0,P|327:158|349:166,1,57.7500005507469,2|0,1:2|0:0,0:0:0:0:
227,225,173776,2,0,P|248:236|226:241,1,57.7500005507469,2|0,0:0|0:0,0:0:0:0:
102,195,173983,1,0,1:2:0:0:
102,195,174086,1,0,1:2:0:0:
102,195,174189,6,0,B|78:88|78:88|106:116,1,141.750000540733,6|0,1:2|0:0,0:0:0:0:
101,111,174603,2,0,P|60:127|19:98,1,94.5000003604889,2|0,0:0|0:0,0:0:0:0:
196,59,175017,2,0,B|231:59|231:59|261:59|265:77|297:77|297:77|339:75,2,141.750000540733,10|2|2,0:0|0:0|1:2,0:0:0:0:
308,6,175845,6,0,L|300:166,1,141.750000540733,2|2,0:0|0:0,0:0:0:0:
300,147,176258,1,2,1:2:0:0:
244,218,176465,1,2,0:0:0:0:
244,312,176672,6,0,B|235:304|227:311|224:318|229:328|239:328|248:320|244:312,1,47.2500001802444,10|0,0:0|0:0,0:0:0:0:
331,372,176879,2,0,B|318:368|316:376|316:384|323:393|336:386|338:374|331:372,1,47.2500001802444,2|0,0:0|0:0,0:0:0:0:
438,341,177086,2,0,B|428:346|431:354|439:360|453:359|451:347|448:337|438:341,1,47.2500001802444,2|0,0:0|0:0,0:0:0:0:
455,230,177293,2,0,B|454:239|462:242|470:240|480:230|469:217|458:219|455:230,1,47.2500001802444,2|0,0:0|0:0,0:0:0:0:
378,134,177500,6,0,B|433:114|433:114|458:122|458:122|511:102,1,141.750000540733,2|0,1:2|0:0,0:0:0:0:
511,101,177914,2,0,P|463:103|421:67,1,94.5000003604889,2|0,0:0|0:0,0:0:0:0:
434,207,178327,2,0,L|403:349,2,141.750000540733,10|2|2,0:0|0:0|1:2,0:0:0:0:
499,343,179155,6,0,P|451:289|337:283,1,189.000000720978,2|2,0:0|1:2,0:0:0:0:
253,203,179776,1,0,0:0:0:0:
253,203,179879,2,0,B|199:207|199:207|191:118,1,141.750000540733,2|2,0:0|1:2,0:0:0:0:
256,0,180396,5,2,0:0:0:0:
245,31,180500,5,2,0:0:0:0:
271,11,180603,5,2,1:2:0:0:
241,11,180707,5,2,0:0:0:0:
267,31,180810,5,4,0:0:0:0:
