osu file format v14

[General]
AudioFilename: audio.mp3
AudioLeadIn: 0
PreviewTime: 51678
Countdown: 0
SampleSet: Soft
StackLeniency: 0.4
Mode: 0
LetterboxInBreaks: 0
WidescreenStoryboard: 0

[Editor]
Bookmarks: 1278,7678,14078,20478,26878,33278,39678,46078,52478,58878,65278,71678,78078,84478,90878
DistanceSpacing: 0.9
BeatDivisor: 4
GridSize: 8
TimelineZoom: 1.8

[Metadata]
Title:Triforce
TitleUnicode:Triforce
Artist:Hyper Potions & QORA
ArtistUnicode:Hyper Potions & QORA
Creator:Pandano
Version:Whatever Times 3
Source:
Tags:
BeatmapID:1557468
BeatmapSetID:738015

[Difficulty]
HPDrainRate:6
CircleSize:3.5
OverallDifficulty:7.3
ApproachRate:8.6
SliderMultiplier:1.7
SliderTickRate:1

[Events]
//Background and Video events
0,0,"2018-02-20_21-24-35.png",0,0
//Break Periods
//Storyboard Layer 0 (Background)
//Storyboard Layer 1 (Fail)
//Storyboard Layer 2 (Pass)
//Storyboard Layer 3 (Foreground)
//Storyboard Sound Samples

[TimingPoints]
1278,400,4,1,1,50,1,0
38878,-58.8235294117647,4,1,1,50,0,0
39278,-100,4,1,1,50,0,0
52078,-50,4,1,1,50,0,0
52478,-76.9230769230769,4,1,2,50,0,1
64878,-100,4,1,1,50,0,0
65278,-76.9230769230769,4,1,2,50,0,1
78078,-166.666666666667,4,2,1,25,0,0
90078,-100,4,1,1,50,0,0

[Colours]
Combo1 : 0,128,255
Combo2 : 98,98,255
Combo3 : 128,255,255

[HitObjects]
80,80,1278,6,0,P|146:108|212:80,1,127.5,8|0,0:0|0:0,0:0:0:0:
248,64,1678,2,0,P|321:53|384:72,1,127.5,0|0,0:0|0:0,0:0:0:0:
408,96,2078,2,0,L|400:200,1,85,0|0,0:0|0:0,0:0:0:0:
328,328,2678,1,0,0:0:0:0:
320,304,2778,1,0,0:0:0:0:
312,280,2878,6,0,B|246:291|246:291|168:280,1,127.5,8|0,0:0|0:0,0:0:0:0:
128,304,3278,2,0,P|152:240|128:176,1,127.5,0|0,0:0|0:0,0:0:0:0:
104,136,3678,2,0,L|208:152,1,85,0|0,0:0|0:0,0:0:0:0:
432,48,4278,1,0,0:0:0:0:
416,64,4378,1,0,0:0:0:0:
400,80,4478,6,0,L|432:216,1,127.5,8|0,0:0|0:0,0:0:0:0:
424,248,4878,2,0,B|397:280|397:280|288:305,1,127.5,0|0,0:0|0:0,0:0:0:0:
264,320,5278,2,0,P|264:268|246:228,1,85,0|0,0:0|0:0,0:0:0:0:
72,96,5878,1,0,0:0:0:0:
96,104,5978,1,0,0:0:0:0:
120,112,6078,5,8,0:0:0:0:
216,72,6278,1,0,0:0:0:0:
336,64,6478,1,0,0:0:0:0:
480,16,6678,1,0,0:0:0:0:
416,128,6878,5,0,0:0:0:0:
432,232,7078,1,0,0:0:0:0:
472,312,7278,1,0,0:0:0:0:
512,352,7478,1,0,0:0:0:0:
352,328,7678,6,0,P|280:320|208:344,1,127.5,8|0,0:0|0:0,0:0:0:0:
184,352,8078,2,0,P|160:288|184:200,1,127.5,0|0,0:0|0:0,0:0:0:0:
208,192,8478,2,0,L|104:176,1,85,0|0,0:0|0:0,0:0:0:0:
400,72,9078,1,0,0:0:0:0:
425,49,9178,1,0,0:0:0:0:
432,83,9278,6,0,P|385:126|292:104,1,127.5,8|0,0:0|0:0,0:0:0:0:
280,104,9678,2,0,B|246:80|246:80|272:190,1,127.5,0|0,0:0|0:0,0:0:0:0:
304,200,10078,2,0,L|296:296,1,85,0|0,0:0|0:0,0:0:0:0:
80,320,10678,1,0,0:0:0:0:
55,343,10778,1,0,0:0:0:0:
47,309,10877,6,0,B|74:269|74:269|173:250,1,127.5,8|0,0:0|0:0,0:0:0:0:
176,224,11278,2,0,B|192:176|192:176|88:192,1,127.5,0|0,0:0|0:0,0:0:0:0:
57,197,11678,2,0,B|36:150|36:150|49:85,1,85,0|0,0:0|0:0,0:0:0:0:
296,48,12278,1,0,0:0:0:0:
271,25,12378,1,0,0:0:0:0:
264,59,12478,5,8,0:0:0:0:
235,157,12678,1,0,0:0:0:0:
334,132,12878,1,0,0:0:0:0:
264,59,13078,1,0,0:0:0:0:
202,256,13278,1,0,0:0:0:0:
407,204,13478,1,0,0:0:0:0:
264,59,13678,1,0,0:0:0:0:
328,312,13878,1,0,0:0:0:0:
72,224,14078,6,0,L|208:200,1,127.5,8|0,0:0|0:0,0:0:0:0:
232,232,14478,2,0,L|184:352,1,127.5,0|0,0:0|0:0,0:0:0:0:
147,329,14878,2,0,L|91:257,1,85,0|0,0:0|0:0,0:0:0:0:
400,304,15478,1,0,0:0:0:0:
416,272,15578,1,0,0:0:0:0:
416,232,15678,6,0,P|376:168|376:96,1,127.5,8|0,0:0|0:0,0:0:0:0:
318,109,16078,2,0,P|295:178|253:214,1,127.5,0|0,0:0|0:0,0:0:0:0:
281,258,16478,2,0,P|331:253|380:272,1,85,0|0,0:0|0:0,0:0:0:0:
120,32,17078,1,0,0:0:0:0:
136,56,17178,1,0,0:0:0:0:
136,88,17278,6,0,B|122:153|122:153|64:200,1,127.5,8|0,0:0|0:0,0:0:0:0:
94,234,17678,2,0,B|163:231|163:231|215:265,1,127.5,0|0,0:0|0:0,0:0:0:0:
248,230,18078,2,0,B|232:185|232:185|236:137,1,85,0|0,0:0|0:0,0:0:0:0:
472,24,18678,1,0,0:0:0:0:
456,56,18778,1,0,0:0:0:0:
440,88,18878,5,8,0:0:0:0:
400,168,19078,1,0,0:0:0:0:
376,288,19278,1,0,0:0:0:0:
256,352,19478,1,0,0:0:0:0:
96,288,19678,5,0,0:0:0:0:
63,157,19878,1,0,0:0:0:0:
124,57,20078,1,0,0:0:0:0:
218,15,20278,1,0,0:0:0:0:
400,72,20478,6,0,L|320:176,1,127.5,8|0,0:0|0:0,0:0:0:0:
344,216,20878,2,0,L|472:216,1,127.5,0|0,0:0|0:0,0:0:0:0:
496,176,21278,2,0,L|448:96,1,85,0|0,0:0|0:0,0:0:0:0:
195,77,21878,1,0,0:0:0:0:
216,47,21978,1,0,0:0:0:0:
176,48,22078,6,0,P|168:120|192:176,1,127.5,8|0,0:0|0:0,0:0:0:0:
241,200,22478,2,0,P|312:176|353:104,1,127.5,0|0,0:0|0:0,0:0:0:0:
336,80,22878,2,0,P|288:40|232:40,1,85,0|0,0:0|0:0,0:0:0:0:
96,272,23478,1,0,0:0:0:0:
80,296,23578,1,0,0:0:0:0:
64,320,23678,6,0,B|133:319|133:319|93:266,1,127.5,8|0,0:0|0:0,0:0:0:0:
97,272,24078,2,0,B|166:271|166:271|126:218,1,127.5,0|0,0:0|0:0,0:0:0:0:
130,224,24478,2,0,B|179:222|179:222|144:184,1,85,0|0,0:0|0:0,0:0:0:0:
257,21,25078,1,0,0:0:0:0:
245,54,25178,1,0,0:0:0:0:
280,48,25278,5,8,0:0:0:0:
408,42,25478,1,0,0:0:0:0:
270,149,25678,5,0,0:0:0:0:
436,140,25878,1,0,0:0:0:0:
260,253,26078,5,0,0:0:0:0:
465,246,26278,1,0,0:0:0:0:
251,359,26478,5,0,0:0:0:0:
490,354,26678,2,0,P|459:351|420:365,1,42.5,0|0,0:0|0:0,0:0:0:0:
408,360,26878,6,0,L|400:264,1,85,4|0,0:0|0:0,0:0:0:0:
288,160,27278,2,0,L|295:244,1,85,8|0,0:0|0:0,0:0:0:0:
200,376,27678,2,0,L|192:280,1,85,0|0,0:0|0:0,0:0:0:0:
72,184,28078,2,0,L|79:268,1,85,8|0,0:0|0:0,0:0:0:0:
192,56,28478,6,0,P|264:48|297:67,1,85,0|0,0:0|0:0,0:0:0:0:
323,132,28878,2,0,P|275:145|213:119,1,85,8|0,0:0|0:0,0:0:0:0:
280,240,29278,2,0,P|352:232|385:251,1,85,0|0,0:0|0:0,0:0:0:0:
411,316,29678,2,0,P|363:329|301:303,1,85,8|0,0:0|0:0,0:0:0:0:
96,280,30078,6,0,P|160:280|200:304,1,85,0|0,0:0|0:0,0:0:0:0:
176,152,30478,2,0,P|216:192|232:240,1,85,8|0,0:0|0:0,0:0:0:0:
323,120,30878,2,0,P|322:184|298:224,1,85,0|0,0:0|0:0,0:0:0:0:
448,199,31278,2,0,P|407:239|360:255,1,85,8|0,0:0|0:0,0:0:0:0:
232,272,31678,6,0,B|190:291|190:291|198:247,1,85,0|0,0:0|0:0,0:0:0:0:
286,339,32078,2,0,L|187:387,1,85,8|0,0:0|0:0,0:0:0:0:
234,170,32478,2,0,L|304:226,1,85,0|0,0:0|0:0,0:0:0:0:
105,298,32878,2,0,L|124:204,1,85,8|0,0:0|0:0,0:0:0:0:
160,32,33278,5,0,0:0:0:0:
248,80,33478,1,0,0:0:0:0:
80,96,33678,2,0,P|100:140|81:202,1,85,8|0,0:0|0:0,0:0:0:0:
200,312,34078,5,0,0:0:0:0:
256,224,34278,1,0,0:0:0:0:
400,264,34478,2,0,B|412:223|412:223|393:143,1,85,8|0,0:0|0:0,0:0:0:0:
328,24,34878,5,0,0:0:0:0:
248,80,35078,1,0,0:0:0:0:
112,24,35278,2,0,L|128:144,1,85,8|0,0:0|0:0,0:0:0:0:
88,296,35678,5,0,0:0:0:0:
136,208,35878,1,0,0:0:0:0:
276,272,36078,2,0,P|225:273|172:304,1,85,8|0,0:0|0:0,0:0:0:0:
357,341,36478,5,0,0:0:0:0:
375,248,36678,1,0,0:0:0:0:
264,192,36878,2,0,P|264:247|299:295,1,85,8|0,0:0|0:0,0:0:0:0:
480,224,37278,5,0,0:0:0:0:
408,152,37478,1,0,0:0:0:0:
264,192,37678,2,0,P|212:204|163:171,1,85,8|0,0:0|0:0,0:0:0:0:
304,48,38078,5,0,0:0:0:0:
408,152,38278,1,0,0:0:0:0:
264,192,38478,1,8,0:0:0:0:
304,48,38678,1,0,0:0:0:0:
144,112,38878,6,0,B|77:55|77:55|162:27|162:27|150:91,1,216.750004134178,2|0,0:0|0:0,0:0:0:0:
137,150,39278,5,8,0:0:0:0:
137,181,39378,1,0,0:0:0:0:
146,211,39478,1,0,0:0:0:0:
162,238,39578,1,0,0:0:0:0:
186,260,39678,6,0,P|224:237|290:244,1,85,4|0,0:0|0:0,0:0:0:0:
360,176,40078,2,0,P|424:192|464:184,1,85,8|0,0:0|0:0,0:0:0:0:
176,160,40478,2,0,P|219:142|280:144,1,85,8|0,0:0|0:0,0:0:0:0:
354,76,40878,2,0,P|418:92|458:84,1,85,8|0,0:0|0:0,0:0:0:0:
177,77,41278,6,0,P|169:133|193:189,1,85,8|0,0:0|0:0,0:0:0:0:
253,313,41678,2,0,P|269:252|258:201,1,85,8|0,0:0|0:0,0:0:0:0:
360,88,42078,2,0,P|352:144|376:200,1,85,8|0,0:0|0:0,0:0:0:0:
456,232,42378,1,8,0:0:0:0:
480,184,42478,2,0,L|473:141,1,42.5,8|0,0:0|0:0,0:0:0:0:
360,88,42678,2,0,L|353:45,1,42.5,8|0,0:0|0:0,0:0:0:0:
152,64,42878,6,0,B|100:63|100:63|40:80,1,85,4|0,0:0|0:0,0:0:0:0:
248,152,43278,2,0,B|293:153|293:153|331:144,1,85,8|0,0:0|0:0,0:0:0:0:
152,224,43678,2,0,B|100:223|100:223|40:240,1,85,8|0,0:0|0:0,0:0:0:0:
248,312,44078,2,0,B|293:313|293:313|331:304,1,85,8|0,0:0|0:0,0:0:0:0:
400,120,44478,6,0,P|400:184|424:224,1,85,8|0,0:0|0:0,0:0:0:0:
288,104,44878,2,0,P|301:55|284:8,1,85,8|0,0:0|0:0,0:0:0:0:
136,64,45278,1,8,0:0:0:0:
72,200,45478,5,8,0:0:0:0:
79,219,45578,1,0,0:0:0:0:
86,239,45678,1,8,0:0:0:0:
94,259,45778,1,0,0:0:0:0:
101,279,45878,1,8,0:0:0:0:
108,299,45978,1,0,0:0:0:0:
116,319,46078,5,12,0:0:0:0:
176,184,46278,1,8,0:0:0:0:
224,352,46478,5,8,0:0:0:0:
256,176,46678,1,8,0:0:0:0:
336,344,46878,5,8,0:0:0:0:
328,152,47078,1,8,0:0:0:0:
448,320,47278,5,8,0:0:0:0:
384,104,47478,1,8,0:0:0:0:
104,41,47678,5,12,0:0:0:0:
256,176,47878,1,8,0:0:0:0:
325,26,48078,5,8,0:0:0:0:
192,192,48278,1,8,0:0:0:0:
352,296,48478,5,8,0:0:0:0:
208,128,48678,1,8,0:0:0:0:
96,320,48878,5,8,0:0:0:0:
392,208,49078,1,8,0:0:0:0:
168,24,49278,5,4,0:0:0:0:
159,59,49378,1,0,0:0:0:0:
150,94,49478,1,0,0:0:0:0:
142,130,49578,1,0,0:0:0:0:
133,165,49678,5,0,0:0:0:0:
125,201,49778,1,0,0:0:0:0:
116,236,49878,1,4,0:0:0:0:
107,271,49978,1,0,0:0:0:0:
130,262,50078,5,0,0:0:0:0:
152,253,50178,1,0,0:0:0:0:
175,244,50278,1,0,0:0:0:0:
198,236,50378,1,0,0:0:0:0:
220,227,50478,5,4,0:0:0:0:
243,218,50578,1,0,0:0:0:0:
266,210,50678,1,0,0:0:0:0:
288,201,50778,1,0,0:0:0:0:
282,189,50878,5,0,0:0:0:0:
275,179,50978,1,0,0:0:0:0:
268,169,51078,1,4,0:0:0:0:
261,159,51178,1,0,0:0:0:0:
254,149,51278,5,0,0:0:0:0:
247,139,51378,1,0,0:0:0:0:
240,129,51478,2,0,L|208:81,1,42.5,0|0,0:0|0:0,0:0:0:0:
408,56,51678,5,8,0:0:0:0:
340,107,51778,1,8,0:0:0:0:
330,22,51878,1,8,0:0:0:0:
474,189,52078,6,0,B|481:232|481:232|381:183|381:183|463:126,1,255,2|0,0:0|0:0,0:0:0:0:
368,320,52478,5,4,0:0:0:0:
256,208,52678,1,0,0:0:0:0:
112,264,52878,2,0,L|136:376,1,110.499994941712,8|0,0:0|0:0,0:0:0:0:
256,208,53278,2,0,L|232:96,1,110.499994941712,0|0,0:0|0:0,0:0:0:0:
330,0,53678,1,8,0:0:0:0:
20,93,53878,6,0,B|79:127|132:101|132:101|189:73|252:109,1,220.999989883423,0|0,0:0|0:0,0:0:0:0:
392,184,54478,2,0,P|416:112|400:56,1,110.499994941712,8|0,0:0|0:0,0:0:0:0:
264,280,54878,2,0,L|392:296,1,110.499994941712,0|0,0:0|0:0,0:0:0:0:
256,168,55278,1,8,0:0:0:0:
95,311,55478,6,0,B|56:271|56:271|66:185|66:185|100:148|86:87,1,220.999989883423,0|0,0:0|0:0,0:0:0:0:
240,32,56078,2,0,B|224:72|224:72|248:152,1,110.499994941712,8|0,0:0|0:0,0:0:0:0:
368,224,56478,2,0,B|384:184|384:184|360:104,1,110.499994941712,0|0,0:0|0:0,0:0:0:0:
272,232,56878,1,8,0:0:0:0:
445,310,57078,2,0,P|386:334|298:312,1,110.499994941712,0|0,0:0|0:0,0:0:0:0:
176,184,57478,5,0,0:0:0:0:
256,177,57678,1,8,0:0:0:0:
144,254,57878,1,0,0:0:0:0:
130,120,58078,1,8,0:0:0:0:
264,296,58278,5,0,0:0:0:0:
40,192,58478,1,8,0:0:0:0:
232,56,58678,1,0,0:0:0:0:
336,136,58878,5,4,0:0:0:0:
232,56,59078,1,0,0:0:0:0:
147,201,59278,2,0,P|75:185|19:201,1,110.499994941712,8|0,0:0|0:0,0:0:0:0:
224,281,59678,2,0,P|258:223|240:147,1,110.499994941712,0|0,0:0|0:0,0:0:0:0:
344,80,60078,1,8,0:0:0:0:
491,194,60278,6,0,B|431:242|431:242|404:313|404:313|344:360,1,220.999989883423,0|0,0:0|0:0,0:0:0:0:
221,330,60878,2,0,P|149:322|101:266,1,110.499994941712,8|0,0:0|0:0,0:0:0:0:
208,208,61278,2,0,L|336:176,1,110.499994941712,0|0,0:0|0:0,0:0:0:0:
384,72,61678,1,8,0:0:0:0:
192,104,61878,6,0,P|118:152|139:295,1,220.999989883423,0|0,0:0|0:0,0:0:0:0:
315,181,62478,2,0,L|291:61,1,110.499994941712,8|0,0:0|0:0,0:0:0:0:
417,215,62878,2,0,P|391:268|321:298,1,110.499994941712,0|0,0:0|0:0,0:0:0:0:
219,264,63278,1,8,0:0:0:0:
80,104,63478,6,0,B|101:144|101:144|84:247,1,110.499994941712,0|0,0:0|0:0,0:0:0:0:
176,344,63878,1,0,0:0:0:0:
232,176,64078,1,8,0:0:0:0:
240,272,64278,1,0,0:0:0:0:
176,96,64478,1,8,0:0:0:0:
128,184,64678,1,0,0:0:0:0:
368,80,64878,2,0,P|384:72|416:72,1,42.5,8|0,0:0|0:0,0:0:0:0:
272,56,65078,2,0,P|257:46|241:18,1,42.5,8|0,0:0|0:0,0:0:0:0:
302,155,65278,6,0,P|292:217|243:269,1,110.499994941712,4|0,0:0|0:0,0:0:0:0:
196,169,65678,2,0,B|168:163|168:163|86:185,1,110.499994941712,8|0,0:0|0:0,0:0:0:0:
392,232,66078,2,0,B|420:238|420:238|502:216,1,110.499994941712,0|0,0:0|0:0,0:0:0:0:
416,128,66478,1,8,0:0:0:0:
268,65,66678,6,0,B|205:43|208:88|137:64|137:64|137:116|90:137,1,220.999989883423,0|0,0:0|0:0,0:0:0:0:
32,272,67278,2,0,L|160:248,1,110.499994941712,8|0,0:0|0:0,0:0:0:0:
240,320,67678,2,0,L|368:296,1,110.499994941712,0|0,0:0|0:0,0:0:0:0:
424,208,68078,1,8,0:0:0:0:
324,79,68278,6,0,B|259:94|259:94|213:89|213:89|181:117|181:117|84:143,1,220.999989883423,0|0,0:0|0:0,0:0:0:0:
45,268,68878,2,0,P|117:284|173:268,1,110.499994941712,8|0,0:0|0:0,0:0:0:0:
296,218,69278,2,0,B|266:203|266:203|287:300,1,110.499994941712,0|0,0:0|0:0,0:0:0:0:
384,344,69678,1,8,0:0:0:0:
456,192,69878,6,0,P|472:120|448:64,1,110.499994941712
256,48,70278,1,0,0:0:0:0:
184,128,70478,1,8,0:0:0:0:
296,144,70678,1,0,0:0:0:0:
144,32,70878,5,8,0:0:0:0:
231,223,71078,1,0,0:0:0:0:
366,70,71278,1,8,0:0:0:0:
80,168,71478,1,0,0:0:0:0:
0,256,71678,5,4,0:0:0:0:
80,168,71878,1,0,0:0:0:0:
176,304,72078,2,0,L|296:312,1,110.499994941712,8|0,0:0|0:0,0:0:0:0:
408,272,72478,2,0,P|392:208|424:144,1,110.499994941712,0|0,0:0|0:0,0:0:0:0:
472,80,72878,1,8,0:0:0:0:
301,44,73078,6,0,B|242:72|190:34|190:34|174:93|237:140,1,220.999989883423,0|0,0:0|0:0,0:0:0:0:
288,248,73678,2,0,L|168:224,1,110.499994941712,8|0,0:0|0:0,0:0:0:0:
56,312,74078,2,0,L|164:333,1,110.499994941712,0|0,0:0|0:0,0:0:0:0:
272,376,74478,1,8,0:0:0:0:
456,320,74678,6,0,B|438:269|461:229|461:229|454:191|417:169|417:169|426:136|408:104,1,220.999989883423,4|0,0:0|0:0,0:0:0:0:
208,48,75278,2,0,P|296:64|360:32,1,110.499994941712,8|0,0:0|0:0,0:0:0:0:
256,168,75678,2,0,L|240:304,1,110.499994941712,0|0,0:0|0:0,0:0:0:0:
312,360,76078,1,8,0:0:0:0:
112,336,76278,6,0,P|104:248|120:208,1,110.499994941712,4|0,0:0|0:0,0:0:0:0:
224,96,76678,1,0,0:0:0:0:
344,192,76878,1,8,0:0:0:0:
376,48,77078,1,0,0:0:0:0:
272,232,77278,1,8,0:0:0:0:
496,208,77478,1,0,0:0:0:0:
272,16,77678,1,8,0:0:0:0:
80,200,77878,2,0,P|88:232|104:256,1,55.2499974708558,8|0,0:0|0:0,0:0:0:0:
138,294,78078,6,0,P|130:323|107:347,3,50.9999984436036,4|0|0|0,2:0|2:0|2:0|2:0,2:0:0:0:
224,216,78878,2,0,P|253:208|285:216,3,50.9999984436036,0|0|0|0,2:0|2:0|2:0|2:0,2:0:0:0:
104,184,79678,2,0,P|82:162|73:130,3,50.9999984436036,0|0|0|0,2:0|2:0|2:0|2:0,2:0:0:0:
232,80,80478,5,0,2:0:0:0:
256,72,80678,1,0,2:0:0:0:
280,72,80878,1,0,2:0:0:0:
304,80,81078,1,0,2:0:0:0:
400,168,81278,6,0,L|392:224,3,50.9999984436036,0|0|0|0,2:0|2:0|2:0|2:0,2:0:0:0:
480,344,82078,2,0,L|435:309,3,50.9999984436036,0|0|0|0,2:0|2:0|2:0|2:0,2:0:0:0:
280,320,82878,2,0,L|332:298,3,50.9999984436036,0|0|0|0,2:0|2:0|2:0|2:0,2:0:0:0:
152,232,83678,5,0,2:0:0:0:
144,208,83878,1,0,2:0:0:0:
136,184,84078,1,0,2:0:0:0:
128,160,84278,1,0,2:0:0:0:
232,48,84478,6,0,B|254:68|254:68|281:74,3,50.9999984436036,0|0|0|0,2:0|2:0|2:0|2:0,2:0:0:0:
424,48,85278,2,0,B|395:57|395:57|376:77,3,50.9999984436036,0|0|0|0,2:0|2:0|2:0|2:0,2:0:0:0:
336,216,86078,2,0,B|342:186|342:186|334:160,3,50.9999984436036,0|0|0|0,2:0|2:0|2:0|2:0,2:0:0:0:
408,328,86878,5,0,2:0:0:0:
368,328,87078,1,0,2:0:0:0:
328,328,87278,1,0,2:0:0:0:
288,328,87478,1,0,2:0:0:0:
128,304,87678,6,0,L|136:360,3,50.9999984436036,0|0|0|0,2:0|2:0|2:0|2:0,2:0:0:0:
216,200,88478,2,0,L|208:250,3,50.9999984436036,0|0|0|0,2:0|2:0|2:0|2:0,2:0:0:0:
128,88,89278,2,0,L|135:138,3,50.9999984436036,0|0|0|0,2:0|2:0|2:0|2:0,2:0:0:0:
284,168,90078,6,0,P|300:167|313:159,2,21.25,8|0|0,0:0|0:0|0:0,0:0:0:0:
334,246,90278,2,0,P|348:239|358:227,2,21.25,0|0|0,0:0|0:0|0:0,0:0:0:0:
416,280,90478,2,0,P|426:267|429:252,2,21.25,8|0|0,0:0|0:0|0:0,0:0:0:0:
496,280,90678,2,0,P|499:264|495:249,2,21.25,0|0|0,0:0|0:0|0:0,0:0:0:0:
456,88,90878,5,4,0:0:0:0:
