osu file format v14

[General]
AudioFilename: audio.mp3
AudioLeadIn: 0
PreviewTime: 135321
Countdown: 0
SampleSet: Soft
StackLeniency: 0.8
Mode: 0
LetterboxInBreaks: 0
WidescreenStoryboard: 1

[Editor]
Bookmarks: 7544,21766,35988,50210,64432,78655,92877,107099,121321,135544,149766,163988,178210,192432,206210
DistanceSpacing: 1
BeatDivisor: 4
GridSize: 8
TimelineZoom: 1.4

[Metadata]
Title:Where We Wanna Be (feat. Slyleaf)
TitleUnicode:Where We Wanna Be (feat. Slyleaf)
Artist:Hyper Potions & Mega Flare
ArtistUnicode:Hyper Potions & Mega Flare
Creator:Hinsvar
Version:Hard
Source:
Tags:Electronic English pop future bass tropical house EDM electronic dance music Collector's Box collectors Featured Artist FA Mappers' Guild MG MPG
BeatmapID:4457089
BeatmapSetID:2120937

[Difficulty]
HPDrainRate:4
CircleSize:4
OverallDifficulty:5
ApproachRate:6
SliderMultiplier:1.44
SliderTickRate:1

[Events]
//Background and Video events
0,0,"BG.jpg",0,0
//Break Periods
2,50210,59827
//Storyboard Layer 0 (Background)
//Storyboard Layer 1 (Fail)
//Storyboard Layer 2 (Pass)
//Storyboard Layer 3 (Foreground)
//Storyboard Layer 4 (Overlay)
//Storyboard Sound Samples

[TimingPoints]
433,444.444444444444,4,2,1,60,1,0
6655,-111.111111111111,4,2,1,60,0,0
35988,-100,4,2,1,65,0,0
60877,-111.111111111111,4,2,1,60,0,0
61766,-111.111111111111,4,2,1,50,0,0
62210,-111.111111111111,4,2,1,60,0,0
62655,-125,4,2,1,50,0,0
63544,-100,4,2,1,65,0,0
64432,-90.9090909090909,4,2,1,70,0,1
64544,-90.9090909090909,4,2,1,70,0,0
92877,-111.111111111111,4,2,1,60,0,0
121321,-100,4,2,1,65,0,0
135544,-83.3333333333333,4,2,1,75,0,1
147988,-83.3333333333333,4,2,1,75,0,0
149766,-90.9090909090909,4,2,1,70,0,1
149877,-90.9090909090909,4,2,1,70,0,0
163988,-125,4,2,1,50,0,0
177321,-111.111111111111,4,2,1,50,0,0
178210,-83.3333333333333,4,2,1,80,0,1
203321,-125,4,2,1,30,0,0
206210,-125,4,2,1,5,0,0

[Colours]
Combo1 : 184,165,197
Combo2 : 243,185,48
Combo3 : 138,190,52
Combo4 : 233,207,129

[HitObjects]
241,370,6655,6,0,P|243:353|267:338,3,32.3999990112305,2|0|0|0,0:0|0:0|0:0|0:0,0:0:0:0:
279,323,7099,2,0,L|271:251,1,64.799998022461,8|0,0:0|0:0,0:0:0:0:
255,173,7544,5,0,3:0:0:0:
189,235,7766,2,0,P|158:238|123:214,1,64.799998022461,2|0,0:0|3:0,0:0:0:0:
49,263,8210,2,0,P|43:201|91:131,1,129.599996044922,2|0,0:0|0:0,0:0:0:0:
165,142,8877,2,0,P|168:111|144:76,1,64.799998022461,0|0,3:0|0:0,0:0:0:0:
222,23,9321,6,0,B|246:6|267:16|266:18|291:31|324:8,2,97.1999970336915,2|2|2,3:2|0:0|0:0,0:0:0:0:
257,108,10210,1,2,3:2:0:0:
347,99,10432,2,0,B|359:107|369:102|369:101|381:94|398:106,2,32.3999990112305,0|2|0,3:0|0:0|3:0,0:0:0:0:
315,179,10877,6,0,P|307:249|303:317,2,129.599996044922,2|0|2,0:0|0:0|0:0,0:0:0:0:
398,202,11988,1,0,3:0:0:0:
462,144,12210,2,0,P|466:109|468:75,2,64.799998022461,2|0|0,0:0|3:0|0:0,0:0:0:0:
482,227,12877,5,2,3:2:0:0:
468,312,13099,2,0,P|468:333|482:355,2,32.3999990112305,0|2|0,3:0|0:0|3:0,0:0:0:0:
382,324,13544,2,0,P|325:314|277:369,1,129.599996044922,2|0,0:0|0:0,0:0:0:0:
192,354,14210,2,0,P|197:325|169:301,1,64.799998022461,2|0,3:2|0:0,0:0:0:0:
96,343,14655,5,0,3:0:0:0:
37,279,14877,2,0,L|32:209,1,64.799998022461,2|0,0:0|3:0,0:0:0:0:
92,152,15321,2,0,L|87:82,1,64.799998022461,2|0,0:0|3:0,0:0:0:0:
135,15,15766,2,0,B|182:14|194:35|190:38|201:60|257:56,1,129.599996044922,2|0,0:0|0:0,0:0:0:0:
323,106,16432,6,0,B|361:108|369:92|366:90|375:74|411:74,2,97.1999970336915,2|2|2,3:2|0:0|0:0,0:0:0:0:
245,145,17321,1,2,3:2:0:0:
167,182,17544,2,0,B|154:182|151:177|152:176|149:171|137:171,2,32.3999990112305,0|2|0,3:0|0:0|3:0,0:0:0:0:
238,231,17988,6,0,L|205:356,2,129.599996044922,2|0|2,0:0|0:0|0:0,0:0:0:0:
317,197,19099,1,0,3:0:0:0:
390,152,19321,2,0,L|452:168,1,64.799998022461,2|0,0:0|3:0,0:0:0:0:
495,243,19766,1,2,0:0:0:0:
437,308,19988,5,2,3:2:0:0:
357,272,20210,2,0,L|358:226,2,32.3999990112305,0|2|0,3:0|0:0|3:0,0:0:0:0:
272,291,20655,2,0,L|275:153,1,129.599996044922,2|0,0:0|0:0,0:0:0:0:
279,75,21321,2,0,L|210:73,1,64.799998022461,0|0,3:0|0:0,0:0:0:0:
157,7,21766,5,0,3:0:0:0:
104,75,21988,1,2,0:0:0:0:
36,22,22210,2,0,P|12:68|42:144,1,129.599996044922,2|0,3:2|3:0,0:0:0:0:
23,223,22877,2,0,P|69:247|145:217,1,129.599996044922,2|0,0:0|0:0,0:0:0:0:
202,164,23544,6,0,B|190:134|208:119|212:119|227:106|212:67,2,97.1999970336915,2|2|2,3:2|0:0|0:0,0:0:0:0:
277,206,24432,1,2,3:2:0:0:
359,180,24655,2,0,B|362:170|357:165|355:165|350:160|355:147,2,32.3999990112305,0|2|0,3:0|0:0|3:0,0:0:0:0:
342,264,25099,2,0,P|375:270|406:290,1,64.799998022461,2|0,0:0|3:0,0:0:0:0:
348,353,25544,5,2,0:0:0:0:
262,345,25766,2,0,P|206:353|129:380,1,129.599996044922,0|0,3:0|3:0,0:0:0:0:
61,335,26432,2,0,P|57:307|43:268,2,64.799998022461,2|0|0,0:0|3:0|0:0,0:0:0:0:
135,291,27099,6,0,B|163:286|177:266|172:266|188:236|225:231,2,97.1999970336915,2|2|2,3:2|0:0|0:0,0:0:0:0:
105,209,27988,1,2,3:2:0:0:
47,145,28210,2,0,B|37:143|33:136|34:136|29:126|17:125,2,32.3999990112305,0|2|0,3:0|0:0|3:0,0:0:0:0:
130,123,28655,1,2,0:0:0:0:
151,39,28877,5,0,3:0:0:0:
234,15,29099,2,0,L|306:28,1,64.799998022461,2|0,0:0|3:0,0:0:0:0:
343,100,29544,2,0,L|271:113,1,64.799998022461,2|0,0:0|3:0,0:0:0:0:
246,191,29988,2,0,P|298:206|333:275,1,129.599996044922,2|0,0:0|0:0,0:0:0:0:
417,285,30655,6,0,B|435:311|420:331|420:332|414:350|435:390,2,97.1999970336915,2|2|2,3:2|0:0|0:0,0:0:0:0:
405,199,31544,1,2,3:2:0:0:
467,140,31766,2,0,B|472:131|467:124|467:124|466:118|472:105,2,32.3999990112305,0|2|0,3:0|0:0|3:0,0:0:0:0:
383,118,32210,6,0,P|370:66|319:13,2,129.599996044922,2|0|2,0:0|0:0|0:0,0:0:0:0:
335,190,33321,1,0,3:0:0:0:
276,125,33544,2,0,P|250:131|223:157,1,64.799998022461,2|0,0:0|3:0,0:0:0:0:
157,213,33989,1,2,0:0:0:0:
105,143,34211,5,2,3:2:0:0:
36,195,34432,2,0,P|16:193|4:180,2,32.3999990112305,0|2|0,3:0|0:0|3:0,0:0:0:0:
88,264,34877,1,2,0:0:0:0:
165,300,35099,6,0,L|167:348,2,43.1999986816407,2|2|2,0:3|0:3|0:3,0:0:0:0:
222,295,35544,2,0,L|294:292,1,64.799998022461,8|0,0:1|0:0,0:0:0:0:
361,335,35988,6,0,P|426:353|452:284,1,144,2|8,3:2|0:0,0:0:0:0:
382,247,36655,2,0,P|350:227|346:221,2,36,2|0|2,0:0|0:0|0:0,0:0:0:0:
440,183,37099,2,0,P|447:148|447:104,1,72,2|8,0:0|0:0,0:0:0:0:
386,50,37544,6,0,B|336:61|318:39|321:33|304:8|246:20,1,144,2|2,0:0|0:0,0:0:0:0:
224,100,38210,1,8,0:0:0:0:
140,78,38432,2,0,P|136:45|116:10,1,72,2|0,0:0|0:0,0:0:0:0:
33,32,38877,1,2,0:0:0:0:
33,32,38988,1,2,0:0:0:0:
33,32,39099,1,8,0:0:0:0:
57,114,39321,1,2,0:0:0:0:
33,197,39544,6,0,B|80:194|101:224|98:225|119:259|175:249,1,144,2|8,3:2|0:0,0:0:0:0:
226,193,40210,2,0,P|224:171|216:147,2,36,2|2|2,0:0|0:0|0:0,0:0:0:0:
309,221,40655,2,0,B|330:225|340:208|339:207|349:192|373:194,1,72,2|8,0:0|0:0,0:0:0:0:
443,145,41099,6,0,P|505:181|496:262,1,144,2|2,0:0|0:0,0:0:0:0:
422,271,41766,1,8,0:0:0:0:
486,328,41988,2,0,P|468:359|427:354,1,72,2|0,0:0|0:0,0:0:0:0:
356,374,42432,1,2,0:0:0:0:
356,374,42544,1,2,0:0:0:0:
356,374,42655,1,8,0:0:0:0:
272,352,42877,1,2,0:0:0:0:
262,265,43099,6,0,P|234:218|151:195,1,144,2|8,3:2|0:0,0:0:0:0:
67,215,43766,2,0,P|59:232|52:259,2,36,2|2|2,0:0|0:0|0:0,0:0:0:0:
95,133,44210,2,0,P|74:104|39:97,1,72,2|8,0:0|0:0,0:0:0:0:
12,14,44655,6,0,P|91:16|161:6,1,144,2|2,0:0|0:0,0:0:0:0:
155,7,45210,1,2,0:0:0:0:
155,7,45321,1,8,0:0:0:0:
256,12,45544,2,0,B|315:18|340:78|336:78|351:123|433:128,1,216,2|8,0:0|0:0,0:0:0:0:
479,196,46432,6,0,P|426:222|391:316,1,144,2|0,0:0|0:0,0:0:0:0:
312,257,47099,1,8,0:0:0:0:
303,172,47321,1,2,0:0:0:0:
303,172,47432,1,2,0:0:0:0:
303,172,47544,2,0,P|290:145|243:128,1,72,2|0,0:0|0:0,0:0:0:0:
174,164,47988,1,8,0:0:0:0:
90,140,48210,6,0,P|67:77|17:17,2,144,2|2|2,0:0|0:0|0:0,0:0:0:0:
106,225,49321,2,0,P|84:250|70:287,1,72,2|0,0:0|0:0,0:0:0:0:
52,317,49655,2,0,P|68:319|87:316,1,36,2|0,0:0|3:0,0:0:0:0:
50,365,60877,6,0,L|43:301,1,64.799998022461,0|0,3:0|3:0,0:0:0:0:
83,224,61321,2,0,L|76:160,1,64.799998022461,0|0,3:0|3:0,0:0:0:0:
116,83,61766,6,0,L|112:51,3,32.3999990112305,8|8|8|8,0:1|0:1|0:1|0:1,0:0:0:0:
133,25,62210,1,0,3:0:0:0:
149,24,62321,1,0,3:0:0:0:
165,22,62432,1,0,3:0:0:0:
181,20,62543,1,0,3:0:0:0:
197,18,62655,6,0,B|224:7|239:18|239:21|253:30|281:14,2,86.4,2|0|0,0:0|0:0|0:0,0:0:0:0:
194,104,63544,6,0,B|227:90|246:104|246:107|264:119|299:99,1,108,2|0,0:0|0:0,0:0:0:0:
326,120,63988,2,0,B|322:144|308:150|306:149|294:155|293:182,1,72,8|0,0:1|0:0,0:0:0:0:
190,211,64432,5,4,3:1:0:0:
190,211,64877,2,0,P|149:244|82:242,1,118.800003625488,2|2,0:0|0:0,0:0:0:0:
69,279,65321,2,0,P|90:306|89:350,1,79.2000024169923,8|2,0:1|0:0,0:0:0:0:
90,348,65988,1,2,0:0:0:0:
184,358,66210,6,0,P|240:361|315:373,2,118.800003625488,2|2|0,0:0|0:0|3:0,0:0:0:0:
194,264,67099,2,0,P|197:208|209:133,2,118.800003625488,8|2|2,0:1|0:0|0:0,0:0:0:0:
292,275,67988,5,0,3:0:0:0:
292,275,68432,2,0,L|416:259,1,118.800003625488,2|2,0:0|0:0,0:0:0:0:
435,229,68877,2,0,L|384:162,1,79.2000024169923,8|2,0:1|0:0,0:0:0:0:
386,166,69544,1,2,0:0:0:0:
299,125,69766,6,0,B|316:88|296:65|298:62|275:41|303:-1,2,118.800003625488,2|2|0,0:0|0:0|3:0,0:0:0:0:
243,202,70655,2,0,B|260:239|240:262|242:265|219:286|247:328,2,118.800003625488,8|2|2,0:1|0:0|3:2,0:0:0:0:
151,228,71544,5,0,3:0:0:0:
151,228,71988,2,0,P|100:237|37:199,1,118.800003625488,2|2,0:0|0:0,0:0:0:0:
24,171,72432,2,0,P|18:137|43:95,1,79.2000024169923,8|2,0:1|0:0,0:0:0:0:
38,98,73099,1,2,0:0:0:0:
128,127,73321,6,0,P|134:82|97:19,2,118.800003625488,2|2|0,0:0|0:0|3:0,0:0:0:0:
223,127,74210,2,0,P|217:82|254:19,2,118.800003625488,8|2|2,0:1|0:0|0:0,0:0:0:0:
175,209,75099,6,0,L|255:231,1,79.2000024169923,0|0,3:0|0:0,0:0:0:0:
330,177,75544,2,0,P|369:160|430:197,1,118.800003625488,2|2,0:0|0:0,0:0:0:0:
466,211,75988,2,0,P|477:236|452:277,1,79.2000024169923,8|2,0:1|0:0,0:0:0:0:
358,285,76432,1,0,3:0:0:0:
366,379,76655,1,2,0:0:0:0:
280,338,76877,6,0,P|221:344|165:370,2,118.800003625488,2|2|0,0:0|0:0|3:0,0:0:0:0:
253,246,77766,1,8,0:1:0:0:
255,236,77877,1,0,3:0:0:0:
228,144,78099,2,0,P|287:138|343:112,1,118.800003625488,2|2,0:0|0:0,0:0:0:0:
341,21,78655,5,4,3:1:0:0:
341,21,79099,2,0,L|221:9,1,118.800003625488,2|2,0:0|0:0,0:0:0:0:
182,11,79544,2,0,L|174:90,2,79.2000024169923,8|2|0,0:1|0:0|0:0,0:0:0:0:
89,34,80210,1,2,0:0:0:0:
7,82,80432,6,0,P|11:144|62:175,1,118.800003625488,2|2,0:0|0:0,0:0:0:0:
74,208,80877,2,0,P|115:205|135:171,1,79.2000024169923,2|0,0:0|3:0,0:0:0:0:
223,140,81321,2,0,P|227:78|278:47,1,118.800003625488,8|2,0:1|0:0,0:0:0:0:
290,14,81766,2,0,P|331:16|351:50,1,79.2000024169923,2|2,0:0|0:0,0:0:0:0:
379,140,82210,5,0,3:0:0:0:
379,140,82655,2,0,P|438:146|506:160,1,118.800003625488,2|2,0:0|0:0,0:0:0:0:
494,201,83099,2,0,P|489:240|480:285,2,79.2000024169923,8|2|0,0:1|0:0|0:0,0:0:0:0:
403,230,83766,1,2,0:0:0:0:
308,237,83988,6,0,B|274:240|253:216|257:211|235:186|198:179,2,118.800003625488,2|2|0,0:0|0:0|3:0,0:0:0:0:
359,317,84877,2,0,B|393:314|414:338|410:343|432:368|469:375,2,118.800003625488,8|2|2,0:1|0:0|3:2,0:0:0:0:
283,375,85766,5,0,3:0:0:0:
283,375,86210,2,0,P|239:361|221:292,1,118.800003625488,2|2,0:0|0:0,0:0:0:0:
225,256,86655,2,0,P|217:218|182:203,2,79.2000024169923,8|2|0,0:1|0:0|0:0,0:0:0:0:
132,278,87321,1,2,0:0:0:0:
50,326,87544,6,0,P|47:264|36:185,1,118.800003625488,2|2,0:0|0:0,0:0:0:0:
34,168,87988,2,0,P|68:146|110:112,1,79.2000024169923,2|0,0:0|3:0,0:0:0:0:
181,74,88432,2,0,P|183:135|195:215,1,118.800003625488,8|2,0:1|0:0,0:0:0:0:
197,232,88876,2,0,P|162:253|120:287,1,79.2000024169923,2|2,0:0|0:0,0:0:0:0:
216,335,89321,6,0,P|252:344|290:327,1,79.2000024169923,0|0,3:0|0:0,0:0:0:0:
372,281,89766,2,0,P|426:267|483:293,1,118.800003625488,2|2,0:0|0:0,0:0:0:0:
499,256,90210,2,0,P|473:229|468:187,1,79.2000024169923,8|2,0:1|0:0,0:0:0:0:
375,170,90655,1,0,3:0:0:0:
438,99,90877,1,2,0:0:0:0:
367,36,91099,6,0,P|422:4|476:15,2,118.800003625488,2|2|2,0:0|0:0|0:0,0:0:0:0:
304,107,91988,2,0,P|249:139|195:128,2,118.800003625488,2|2|2,0:0|0:0|0:0,0:0:0:0:
238,51,92877,5,0,3:0:0:0:
151,52,93099,2,0,P|121:36|87:4,1,64.799998022461,2|0,0:0|3:0,0:0:0:0:
24,63,93544,2,0,P|25:117|8:190,1,129.599996044922,2|0,0:0|0:0,0:0:0:0:
88,221,94210,2,0,P|87:248|95:284,1,64.799998022461,0|0,3:0|0:0,0:0:0:0:
174,248,94655,6,0,B|168:218|180:200|184:200|196:183|181:140,2,97.1999970336915,2|2|2,3:2|0:0|0:0,0:0:0:0:
256,273,95544,1,2,3:2:0:0:
338,248,95766,2,0,B|341:233|335:224|333:224|327:215|334:194,2,32.3999990112305,0|2|0,3:0|0:0|3:0,0:0:0:0:
319,332,96210,1,2,0:0:0:0:
393,376,96432,6,0,P|458:361|473:297,1,129.599996044922,2|0,3:2|3:0,0:0:0:0:
457,220,97099,2,0,P|444:175|435:125,1,97.1999970336915,2|0,0:0|0:0,0:0:0:0:
428,93,97544,2,0,P|438:63|469:58,2,64.799998022461,2|0|0,0:0|3:0|0:0,0:0:0:0:
349,128,98210,6,0,B|317:140|298:131|300:127|283:117|254:130,1,97.1999970336915,2|2,3:2|0:0,0:0:0:0:
115,131,98877,2,0,B|86:117|69:127|71:131|52:140|20:128,2,97.1999970336915,2|2|2,0:0|0:0|3:2,0:0:0:0:
138,214,99766,1,2,0:0:0:0:
71,268,99988,6,0,L|0:254,2,64.799998022461,2|0|0,3:2|0:0|3:0,0:0:0:0:
103,348,100655,2,0,L|174:362,1,64.799998022461,2|0,0:0|3:0,0:0:0:0:
221,294,101099,2,0,P|284:300|333:256,1,129.599996044922,2|0,0:0|0:0,0:0:0:0:
294,180,101766,2,0,B|264:192|248:171|245:174|224:153|197:156,2,97.1999970336915,2|2|2,3:2|0:0|0:0,0:0:0:0:
373,145,102655,1,2,3:2:0:0:
452,110,102877,2,0,B|462:114|467:107|468:108|475:101|484:102,2,32.3999990112305,0|2|0,3:0|0:0|3:0,0:0:0:0:
384,56,103321,1,2,0:0:0:0:
302,92,103544,6,0,P|271:28|208:30,1,129.599996044922,2|0,3:2|3:0,0:0:0:0:
214,110,104210,2,0,P|167:107|111:98,1,97.1999970336915,2|0,0:0|0:0,0:0:0:0:
84,96,104655,2,0,P|52:80|53:49,2,64.799998022461,2|0|0,0:0|3:0|0:0,0:0:0:0:
95,181,105321,6,0,B|99:201|86:229|83:229|72:252|81:291,1,97.1999970336915,2|2,3:2|0:0,0:0:0:0:
213,309,105988,2,0,B|219:285|208:262|205:262|192:234|196:214,2,97.1999970336915,2|2|2,0:0|0:0|3:2,0:0:0:0:
299,301,106877,2,0,P|334:308|370:324,1,64.799998022461,2|0,0:0|3:0,0:0:0:0:
435,363,107321,5,2,0:0:0:0:
490,298,107544,2,0,P|505:241|462:186,1,129.599996044922,0|0,3:0|3:0,0:0:0:0:
390,145,108210,2,0,P|375:202|418:257,1,129.599996044922,2|0,0:0|0:0,0:0:0:0:
336,291,108877,6,0,B|307:302|289:285|292:281|272:261|233:269,2,97.1999970336915,2|2|2,3:2|0:0|0:0,0:0:0:0:
408,337,109766,1,2,3:2:0:0:
493,345,109988,2,0,B|489:354|494:360|496:359|502:366|500:379,2,32.3999990112305,0|2|0,3:0|0:0|3:0,0:0:0:0:
458,268,110432,2,0,P|459:237|464:193,1,64.799998022461,2|0,0:0|3:0,0:0:0:0:
474,117,110877,5,2,0:0:0:0:
393,147,111099,2,0,P|351:116|326:44,1,129.599996044922,0|0,3:0|3:0,0:0:0:0:
239,40,111766,2,0,P|208:48|187:73,2,64.799998022461,2|0|0,0:0|3:0|0:0,0:0:0:0:
260,123,112432,6,0,B|270:152|254:173|254:170|236:195|247:222,2,97.1999970336915,2|2|2,3:2|0:0|0:0,0:0:0:0:
178,153,113321,1,2,3:2:0:0:
107,103,113544,2,0,B|97:106|90:101|91:101|83:95|74:98,2,32.3999990112305,0|2|0,3:0|0:0|3:0,0:0:0:0:
96,188,113988,1,2,0:0:0:0:
47,259,114210,5,0,3:0:0:0:
132,266,114432,2,0,P|140:295|144:337,1,64.799998022461,2|0,0:0|3:0,0:0:0:0:
222,365,114877,2,0,P|243:343|277:319,1,64.799998022461,2|0,0:0|3:0,0:0:0:0:
298,242,115321,2,0,P|284:188|283:109,1,129.599996044922,2|0,0:0|0:0,0:0:0:0:
217,54,115988,6,0,B|185:57|174:35|177:32|168:14|121:18,2,97.1999970336915,2|2|2,3:2|0:0|0:0,0:0:0:0:
296,21,116877,1,2,3:2:0:0:
361,77,117099,2,0,B|371:77|375:70|374:69|377:63|392:65,2,32.3999990112305,0|2|0,3:0|0:0|3:0,0:0:0:0:
283,115,117544,6,0,P|255:168|254:246,2,129.599996044922,2|0|2,0:0|0:0|0:0,0:0:0:0:
349,170,118655,1,0,3:0:0:0:
371,253,118877,2,0,P|386:278|420:298,1,64.799998022461,2|0,0:0|3:0,0:0:0:0:
493,259,119321,1,2,0:0:0:0:
500,173,119544,5,2,3:2:0:0:
429,123,119766,2,0,L|424:81,2,32.3999990112305,0|2|0,3:0|0:0|3:0,0:0:0:0:
343,117,120210,1,2,0:0:0:0:
287,182,120432,6,0,L|281:224,2,43.1999986816407,2|2|2,0:3|0:3|0:3,0:0:0:0:
254,134,120877,2,0,L|246:69,1,64.799998022461,8|0,0:1|0:0,0:0:0:0:
171,26,121321,6,0,B|133:10|103:43|108:45|78:84|28:63,1,144,2|8,3:2|0:0,0:0:0:0:
26,152,121988,2,0,P|26:169|32:186,2,36,2|2|8,0:0|0:0|0:0,0:0:0:0:
111,144,122432,2,0,P|122:177|124:215,1,72,2|8,0:0|0:0,0:0:0:0:
210,204,122877,6,0,P|280:220|311:291,1,144,2|2,0:0|0:0,0:0:0:0:
246,338,123544,1,8,0:0:0:0:
167,373,123766,2,0,P|132:365|92:359,1,72,2|0,0:0|0:0,0:0:0:0:
66,278,124210,1,2,0:0:0:0:
66,278,124321,1,2,0:0:0:0:
66,278,124432,1,8,0:0:0:0:
124,213,124655,1,2,0:0:0:0:
49,169,124877,6,0,B|76:121|48:98|45:101|19:69|41:19,1,144,2|8,3:2|0:0,0:0:0:0:
121,48,125544,2,0,L|117:8,2,36,2|2|2,0:0|0:0|0:0,0:0:0:0:
207,47,125988,2,0,B|220:70|206:81|204:80|191:96|200:114,1,72,2|8,0:0|0:0,0:0:0:0:
214,198,126432,6,0,P|250:260|284:347,1,144,2|2,0:0|0:0,0:0:0:0:
359,354,127099,1,8,0:0:0:0:
438,320,127321,2,0,P|451:286|469:255,1,72,2|0,0:0|3:0,0:0:0:0:
409,196,127766,1,2,0:0:0:0:
409,196,127877,1,2,0:0:0:0:
409,196,127988,1,8,0:0:0:0:
492,175,128210,1,2,0:0:0:0:
497,87,128432,6,0,P|460:27|388:19,1,144,2|8,3:2|0:0,0:0:0:0:
346,91,129099,2,0,P|357:112|360:131,2,36,2|2|2,0:0|0:0|0:0,0:0:0:0:
259,104,129544,2,0,P|224:99|206:69,1,72,2|8,0:0|0:0,0:0:0:0:
129,29,129988,6,0,P|73:66|14:132,1,144,2|2,0:0|0:0,0:0:0:0:
20,122,130544,1,2,0:0:0:0:
20,122,130655,1,8,0:0:0:0:
110,163,130877,2,0,B|182:169|190:230|187:232|191:290|267:286,1,216,2|8,0:0|0:0,0:0:0:0:
300,206,131766,6,0,P|361:192|445:197,1,144,2|0,0:0|0:0,0:0:0:0:
502,258,132432,1,8,0:0:0:0:
510,351,132655,1,2,0:0:0:0:
510,351,132766,1,2,0:0:0:0:
510,351,132877,2,0,P|479:358|437:355,1,72,2|0,0:0|0:0,0:0:0:0:
357,382,133321,6,0,B|364:360|354:342|351:344|341:324|349:296,1,72,8|2,0:0|0:0,0:0:0:0:
346,312,133655,1,2,0:0:0:0:
346,312,133766,1,2,0:0:0:0:
166,72,135544,5,4,3:1:0:0:
166,72,135988,2,0,P|98:68|41:18,1,129.599996044922,10|2,0:0|0:0,0:0:0:0:
15,57,136432,2,0,P|35:97|25:147,1,86.3999973632813,0|2,3:0|0:0,0:0:0:0:
128,170,136877,1,8,0:0:0:0:
149,272,137099,1,2,0:0:0:0:
247,304,137321,6,0,B|290:300|320:354|368:342,1,129.599996044922,2|2,3:2|0:0,0:0:0:0:
400,370,137766,2,0,B|397:341|433:321|425:289,1,86.3999973632813,8|2,0:0|0:0,0:0:0:0:
488,207,138210,2,0,B|445:211|415:157|367:169,1,129.599996044922,2|2,3:2|0:0,0:0:0:0:
335,141,138655,2,0,B|337:169|301:189|309:221,1,86.3999973632813,8|2,0:0|0:0,0:0:0:0:
247,304,139099,5,0,3:0:0:0:
247,304,139544,2,0,P|206:270|214:178,1,129.599996044922,10|2,0:0|0:0,0:0:0:0:
159,190,139988,2,0,P|136:217|75:211,1,86.3999973632813,0|2,3:0|0:0,0:0:0:0:
5,157,140432,1,8,0:0:0:0:
19,54,140655,1,2,0:0:0:0:
115,14,140877,6,0,L|202:114,1,129.599996044922,2|2,3:2|0:0,0:0:0:0:
242,104,141321,2,0,L|328:87,1,86.3999973632813,8|2,0:0|0:0,0:0:0:0:
417,138,141766,2,0,L|330:238,1,129.599996044922,2|2,3:2|0:0,0:0:0:0:
290,228,142210,2,0,L|203:211,1,86.3999973632813,8|2,0:0|0:0,0:0:0:0:
193,314,142655,5,0,3:0:0:0:
193,314,143099,2,0,P|266:329|311:370,1,129.599996044922,10|2,0:0|0:0,0:0:0:0:
356,379,143544,2,0,P|362:336|389:303,1,86.3999973632813,0|2,3:0|0:0,0:0:0:0:
486,267,143988,1,8,0:0:0:0:
450,170,144210,1,2,0:0:0:0:
353,206,144432,6,0,B|309:186|295:216|298:219|282:249|234:230,2,129.599996044922,2|2|2,3:2|0:0|0:0,0:0:0:0:
373,104,145321,2,0,B|421:99|418:66|414:65|412:31|464:23,2,129.599996044922,2|2|0,3:2|0:0|0:0,0:0:0:0:
268,106,146210,6,0,P|266:65|254:16,1,86.3999973632813,0|0,3:0|0:0,0:0:0:0:
154,43,146655,2,0,L|21:27,1,129.599996044922,10|0,0:0|0:0,0:0:0:0:
19,70,147099,2,0,L|8:158,1,86.3999973632813,0|2,3:0|0:0,0:0:0:0:
110,132,147544,1,8,0:0:0:0:
181,209,147766,1,2,0:0:0:0:
149,308,147988,2,0,P|96:306|54:365,2,129.599996044922,0|2|2,3:2|0:0|0:0,0:0:0:0:
251,287,148877,2,0,P|304:289|346:230,1,129.599996044922,2|2,0:0|0:0,0:0:0:0:
387,221,149321,2,0,P|388:185|349:157,1,86.3999973632813,8|2,0:1|0:0,0:0:0:0:
258,184,149766,5,4,3:1:0:0:
258,184,150210,2,0,P|253:122|241:61,1,118.800003625488,2|2,0:0|0:0,0:0:0:0:
236,22,150655,2,0,P|197:29|157:32,2,79.2000024169923,8|2|0,0:0|0:0|0:0,0:0:0:0:
329,6,151321,1,2,0:0:0:0:
424,14,151544,6,0,P|475:44|478:102,1,118.800003625488,2|2,0:0|0:0,0:0:0:0:
501,131,151988,2,0,P|500:170|468:191,1,79.2000024169923,2|0,0:0|3:0,0:0:0:0:
419,271,152432,2,0,P|368:241|365:183,1,118.800003625488,8|2,0:0|0:0,0:0:0:0:
342,154,152876,2,0,P|342:114|374:93,1,79.2000024169923,2|2,0:0|0:0,0:0:0:0:
424,14,153321,5,0,3:0:0:0:
424,14,153766,2,0,P|364:14|300:10,1,118.800003625488,2|2,0:0|0:0,0:0:0:0:
265,9,154210,2,0,P|265:48|262:91,2,79.2000024169923,8|2|0,0:0|0:0|0:0,0:0:0:0:
177,47,154877,1,2,0:0:0:0:
162,140,155099,6,0,B|123:152|103:123|108:121|94:95|50:100,1,118.800003625488,2|2,0:0|0:0,0:0:0:0:
27,125,155544,2,0,B|46:143|36:164|34:162|23:179|41:202,1,79.2000024169923,2|0,0:0|3:0,0:0:0:0:
33,293,155988,2,0,B|72:281|92:310|87:312|101:338|145:333,1,118.800003625488,8|2,0:0|0:0,0:0:0:0:
168,308,156433,2,0,B|148:289|158:268|160:270|171:253|153:230,1,79.2000024169923,2|2,0:0|3:2,0:0:0:0:
243,195,156877,5,0,3:0:0:0:
243,195,157321,2,0,P|280:144|338:150,1,118.800003625488,2|2,0:0|0:0,0:0:0:0:
366,164,157766,2,0,P|407:168|423:203,2,79.2000024169923,8|2|0,0:0|0:0|0:0,0:0:0:0:
335,254,158432,1,2,0:0:0:0:
382,336,158655,6,0,L|256:355,1,118.800003625488,2|2,0:0|0:0,0:0:0:0:
225,360,159099,2,0,L|212:276,1,79.2000024169923,2|0,0:0|3:0,0:0:0:0:
201,187,159544,2,0,L|75:168,1,118.800003625488,8|2,0:0|0:0,0:0:0:0:
44,163,159988,2,0,L|31:246,1,79.2000024169923,2|0,0:0|3:0,0:0:0:0:
6,332,160432,6,0,P|39:343|75:320,1,79.2000024169923,0|0,3:0|0:0,0:0:0:0:
158,277,160877,2,0,P|200:312|244:367,1,118.800003625488,2|2,0:0|0:0,0:0:0:0:
253,324,161321,2,0,P|259:288|276:244,2,79.2000024169923,8|2|0,0:0|0:0|3:0,0:0:0:0:
347,312,161988,1,2,0:0:0:0:
397,231,162210,6,0,P|449:233|502:289,2,118.800003625488,2|2|2,0:0|0:0|0:0,0:0:0:0:
323,169,163099,2,0,P|271:167|218:111,2,118.800003625488,2|2|2,0:0|0:0|0:0,0:0:0:0:
392,115,163988,5,0,3:0:0:0:
479,117,164210,1,2,0:0:0:0:
481,30,164432,2,0,P|422:17|362:18,1,115.2,2|0,0:0|0:0,0:0:0:0:
280,15,165099,2,0,P|267:74|268:134,1,115.2,2|0,0:0|0:0,0:0:0:0:
265,216,165766,2,0,B|267:240|252:258|249:256|235:268|241:301,2,86.4,2|0|0,0:0|0:0|0:0,0:0:0:0:
189,174,166655,2,0,B|166:164|158:141|161:140|158:121|126:111,2,86.4,2|0|0,0:0|0:0|0:0,0:0:0:0:
361,176,167766,5,2,0:0:0:0:
429,123,167988,2,0,P|478:136|499:197,1,115.2,2|0,0:0|0:0,0:0:0:0:
472,274,168655,2,0,P|480:300|507:308,2,57.6,2|0|2,0:0|0:0|0:0,0:0:0:0:
386,281,169321,6,0,B|366:291|341:277|344:274|326:258|298:260,2,86.4,2|0|0,0:0|0:0|0:0,0:0:0:0:
386,194,170210,1,2,0:0:0:0:
303,168,170432,2,0,B|289:166|277:177|279:179|262:188|249:182,2,57.6,2|0|0,0:0|0:0|0:0,0:0:0:0:
331,86,171099,6,0,P|330:60|322:24,1,57.6,2|2,0:0|0:0,0:0:0:0:
237,37,171544,1,2,0:0:0:0:
151,45,171766,2,0,P|125:46|89:54,1,57.6,2|0,0:0|0:0,0:0:0:0:
102,139,172210,2,0,P|154:137|226:121,1,115.2,2|0,0:0|0:0,0:0:0:0:
290,168,172877,6,0,B|319:164|329:183|326:184|338:201|381:196,2,86.4,2|0|0,0:0|0:0|0:0,0:0:0:0:
254,247,173766,1,2,0:0:0:0:
171,222,173988,2,0,P|159:244|158:284,1,57.6,2|0,0:0|0:0,0:0:0:0:
82,321,174432,6,0,P|58:271|3:251,1,115.2,2|0,0:0|0:0,0:0:0:0:
12,78,175321,2,0,P|67:82|112:44,1,115.2,2|0,0:0|0:0,0:0:0:0:
193,19,175988,1,2,0:0:0:0:
265,86,176210,5,2,0:0:0:0:
265,86,176655,1,2,0:0:0:0:
265,86,177099,1,2,0:0:0:0:
274,171,177321,6,0,L|279:225,2,43.1999986816407,2|2|2,0:3|0:3|0:3,0:0:0:0:
331,164,177766,2,0,L|412:156,1,64.799998022461,8|0,0:1|0:0,0:0:0:0:
484,220,178210,5,4,3:1:0:0:
484,220,178655,2,0,P|481:282|418:300,1,129.599996044922,10|2,0:0|0:0,0:0:0:0:
388,277,179099,2,0,P|349:290|348:331,1,86.3999973632813,0|2,3:0|0:0,0:0:0:0:
256,380,179544,1,8,0:0:0:0:
165,330,179766,1,2,0:0:0:0:
256,282,179988,6,0,L|256:192,1,86.3999973632813,2|2,3:2|0:0,0:0:0:0:
256,195,180321,1,2,0:0:0:0:
256,195,180432,1,8,0:0:0:0:
336,128,180655,2,0,P|341:89|303:59,1,86.3999973632813,2|0,0:0|3:0,0:0:0:0:
204,60,181099,1,2,0:0:0:0:
195,67,181210,2,0,B|149:79|135:50|138:48|122:20|74:26,1,129.599996044922,2|2,0:0|0:0,0:0:0:0:
13,106,181766,5,0,3:0:0:0:
13,106,182210,2,0,L|132:167,1,129.599996044922,10|2,0:0|0:0,0:0:0:0:
111,205,182655,2,0,L|70:284,1,86.3999973632813,8|2,0:0|0:0,0:0:0:0:
140,359,183099,1,0,3:0:0:0:
243,339,183321,1,2,0:0:0:0:
346,319,183544,6,0,P|387:330|423:365,1,86.3999973632813,2|2,3:2|0:0,0:0:0:0:
419,358,183877,1,2,0:0:0:0:
419,358,183988,1,8,0:0:0:0:
487,281,184210,2,0,P|476:239|488:191,1,86.3999973632813,2|0,0:0|3:0,0:0:0:0:
403,133,184655,1,2,0:0:0:0:
399,143,184766,2,0,B|356:143|349:179|352:178|342:214|300:224,1,129.599996044922,2|2,0:0|0:0,0:0:0:0:
204,243,185321,5,0,3:0:0:0:
204,243,185766,2,0,P|146:216|77:217,1,129.599996044922,10|2,0:0|0:0,0:0:0:0:
49,186,186210,2,0,P|66:147|66:101,1,86.3999973632813,0|2,3:0|0:0,0:0:0:0:
134,25,186655,1,8,0:0:0:0:
234,51,186877,1,2,0:0:0:0:
334,25,187099,6,0,L|431:42,1,86.3999973632813,2|2,3:2|0:0,0:0:0:0:
419,39,187432,1,2,0:0:0:0:
419,39,187544,1,8,0:0:0:0:
491,113,187766,1,2,0:0:0:0:
420,189,187988,2,0,P|362:182|322:236,1,129.599996044922,2|2,3:2|0:0,0:0:0:0:
288,260,188432,2,0,P|283:298|319:325,1,86.3999973632813,8|2,0:0|0:0,0:0:0:0:
410,373,188877,6,0,L|499:365,1,86.3999973632813,0|0,3:0|0:0,0:0:0:0:
467,265,189321,2,0,B|457:228|477:201|481:203|504:181|487:133,1,129.599996044922,10|2,0:0|0:0,0:0:0:0:
482,98,189766,1,0,3:0:0:0:
415,18,189988,1,2,0:0:0:0:
312,36,190210,1,8,0:0:0:0:
379,116,190432,1,2,0:0:0:0:
367,219,190655,6,0,P|303:218|229:234,1,129.599996044922,2|2,3:2|0:0,0:0:0:0:
249,277,191099,2,0,P|248:319|258:368,1,86.3999973632813,8|2,0:0|0:0,0:0:0:0:
153,373,191544,2,0,P|154:309|138:235,1,129.599996044922,2|2,3:2|0:0,0:0:0:0:
95,255,191988,2,0,P|52:254|3:264,1,86.3999973632813,8|2,0:0|0:0,0:0:0:0:
6,159,192432,5,4,3:1:0:0:
6,159,192877,2,0,P|66:128|73:65,1,129.599996044922,10|2,0:0|0:0,0:0:0:0:
117,63,193321,2,0,P|137:102|179:107,1,86.3999973632813,0|2,3:0|0:0,0:0:0:0:
233,195,193766,1,8,0:0:0:0:
282,103,193988,1,2,0:0:0:0:
378,64,194210,6,0,L|375:154,1,86.3999973632813,2|2,3:2|0:0,0:0:0:0:
375,150,194544,1,2,0:0:0:0:
375,150,194655,1,8,0:0:0:0:
322,239,194877,2,0,L|325:329,1,86.3999973632813,2|0,0:0|3:0,0:0:0:0:
418,370,195321,1,2,0:0:0:0:
418,359,195432,2,0,B|403:332|430:303|433:305|451:277|436:219,1,129.599996044922,2|2,0:0|0:0,0:0:0:0:
504,154,195988,5,0,3:0:0:0:
504,154,196432,2,0,P|503:88|464:40,1,129.599996044922,10|2,0:0|0:0,0:0:0:0:
425,20,196877,2,0,P|381:20|349:46,1,86.3999973632813,0|2,3:0|0:0,0:0:0:0:
293,133,197321,1,8,0:0:0:0:
206,77,197544,1,2,0:0:0:0:
114,124,197766,6,0,P|73:143|27:143,1,86.3999973632813,2|2,3:2|0:0,0:0:0:0:
32,143,198099,1,2,0:0:0:0:
32,143,198210,1,0,3:0:0:0:
26,247,198432,2,0,P|45:288|45:334,1,86.3999973632813,2|0,0:0|3:0,0:0:0:0:
148,310,198877,1,2,0:0:0:0:
156,316,198988,2,0,B|201:307|214:338|214:346|232:371|300:354,1,129.599996044922,2|2,0:0|0:0,0:0:0:0:
280,255,199544,5,0,3:0:0:0:
280,255,199988,2,0,P|275:189|261:126,1,129.599996044922,10|2,0:0|0:0,0:0:0:0:
223,106,200432,2,0,P|226:62|235:20,1,86.3999973632813,0|2,3:0|0:0,0:0:0:0:
333,56,200877,1,8,0:0:0:0:
429,17,201099,1,2,0:0:0:0:
509,80,201321,6,0,P|509:119|464:141,1,86.3999973632813,2|2,3:2|0:0,0:0:0:0:
473,142,201655,1,2,0:0:0:0:
473,142,201766,1,8,0:0:0:0:
371,159,201988,1,2,0:0:0:0:
388,261,202210,2,0,P|333:291|331:353,1,129.599996044922,2|2,3:2|0:0,0:0:0:0:
371,370,202655,1,8,0:0:0:0:
466,331,202877,6,0,P|501:310|503:269,1,86.3999973632813,2|0,0:0|0:0,0:0:0:0:
486,187,203321,1,2,0:0:0:0:
486,187,203544,1,2,0:0:0:0:
329,113,203988,2,0,P|329:85|353:70,2,57.6,2|0|0,0:0|0:0|0:0,0:0:0:0:
294,193,204655,2,0,P|244:168|181:182,1,115.2,2|0,0:0|0:0,0:0:0:0:
125,237,205321,1,2,0:0:0:0:
68,303,205544,2,0,P|143:340|237:319,1,172.8,2|2,0:0|0:0,0:0:0:0:
