osu file format v14

[General]
AudioFilename: audio.mp3
AudioLeadIn: 0
PreviewTime: 145707
Countdown: 0
SampleSet: None
StackLeniency: 0.7
Mode: 0
LetterboxInBreaks: 0
WidescreenStoryboard: 0

[Editor]
Bookmarks: 7511
DistanceSpacing: 0.8
BeatDivisor: 4
GridSize: 4
TimelineZoom: 2.2

[Metadata]
Title:Paradise
TitleUnicode:Paradise
Artist:Hyolyn
ArtistUnicode:효린
Creator:BearZyo
Version:Squil-Pop
Source:
Tags:squilly
BeatmapID:1300181
BeatmapSetID:616498

[Difficulty]
HPDrainRate:5
CircleSize:4
OverallDifficulty:8.3
ApproachRate:9.4
SliderMultiplier:1.8
SliderTickRate:1

[Events]
//Background and Video events
0,0,"paradise.png",0,0
//Break Periods
2,32665,37258
2,38058,42651
2,75810,80404
2,102778,107371
2,108171,112764
2,156710,166696
//Storyboard Layer 0 (Background)
//Storyboard Layer 1 (Fail)
//Storyboard Layer 2 (Pass)
//Storyboard Layer 3 (Foreground)
//Storyboard Sound Samples

[TimingPoints]
105.887980282521,337.078651685393,4,1,0,50,1,0
43235,-133.333333333333,4,1,0,50,0,0
43235,-133.333333333333,4,1,0,50,0,0
48629,-100,4,1,0,50,0,0
54022,-133.333333333333,4,1,0,50,0,0
56382,-80,4,1,0,50,0,0
56719,-133.333333333333,4,1,0,50,0,0
58741,-66.6666666666667,4,1,0,50,0,0
59415,-133.333333333333,4,1,0,50,0,0
61438,-76.9230769230769,4,1,0,50,0,0
62112,-133.333333333333,4,1,0,50,0,0
64134,-76.9230769230769,4,1,0,50,0,0
66831,-76.9230769230769,4,1,0,50,0,0
69191,-100,4,1,0,50,0,0
69528,-66.6666666666667,4,1,0,50,0,0
72224,-66.6666666666667,4,1,0,50,0,0
72898,-100,4,1,0,50,0,0
74921,-66.6666666666667,4,1,0,50,0,0
80988,-100,4,1,0,50,0,0
113348,-133.333333333333,4,1,0,50,0,0
124133,-133.333333333333,4,1,0,50,0,0
126493,-80,4,1,0,50,0,0
126830,-133.333333333333,4,1,0,50,0,0
128852,-66.6666666666667,4,1,0,50,0,0
129526,-133.333333333333,4,1,0,50,0,0
131549,-76.9230769230769,4,1,0,50,0,0
132223,-133.333333333333,4,1,0,50,0,0
134245,-76.9230769230769,4,1,0,50,0,0
136942,-76.9230769230769,4,1,0,50,0,0
139639,-66.6666666666667,4,1,0,50,0,0
142335,-66.6666666666667,4,1,0,50,0,0
143009,-100,4,1,0,50,0,0
145032,-66.6666666666667,4,1,0,50,0,0
145723,-133.333333333333,4,1,0,50,0,1
146060,-66.6666666666667,4,1,0,50,0,0
146398,-100,4,1,0,50,0,1
146735,-100,4,1,0,50,0,0
150442,-66.6666666666667,4,1,0,50,0,0
151117,-200,4,1,0,50,0,1
151454,-100,4,1,0,50,0,0
151791,-76.9230769230769,4,1,0,50,0,1
152128,-76.9230769230769,4,1,0,50,0,0
153139,-66.6666666666667,4,1,0,50,0,0
154150,-83.3333333333333,4,1,0,50,0,0
167296,-200,4,1,0,50,0,0
172690,-100,4,1,0,50,0,0

[HitObjects]
115,89,107,6,0,P|140:135|178:166,1,90
310,26,442,2,0,P|274:64|256:109,1,90
430,192,780,2,0,P|383:169|334:166,1,90
309,358,1117,2,0,P|316:306|303:258,1,90
115,294,1454,2,0,P|166:284|207:257,1,90
346,165,1791,6,0,B|298:158|263:181|263:181|215:163,1,135
208,144,2128,2,0,P|214:92|239:49,1,90
347,51,2465,1,0,0:0:0:0:
442,102,2633,1,0,0:0:0:0:
365,188,2802,6,0,L|466:230,1,90
293,294,3139,2,0,L|284:403,1,90
170,259,3476,2,0,L|63:284,1,90
165,131,3813,2,0,L|108:37,1,90
285,87,4150,2,0,L|357:4,1,90
256,192,4487,6,0,B|304:199|339:176|339:176|387:194,1,135
394,213,4824,2,0,P|387:264|362:307,1,90
177,317,5162,2,0,P|225:296|274:296,1,90
58,223,5499,5,0,0:0:0:0:
199,167,5667,1,0,0:0:0:0:
76,68,5836,1,0,0:0:0:0:
222,17,6004,2,0,P|271:34|307:67,1,90,0|0,0:0|2:0,0:0:0:0:
416,153,6341,1,0,0:0:0:0:
331,315,6510,2,0,P|313:265|316:216,1,90,0|0,0:0|2:0,0:0:0:0:
412,25,6847,5,0,0:0:0:0:
217,143,7016,1,0,0:0:0:0:
417,253,7184,1,0,0:0:0:0:
299,58,7353,1,0,0:0:0:0:
104,176,7521,2,0,B|61:162|61:162|26:134,1,90,0|0,0:0|2:0,0:0:0:0:
115,307,7858,2,0,B|157:293|157:293|192:265,1,90,0|0,0:0|2:0,0:0:0:0:
315,363,8195,5,0,0:0:0:0:
462,305,8364,1,0,0:0:0:0:
337,208,8533,1,0,0:0:0:0:
192,264,8701,2,0,P|179:212|187:163,1,90,0|0,0:0|2:0,0:0:0:0:
58,79,9038,1,0,0:0:0:0:
205,20,9207,2,0,P|248:8|292:13,1,90,0|0,0:0|2:0,0:0:0:0:
436,66,9544,5,0,0:0:0:0:
462,179,9712,1,0,0:0:0:0:
391,271,9881,1,0,0:0:0:0:
274,275,10049,1,0,0:0:0:0:
329,171,10218,1,0,0:0:0:0:
399,271,10386,1,0,0:0:0:0:
336,374,10555,1,0,0:0:0:0:
330,155,10723,1,0,0:0:0:0:
191,62,10892,6,0,L|170:183,1,90
78,276,11229,1,0,0:0:0:0:
18,129,11398,1,0,0:0:0:0:
235,297,11566,1,0,0:0:0:0:
332,171,11735,1,0,0:0:0:0:
175,150,11903,1,0,0:0:0:0:
272,24,12072,1,0,0:0:0:0:
489,192,12240,5,0,0:0:0:0:
429,45,12409,1,0,0:0:0:0:
174,149,12577,1,0,0:0:0:0:
332,171,12746,1,0,0:0:0:0:
233,296,12914,1,0,0:0:0:0:
272,24,13083,1,0,0:0:0:0:
16,127,13251,1,0,0:0:0:0:
174,149,13420,1,0,0:0:0:0:
75,274,13589,5,0,0:0:0:0:
115,2,13757,1,0,0:0:0:0:
16,127,13926,1,0,0:0:0:0:
233,296,14094,1,0,0:0:0:0:
174,149,14263,1,0,0:0:0:0:
75,274,14431,1,0,0:0:0:0:
332,171,14600,1,0,0:0:0:0:
392,318,14768,1,0,0:0:0:0:
341,55,14937,6,0,P|390:72|426:105,1,90,0|0,0:0|2:0,0:0:0:0:
165,143,15274,2,0,P|116:126|80:93,1,90,0|0,0:0|2:0,0:0:0:0:
170,31,15611,1,0,0:0:0:0:
332,171,15780,1,0,0:0:0:0:
160,255,15948,2,0,P|113:278|64:281,1,90,0|0,0:0|2:0,0:0:0:0:
392,318,16285,5,0,0:0:0:0:
268,349,16454,1,0,0:0:0:0:
427,195,16622,1,0,0:0:0:0:
178,259,16791,2,0,P|129:239|94:205,1,90,0|0,0:0|2:0,0:0:0:0:
339,104,17128,1,0,0:0:0:0:
215,135,17296,1,0,0:0:0:0:
303,226,17465,1,0,0:0:0:0:
127,38,17633,5,0,0:0:0:0:
101,214,17802,1,0,0:0:0:0:
233,319,17971,1,0,0:0:0:0:
93,208,18140,1,0,0:0:0:0:
215,135,18308,1,0,0:0:0:0:
163,263,18476,1,0,0:0:0:0:
399,253,18645,1,0,0:0:0:0:
233,319,18814,1,0,0:0:0:0:
204,121,18982,5,0,0:0:0:0:
303,226,19150,1,0,0:0:0:0:
250,41,19319,1,0,0:0:0:0:
210,226,19487,2,0,P|173:251|147:288,1,90,0|0,0:0|2:0,0:0:0:0:
429,288,19824,1,0,0:0:0:0:
288,321,19992,1,0,0:0:0:0:
249,28,20162,1,0,0:0:0:0:
288,257,20330,6,0,B|224:331|224:331|149:358,1,135
60,201,20667,2,0,P|128:214|180:265,1,135
94,288,21004,2,0,L|120:143,1,135
165,77,21341,2,0,P|205:125|208:169,1,90
406,80,21678,5,0,0:0:0:0:
370,260,21847,1,0,0:0:0:0:
473,280,22016,1,0,0:0:0:0:
335,158,22185,1,0,0:0:0:0:
418,186,22353,1,0,0:0:0:0:
283,310,22522,1,0,0:0:0:0:
253,120,22690,2,0,P|289:81|331:68,1,90
213,226,23027,6,0,L|96:246,1,90
85,61,23364,1,0,0:0:0:0:
68,308,23532,1,0,0:0:0:0:
40,141,23701,1,0,0:0:0:0:
213,226,23869,1,0,0:0:0:0:
174,54,24038,2,0,L|61:62,1,90
228,134,24375,6,0,P|257:102|262:49,1,90
409,87,24712,1,0,0:0:0:0:
306,259,24881,1,0,0:0:0:0:
414,69,25049,1,0,0:0:0:0:
466,317,25218,1,0,0:0:0:0:
211,291,25386,1,0,0:0:0:0:
403,252,25555,1,0,0:0:0:0:
167,114,25723,5,0,0:0:0:0:
208,278,25892,1,0,0:0:0:0:
320,75,26060,1,0,0:0:0:0:
156,116,26229,1,0,0:0:0:0:
347,163,26398,2,0,B|392:134|392:134|403:102|403:102|458:59,1,135
474,152,26735,2,0,P|470:205|475:253,1,90
311,327,27072,5,0,0:0:0:0:
342,174,27240,1,0,0:0:0:0:
178,321,27409,1,0,0:0:0:0:
390,260,27577,1,0,0:0:0:0:
136,163,27746,1,0,0:0:0:0:
311,327,27914,1,0,0:0:0:0:
204,72,28083,1,0,0:0:0:0:
180,310,28251,1,0,0:0:0:0:
67,105,28420,6,0,P|52:148|59:205,1,90
259,243,28757,1,0,0:0:0:0:
197,63,28926,1,0,0:0:0:0:
136,163,29094,1,0,0:0:0:0:
316,101,29263,1,0,0:0:0:0:
445,279,29431,1,0,0:0:0:0:
248,237,29600,1,0,0:0:0:0:
438,162,29768,6,0,L|511:100,1,90
358,289,30105,1,0,0:0:0:0:
335,101,30274,1,0,0:0:0:0:
184,215,30442,1,0,0:0:0:0:
161,27,30611,1,0,0:0:0:0:
32,328,30780,1,0,0:0:0:0:
10,141,30948,1,0,0:0:0:0:
140,306,31117,6,0,B|191:327|231:301|231:301|271:328,1,135
359,344,31454,2,0,P|351:286|376:207,1,135
232,84,31791,2,0,L|281:225,1,135
344,125,32128,2,0,P|420:138|459:183,1,135
469,209,32465,5,0,0:0:0:0:
43,175,37858,5,0,0:0:0:0:
277,77,43251,6,0,P|267:138|268:158,1,67.5000025749208
393,126,43589,2,0,P|403:187|402:207,1,67.5000025749208
151,94,43926,2,0,P|141:155|142:175,1,67.5000025749208
267,143,44264,2,0,P|277:204|276:224,1,67.5000025749208
47,294,44600,6,0,L|56:205,1,67.5000025749208
163,343,44937,2,0,L|154:254,1,67.5000025749208
349,343,45274,2,0,L|355:275,1,67.5000025749208
465,294,45611,2,0,L|458:226,1,67.5000025749208
351,91,45948,5,0,0:0:0:0:
242,89,46117,1,0,0:0:0:0:
302,166,46285,2,0,P|361:181|374:178,1,67.5000025749208
201,9,46622,2,0,P|158:52|154:65,1,67.5000025749208
205,234,46959,2,0,P|188:175|179:165,1,67.5000025749208
419,279,47296,6,0,B|388:292|388:292|342:295,1,67.5000025749208
140,218,47633,2,0,B|171:231|171:231|217:234,1,67.5000025749208
435,118,47971,2,0,B|404:131|404:131|358:134,1,67.5000025749208
156,57,48308,2,0,B|187:70|187:70|233:73,1,67.5000025749208
265,294,48645,6,0,P|285:246|284:200,1,90
390,47,48982,2,0,P|370:95|371:141,1,90
204,108,49319,2,0,P|252:128|298:127,1,90
451,233,49656,2,0,P|403:213|357:214,1,90
72,161,49993,5,0,0:0:0:0:
108,298,50162,1,0,0:0:0:0:
208,198,50330,1,0,0:0:0:0:
108,298,50499,1,0,0:0:0:0:
172,61,50668,1,0,0:0:0:0:
309,99,50836,1,0,0:0:0:0:
244,335,51004,1,0,0:0:0:0:
208,198,51173,1,0,0:0:0:0:
345,236,51341,5,0,0:0:0:0:
345,236,51426,1,0,0:0:0:0:
345,236,51510,1,0,0:0:0:0:
445,136,51678,1,0,0:0:0:0:
445,136,51763,1,0,0:0:0:0:
445,136,51847,1,0,0:0:0:0:
320,345,52016,5,0,0:0:0:0:
290,332,52100,1,0,0:0:0:0:
265,312,52184,1,0,0:0:0:0:
247,286,52268,1,0,0:0:0:0:
237,256,52353,1,0,0:0:0:0:
236,223,52437,1,0,0:0:0:0:
244,193,52521,1,0,0:0:0:0:
260,165,52605,1,0,0:0:0:0:
260,165,53364,5,0,0:0:0:0:
230,180,53448,1,0,0:0:0:0:
198,189,53532,1,0,0:0:0:0:
164,191,53616,1,0,0:0:0:0:
131,186,53701,1,0,0:0:0:0:
149,162,53785,1,0,0:0:0:0:
164,136,53869,1,0,0:0:0:0:
179,110,53953,1,0,0:0:0:0:
194,84,54038,6,0,L|301:47,1,101.250003862381
387,52,54375,2,0,B|383:97|390:134|390:134|409:108,1,101.250003862381
485,67,54712,1,0,0:0:0:0:
288,258,55049,2,0,P|332:233|362:204,1,67.5000025749208
231,343,55386,6,0,B|190:321|114:345|114:345|91:314,1,135.000005149842
110,169,55892,1,0,0:0:0:0:
26,351,56060,5,0,0:0:0:0:
117,152,56229,1,0,0:0:0:0:
231,343,56398,2,0,B|292:363|314:353|314:353|337:360|337:360|360:347|429:354,1,168.75
467,310,56735,6,0,P|475:258|466:221,1,67.5000025749208
293,259,57072,2,0,B|355:256|355:256|411:272,1,101.250003862381
410,184,57409,1,0,0:0:0:0:
410,184,57746,1,0,0:0:0:0:
281,64,57914,1,0,0:0:0:0:
314,142,58083,6,0,P|348:115|363:75,1,67.5000025749208
150,269,58420,1,0,0:0:0:0:
148,121,58588,1,0,0:0:0:0:
231,295,58757,6,0,B|303:305|303:305|386:281,1,135.000005149842
358,94,59010,2,0,B|313:151|313:151|292:235,1,135.000005149842
445,232,59263,2,0,P|408:196|380:193,1,67.5000025749208
173,157,59431,6,0,L|164:27,1,101.250003862381
19,45,59768,2,0,P|75:76|86:92,1,67.5000025749208
319,18,60105,2,0,P|264:50|244:52,1,67.5000025749208
5,132,60442,1,0,0:0:0:0:
173,157,60611,1,0,0:0:0:0:
182,165,60948,5,0,0:0:0:0:
74,266,61117,1,0,0:0:0:0:
216,310,61285,1,0,0:0:0:0:
36,118,61454,2,0,P|33:93|51:51,1,58.4999973220826
211,72,61622,2,0,P|234:81|261:118,1,58.4999973220826
74,266,61791,2,0,B|125:207|129:138|129:138|151:192,1,175.499991966248
126,46,62128,5,0,0:0:0:0:
355,284,62465,2,0,P|366:222|379:182,1,101.250003862381
424,103,62802,1,0,0:0:0:0:
427,90,63139,1,0,0:0:0:0:
290,81,63308,1,0,0:0:0:0:
230,204,63476,6,0,B|236:255|236:255|228:299,1,67.5000025749208
32,314,63813,1,0,0:0:0:0:
229,185,63982,1,0,0:0:0:0:
35,295,64150,6,0,L|46:177,1,116.999994644165
131,312,64403,2,0,L|142:194,1,116.999994644165
227,329,64656,2,0,L|232:270,1,58.4999973220826
406,143,64824,5,0,0:0:0:0:
459,303,64993,1,0,0:0:0:0:
412,131,65162,1,0,0:0:0:0:
407,299,65331,1,0,0:0:0:0:
418,119,65499,1,0,0:0:0:0:
355,275,65668,1,0,0:0:0:0:
424,107,65836,1,0,0:0:0:0:
311,232,66004,1,0,0:0:0:0:
259,71,66173,5,0,0:0:0:0:
147,197,66341,1,0,0:0:0:0:
424,107,66510,1,0,0:0:0:0:
257,63,66678,1,0,0:0:0:0:
198,273,66847,2,0,P|150:290|131:288,1,58.4999973220826
311,232,67016,2,0,P|359:249|378:247,1,58.4999973220826
146,25,67184,2,0,B|112:113|179:108|143:208,1,175.499991966248
198,273,67521,5,0,0:0:0:0:
378,166,67690,1,0,0:0:0:0:
292,361,67858,1,0,0:0:0:0:
243,151,68027,1,0,0:0:0:0:
405,298,68195,1,0,0:0:0:0:
183,276,68364,5,0,0:0:0:0:
388,154,68533,1,0,0:0:0:0:
290,376,68701,1,0,0:0:0:0:
234,137,68870,1,0,0:0:0:0:
418,304,69038,1,0,0:0:0:0:
181,379,69207,2,0,P|110:379|74:363,1,90
207,27,69544,6,0,P|250:110|219:149,1,135.000005149842
274,208,69796,2,0,P|180:203|162:157,1,135.000005149842
94,87,70049,2,0,L|175:92,1,67.5000025749208
334,118,70218,5,0,0:0:0:0:
364,268,70386,1,0,0:0:0:0:
424,178,70555,1,0,0:0:0:0:
274,208,70723,1,0,0:0:0:0:
328,91,70892,5,0,0:0:0:0:
369,295,71060,1,0,0:0:0:0:
450,172,71229,1,0,0:0:0:0:
246,213,71397,1,0,0:0:0:0:
322,59,71566,5,0,0:0:0:0:
375,328,71734,1,0,0:0:0:0:
482,166,71903,1,0,0:0:0:0:
213,219,72071,1,0,0:0:0:0:
88,43,72240,6,0,L|108:128,1,67.5000025749208
113,276,72409,2,0,L|133:191,1,67.5000025749208
204,138,72577,2,0,P|292:185|269:279,1,202.500007724762
375,328,72914,6,0,P|404:274|430:265,1,90
429,103,73251,2,0,P|458:157|484:166,1,90
277,51,73589,1,0,0:0:0:0:
358,179,73757,1,0,0:0:0:0:
204,138,73926,1,0,0:0:0:0:
429,103,74094,1,0,0:0:0:0:
287,316,74263,6,0,L|258:210,1,90
141,59,74600,2,0,P|101:123|120:183,1,135
62,246,74937,6,0,B|115:332|115:332|122:291,1,135.000005149842
204,281,75190,2,0,B|257:195|257:195|264:236,1,135.000005149842
348,243,75442,2,0,B|401:329|401:329|408:288,1,135.000005149842
161,46,81004,6,0,P|151:121|154:158,1,90
214,267,81341,1,0,0:0:0:0:
296,146,81509,1,0,0:0:0:0:
69,256,81678,1,0,0:0:0:0:
359,278,81847,1,0,0:0:0:0:
151,135,82016,1,0,0:0:0:0:
442,158,82184,1,0,0:0:0:0:
379,26,82353,5,0,0:0:0:0:
359,278,82521,1,0,0:0:0:0:
505,290,82690,1,0,0:0:0:0:
296,146,82858,1,0,0:0:0:0:
214,267,83027,1,0,0:0:0:0:
442,158,83195,1,0,0:0:0:0:
233,14,83364,1,0,0:0:0:0:
151,135,83532,1,0,0:0:0:0:
359,278,83701,5,0,0:0:0:0:
296,146,83869,1,0,0:0:0:0:
69,256,84038,1,0,0:0:0:0:
151,135,84207,1,0,0:0:0:0:
214,267,84375,1,0,0:0:0:0:
88,3,84544,1,0,0:0:0:0:
69,256,84712,1,0,0:0:0:0:
151,135,84881,1,0,0:0:0:0:
177,352,85049,6,0,P|249:353|302:295,1,135
318,225,85386,2,0,P|324:303|372:368,1,135
214,267,85723,1,0,0:0:0:0:
317,95,85892,1,0,0:0:0:0:
151,135,86060,1,0,0:0:0:0:
336,90,86229,1,0,0:0:0:0:
403,271,86398,5,0,0:0:0:0:
469,120,86566,1,0,0:0:0:0:
336,90,86735,1,0,0:0:0:0:
406,288,86903,1,0,0:0:0:0:
165,184,87072,1,0,0:0:0:0:
364,188,87240,1,0,0:0:0:0:
149,181,87409,1,0,0:0:0:0:
380,191,87577,1,0,0:0:0:0:
223,36,87746,5,0,0:0:0:0:
213,267,87914,1,0,0:0:0:0:
380,191,88083,1,0,0:0:0:0:
149,181,88251,1,0,0:0:0:0:
348,73,88420,1,0,0:0:0:0:
454,278,88588,1,0,0:0:0:0:
347,53,88757,1,0,0:0:0:0:
455,298,88926,1,0,0:0:0:0:
483,121,89094,5,0,0:0:0:0:
270,161,89263,1,0,0:0:0:0:
450,28,89431,1,0,0:0:0:0:
303,254,89600,1,0,0:0:0:0:
347,53,89768,1,0,0:0:0:0:
300,270,89937,1,0,0:0:0:0:
455,298,90105,1,0,0:0:0:0:
260,72,90274,1,0,0:0:0:0:
87,315,90442,6,0,P|174:328|244:296,1,135
229,251,90780,2,0,L|247:396,1,135
149,243,91117,2,0,B|142:183|142:183|151:138,1,90
53,38,91454,2,0,B|60:98|60:98|51:143,1,90
50,222,91791,5,0,0:0:0:0:
151,60,91959,1,0,0:0:0:0:
264,254,92128,2,0,P|300:293|342:306,1,90
466,254,92465,1,0,0:0:0:0:
365,204,92633,1,0,0:0:0:0:
264,254,92803,2,0,P|228:293|186:306,1,90
304,148,93140,6,0,L|421:128,1,90
432,313,93477,1,0,0:0:0:0:
449,66,93645,1,0,0:0:0:0:
477,233,93814,1,0,0:0:0:0:
304,148,93982,1,0,0:0:0:0:
343,320,94151,2,0,L|456:312,1,90
289,240,94488,6,0,P|260:272|255:325,1,90
108,287,94825,1,0,0:0:0:0:
211,115,94994,1,0,0:0:0:0:
103,305,95162,1,0,0:0:0:0:
51,57,95331,1,0,0:0:0:0:
306,83,95499,1,0,0:0:0:0:
114,122,95668,1,0,0:0:0:0:
350,260,95836,5,0,0:0:0:0:
309,96,96005,1,0,0:0:0:0:
197,299,96173,1,0,0:0:0:0:
361,258,96342,1,0,0:0:0:0:
170,211,96511,2,0,B|125:240|125:240|114:272|114:272|59:315,1,135
43,222,96848,2,0,P|47:169|42:121,1,90
206,47,97185,5,0,0:0:0:0:
175,200,97353,1,0,0:0:0:0:
339,53,97522,1,0,0:0:0:0:
127,114,97690,1,0,0:0:0:0:
381,211,97859,1,0,0:0:0:0:
206,47,98027,1,0,0:0:0:0:
313,302,98196,1,0,0:0:0:0:
337,64,98364,1,0,0:0:0:0:
450,269,98533,6,0,P|465:226|458:169,1,90
258,131,98870,1,0,0:0:0:0:
320,311,99039,1,0,0:0:0:0:
381,211,99207,1,0,0:0:0:0:
201,273,99376,1,0,0:0:0:0:
72,95,99544,1,0,0:0:0:0:
269,137,99713,1,0,0:0:0:0:
79,212,99881,6,0,L|6:274,1,90
159,85,100218,1,0,0:0:0:0:
182,273,100387,1,0,0:0:0:0:
333,159,100555,1,0,0:0:0:0:
356,347,100724,1,0,0:0:0:0:
485,46,100893,1,0,0:0:0:0:
507,233,101061,1,0,0:0:0:0:
377,68,101230,6,0,B|326:47|286:73|286:73|246:46,1,135
158,30,101567,2,0,P|166:88|141:167,1,135
285,290,101904,2,0,L|236:149,1,135
173,249,102241,2,0,P|97:236|58:191,1,135
48,165,102578,5,0,0:0:0:0:
469,209,107971,5,0,0:0:0:0:
194,105,113364,6,0,B|202:138|202:138|228:170,1,67.5000025749208
262,337,113701,2,0,B|254:304|254:304|228:272,1,67.5000025749208
72,80,114038,2,0,B|80:113|80:113|106:145,1,67.5000025749208
140,312,114375,2,0,B|132:279|132:279|106:247,1,67.5000025749208
367,65,114712,6,0,L|300:89,1,67.5000025749208
484,178,115049,2,0,L|460:111,1,67.5000025749208
379,292,115386,2,0,L|446:268,1,67.5000025749208
262,179,115723,2,0,L|286:246,1,67.5000025749208
193,95,116060,6,0,P|153:100|113:130,1,67.5000025749208
30,191,116398,2,0,P|70:196|110:226,1,67.5000025749208
284,242,116735,2,0,P|244:247|204:277,1,67.5000025749208
121,338,117073,2,0,P|161:343|201:373,1,67.5000025749208
388,321,117409,5,0,0:0:0:0:
424,117,117746,1,0,0:0:0:0:
378,37,118083,1,0,0:0:0:0:
378,197,118420,1,0,0:0:0:0:
67,114,118757,5,0,0:0:0:0:
259,208,118926,1,0,0:0:0:0:
191,106,119094,1,0,0:0:0:0:
206,319,119263,1,0,0:0:0:0:
312,97,119431,1,0,0:0:0:0:
136,216,119600,1,0,0:0:0:0:
329,311,119768,1,0,0:0:0:0:
83,327,119937,1,0,0:0:0:0:
259,208,120105,5,0,0:0:0:0:
71,335,120274,1,0,0:0:0:0:
452,303,120442,1,0,0:0:0:0:
312,97,120611,1,0,0:0:0:0:
328,310,120780,1,0,0:0:0:0:
435,88,120948,1,0,0:0:0:0:
136,216,121117,1,0,0:0:0:0:
450,77,121285,1,0,0:0:0:0:
158,61,121454,5,0,0:0:0:0:
158,61,121538,1,0,0:0:0:0:
158,61,121622,1,0,0:0:0:0:
136,216,121791,1,0,0:0:0:0:
136,216,121875,1,0,0:0:0:0:
136,216,121959,1,0,0:0:0:0:
260,131,122128,5,0,0:0:0:0:
294,152,122212,1,0,0:0:0:0:
328,173,122296,1,0,0:0:0:0:
362,194,122381,1,0,0:0:0:0:
396,215,122465,1,0,0:0:0:0:
429,236,122549,1,0,0:0:0:0:
462,257,122633,1,0,0:0:0:0:
496,279,122718,1,0,0:0:0:0:
496,279,123476,5,0,0:0:0:0:
489,311,123560,1,0,0:0:0:0:
466,335,123644,1,0,0:0:0:0:
434,344,123728,1,0,0:0:0:0:
402,333,123813,1,0,0:0:0:0:
380,308,123897,1,0,0:0:0:0:
376,275,123981,1,0,0:0:0:0:
389,245,124065,1,0,0:0:0:0:
417,226,124150,6,0,P|428:173|428:124,1,101.250003862381
309,82,124487,2,0,L|323:153,1,67.5000025749208
395,35,124824,1,0,0:0:0:0:
394,21,125162,1,0,0:0:0:0:
205,93,125330,6,0,P|160:121|70:133,1,135.000005149842
3,278,125836,1,0,0:0:0:0:
113,238,126004,1,0,0:0:0:0:
84,343,126173,5,0,0:0:0:0:
76,114,126341,1,0,0:0:0:0:
269,324,126510,2,0,B|356:325|356:325|450:282,1,168.75
452,272,126847,6,0,P|446:216|460:149,1,101.250003862381
444,22,127184,2,0,P|450:65|449:101,1,67.5000025749208
361,135,127521,1,0,0:0:0:0:
357,117,127858,1,0,0:0:0:0:
181,256,128027,6,0,P|215:198|264:152,1,135.000005149842
275,159,128448,1,0,0:0:0:0:
285,166,128532,2,0,L|330:232,1,67.5000025749208
313,288,128785,1,0,0:0:0:0:
313,288,128869,6,0,L|270:143,1,135.000005149842
210,33,129122,2,0,L|357:68,1,135.000005149842
435,121,129375,2,0,L|382:175,1,67.5000025749208
145,121,129544,6,0,B|111:53|111:53|105:88,1,101.250003862381
86,190,129881,2,0,P|135:216|166:211,1,67.5000025749208
25,119,130218,1,0,0:0:0:0:
7,112,130555,1,0,0:0:0:0:
114,309,130723,6,0,P|180:304|239:244,1,135.000005149842
334,160,131229,1,0,0:0:0:0:
369,299,131397,1,0,0:0:0:0:
226,142,131566,6,0,L|199:58,1,58.4999973220826
25,119,131735,2,0,L|52:35,1,58.4999973220826
89,306,131903,2,0,P|119:214|121:122,1,175.499991966248
143,24,132240,6,0,P|194:3|260:3,1,101.250003862381
362,103,132577,2,0,L|277:71,1,67.5000025749208
226,142,132914,1,0,0:0:0:0:
225,163,133251,1,0,0:0:0:0:
370,310,133420,6,0,B|335:249|335:249|318:185,1,135.000005149842
247,283,133926,1,0,0:0:0:0:
419,212,134094,1,0,0:0:0:0:
225,163,134263,6,0,P|202:109|224:41,1,116.999994644165
200,254,134516,2,0,P|223:308|201:376,1,116.999994644165
82,196,134768,2,0,P|110:202|136:190,1,58.4999973220826
241,126,134937,5,0,0:0:0:0:
317,271,135105,1,0,0:0:0:0:
358,109,135274,1,0,0:0:0:0:
200,254,135442,1,0,0:0:0:0:
233,113,135611,5,0,0:0:0:0:
324,287,135779,1,0,0:0:0:0:
373,92,135948,1,0,0:0:0:0:
184,266,136116,1,0,0:0:0:0:
224,97,136285,5,0,0:0:0:0:
333,306,136453,1,0,0:0:0:0:
392,73,136622,1,0,0:0:0:0:
165,282,136790,1,0,0:0:0:0:
392,194,136959,6,0,B|421:193|421:193|461:176,1,58.4999973220826
240,191,137128,2,0,B|211:190|211:190|171:173,1,58.4999973220826
313,24,137296,2,0,B|345:78|287:78|325:158,1,116.999994644165
183,178,137633,5,0,0:0:0:0:
242,276,137802,1,0,0:0:0:0:
144,335,137971,1,0,0:0:0:0:
85,237,138140,1,0,0:0:0:0:
186,162,138308,5,0,0:0:0:0:
257,279,138477,1,0,0:0:0:0:
140,350,138646,1,0,0:0:0:0:
69,233,138815,1,0,0:0:0:0:
191,143,138982,5,0,2:0:0:0:
276,284,139151,1,0,2:0:0:0:
135,369,139320,1,0,2:0:0:0:
50,228,139489,1,0,2:0:0:0:
294,288,139656,6,0,P|333:334|295:327,1,135.000005149842
432,162,139909,2,0,P|372:172|397:143,1,135.000005149842
210,167,140162,2,0,L|286:189,1,67.5000025749208
403,38,140330,5,0,0:0:0:0:
263,69,140499,1,0,0:0:0:0:
424,41,140667,1,0,0:0:0:0:
242,66,140836,1,0,0:0:0:0:
106,148,141004,5,0,0:0:0:0:
274,185,141173,1,0,0:0:0:0:
80,151,141341,1,0,0:0:0:0:
299,181,141510,1,0,0:0:0:0:
402,247,141678,5,0,0:0:0:0:
200,291,141847,1,0,0:0:0:0:
433,250,142015,1,0,0:0:0:0:
170,286,142184,1,0,0:0:0:0:
464,324,142353,6,0,P|499:295|508:257,1,67.5000025749208
497,193,142521,2,0,P|462:164|453:126,1,67.5000025749208
236,200,142690,2,0,L|432:249,1,202.500007724762
370,146,143027,6,0,L|246:115,1,90
107,145,143364,2,0,L|230:114,1,90
295,267,143701,2,0,L|211:170,1,90
89,299,144038,2,0,L|172:202,1,90
295,267,144375,1,0,0:0:0:0:
399,210,144544,1,0,0:0:0:0:
443,100,144712,1,0,0:0:0:0:
422,224,144881,1,0,0:0:0:0:
276,88,145049,6,0,P|157:99|117:81,1,135.000005149842
61,103,145302,2,0,P|180:114|220:96,1,135.000005149842
222,256,145555,2,0,L|232:179,1,67.5000025749208
340,179,145723,6,0,L|356:280,1,101.250003862381
334,312,146060,6,0,P|335:344|366:284,1,202.500007724762
430,210,146398,6,0,L|461:112,1,90
359,85,146735,2,0,P|286:103|246:142,1,90
86,146,147072,5,0,0:0:0:0:
132,287,147240,1,0,0:0:0:0:
190,173,147409,1,0,0:0:0:0:
137,274,147577,1,0,0:0:0:0:
299,301,147746,2,0,L|382:284,1,45
430,210,147914,2,0,L|447:293,1,45
331,197,148083,2,0,B|323:88|323:88|353:120,1,135
422,125,148420,6,0,P|409:54|374:32,1,90
246,117,148757,2,0,L|205:117,6,22.5
202,138,149094,2,0,P|177:155|131:160,2,60
83,223,149431,2,0,P|108:240|154:245,2,60
225,224,149768,5,0,0:0:0:0:
225,224,149937,1,0,0:0:0:0:
65,132,150105,1,0,0:0:0:0:
65,132,150274,1,0,0:0:0:0:
338,38,150442,6,0,L|361:190,1,135.000005149842
469,145,150695,2,0,L|446:297,1,135.000005149842
348,272,150948,2,0,L|359:348,1,67.5000025749208
222,291,151117,6,0,L|225:204,1,67.5
134,45,151454,6,0,P|133:119|167:177,1,135
344,98,151791,6,0,B|288:81|288:81|216:93,1,116.999994644165
340,207,152128,1,0,0:0:0:0:
386,234,152240,1,0,0:0:0:0:
439,244,152353,1,0,0:0:0:0:
493,238,152465,5,0,0:0:0:0:
466,99,152633,1,0,0:0:0:0:
340,207,152802,1,0,0:0:0:0:
407,25,152971,1,0,0:0:0:0:
319,295,153139,6,0,L|346:385,1,67.5000025749208
329,105,153308,2,0,L|302:15,1,67.5000025749208
223,197,153476,2,0,P|150:238|154:155,1,202.500007724762
226,110,153813,5,0,0:0:0:0:
131,40,153982,1,0,0:0:0:0:
80,185,154150,2,0,P|97:215|123:229,1,53.9999983520508
292,257,154319,2,0,P|275:287|249:301,1,53.9999983520508
47,174,154487,2,0,P|64:204|90:218,1,53.9999983520508
325,246,154656,2,0,P|308:276|282:290,1,53.9999983520508
14,163,154824,2,0,P|31:193|57:207,1,53.9999983520508
358,235,154993,2,0,P|341:265|315:279,1,53.9999983520508
186,340,155162,6,0,P|184:267|204:205,1,107.999996704102
65,93,155499,1,0,0:0:0:0:
226,110,155667,1,0,0:0:0:0:
382,44,155836,5,0,0:0:0:0:
403,74,155920,1,0,0:0:0:0:
414,109,156004,1,0,0:0:0:0:
414,147,156089,1,0,0:0:0:0:
358,235,156173,5,0,0:0:0:0:
337,265,156257,1,0,0:0:0:0:
326,300,156341,1,0,0:0:0:0:
326,338,156426,1,0,0:0:0:0:
429,307,156510,5,0,0:0:0:0:
99,96,167296,6,0,L|200:123,1,90
361,154,167971,2,0,L|260:181,1,90
283,18,168645,2,0,L|256:119,1,90
225,280,169320,2,0,L|198:179,1,90
404,324,169993,6,0,P|388:272|399:240,1,90
124,340,170667,2,0,P|176:324|208:335,1,90
108,60,171341,2,0,P|124:112|113:144,1,90
388,43,172016,2,0,P|336:60|304:49,1,90
161,222,172690,6,0,P|129:195|118:116,1,90
276,177,173027,2,0,P|308:204|319:283,1,90
212,340,173364,2,0,P|172:354|98:324,1,90
330,335,173701,2,0,P|337:293|400:244,1,90
443,98,174038,6,0,L|463:201,1,90
319,73,174375,2,0,L|216:93,1,90
367,257,174712,2,0,L|387:360,1,90
243,232,175049,2,0,L|140:252,1,90
87,118,175386,5,0,0:0:0:0:
87,118,175471,1,0,0:0:0:0:
87,118,175555,1,0,0:0:0:0:
340,170,175723,1,0,0:0:0:0:
340,170,175808,1,0,0:0:0:0:
340,170,175892,1,0,0:0:0:0:
62,332,176060,5,0,0:0:0:0:
84,303,176145,1,0,0:0:0:0:
106,275,176229,1,0,0:0:0:0:
128,247,176313,1,0,0:0:0:0:
151,219,176398,1,0,0:0:0:0:
174,191,176482,1,0,0:0:0:0:
197,163,176566,1,0,0:0:0:0:
220,135,176650,1,0,0:0:0:0:
414,54,177409,5,0,0:0:0:0:
392,86,177493,1,0,0:0:0:0:
376,122,177577,1,0,0:0:0:0:
365,160,177661,1,0,0:0:0:0:
360,199,177746,1,0,0:0:0:0:
362,238,177830,1,0,0:0:0:0:
369,277,177914,1,0,0:0:0:0:
382,314,177998,1,0,0:0:0:0:
400,349,178083,5,0,0:0:0:0:
