osu file format v14

[General]
AudioFilename: audio.mp3
AudioLeadIn: 0
PreviewTime: 14343
Countdown: 1
SampleSet: Normal
StackLeniency: 0.7
Mode: 0
LetterboxInBreaks: 0
WidescreenStoryboard: 0

[Editor]
DistanceSpacing: 0.9
BeatDivisor: 8
GridSize: 16
TimelineZoom: 1

[Metadata]
Title:Sleepy Sunflower
TitleUnicode:Sleepy Sunflower
Artist:Hyochan
ArtistUnicode:Hyochan
Creator:knuxfanwin8
Version:Easy
Source:
Tags:Chiptune
BeatmapID:1422332
BeatmapSetID:672875

[Difficulty]
HPDrainRate:0
CircleSize:3
OverallDifficulty:0
ApproachRate:1
SliderMultiplier:1
SliderTickRate:1

[Events]
//Background and Video events
0,0,"sunflower.jpg",0,0
//Break Periods
2,42963,55293
//Storyboard Layer 0 (Background)
//Storyboard Layer 1 (Fail)
//Storyboard Layer 2 (Pass)
//Storyboard Layer 3 (Foreground)
//Storyboard Sound Samples

[TimingPoints]
133,444.066165858713,4,1,0,100,1,0
14343,-100,4,1,0,100,0,1
28553,-100,4,1,0,100,0,1
42763,-100,4,1,0,100,0,0
72959,-100,4,1,0,100,0,1
87169,-100,4,1,0,100,0,1
101380,-100,4,1,0,100,0,0

[Colours]
Combo1 : 64,0,0
Combo2 : 255,255,128

[HitObjects]
96,192,133,6,0,P|144:256|352:256,1,300
416,176,1909,2,0,P|368:96|176:112,1,300
96,192,3685,2,0,P|80:240|256:320,1,300
336,240,5461,2,0,L|256:176,3,100
192,128,7238,6,0,P|128:112|160:256,1,300
288,272,9014,2,0,P|336:256|272:80,1,300
160,96,10763,2,0,P|96:112|144:288,1,300
288,288,12566,2,2,P|336:272|336:144,1,200
272,48,13899,1,2,0:0:0:0:
192,128,14343,6,0,B|128:160|128:160|176:208|176:208|128:272|128:272|208:304,1,300
336,304,16119,2,0,B|272:240|288:112|288:112|336:80|336:80|304:48,1,300
192,64,17895,2,0,B|80:112|80:112|96:176|96:176|48:224|48:224|80:256,1,300
208,320,19671,2,4,P|256:320|256:272,3,100
352,192,21448,6,0,P|368:128|256:112,1,200
176,160,22780,1,0,0:0:0:0:
176,256,23224,2,0,P|224:288|368:272,1,200
432,192,24556,1,0,0:0:0:0:
338,112,25000,6,4,P|278:81|253:96,3,100
245,190,26776,2,4,P|284:222|321:194,3,100
376,92,28553,6,0,P|304:69|179:98,1,200
167,178,29885,2,0,L|164:230,2,50
211,100,30773,2,0,L|263:105,2,50
123,83,31661,6,0,P|77:131|56:162,3,100
61,252,33437,1,0,0:0:0:0:
142,336,33882,2,0,P|240:341|409:239,1,300
424,149,35658,6,0,P|398:97|180:88,1,300
136,176,37434,2,0,P|108:220|267:300,1,300
306,230,39210,2,0,P|355:208|357:157,3,100
296,102,40987,2,0,L|235:108,6,50
376,155,42763,5,14,0:0:0:0:
252,276,56973,6,0,P|165:266|158:164,1,200
260,139,58305,2,0,L|352:176,3,100
403,285,60081,1,0,0:0:0:0:
260,325,60525,6,0,P|186:282|213:92,1,300
341,77,62302,2,0,P|409:148|360:331,1,300
219,318,64078,6,0,B|132:248|132:248|189:191|170:129|242:90,1,300
324,96,65854,2,0,B|375:125|392:242|392:242|356:290|354:291|432:340,1,300
476,248,67631,2,0,B|469:177|469:175|428:153|428:153|463:88|463:88|364:74|350:104,1,300
258,128,69407,2,0,B|191:143|189:142|211:207|141:226|141:226|162:303|239:315,1,300
256,192,71183,12,0,72516,0:0:0:0:
160,143,72959,6,0,B|204:117|295:121|296:121|304:247|304:247|242:269,1,300
138,289,74736,2,0,B|93:203|93:203|160:177|76:87|76:87|141:73,1,300
231,61,76512,2,0,B|305:93|305:93|355:48|355:48|422:95|405:189,1,300
377,271,78288,2,0,P|346:331|311:333,3,100
309,222,80064,6,0,B|221:125|221:125|151:177|216:278,1,300
301,313,81841,2,0,B|407:308|406:207|406:207|348:153|283:153,1,300
197,145,83617,2,0,B|122:167|122:167|143:235|143:235|196:276|296:236,1,300
338,191,85393,2,0,P|398:163|332:75,1,200
185,93,87169,6,0,B|98:160|106:183|106:183|201:228|201:228|148:277,1,300
230,332,88946,2,0,B|324:273|324:273|256:217|395:131,1,300
482,54,90722,2,0,B|343:44|343:44|255:115|255:115|209:87,1,300
135,88,92498,2,0,P|74:138|151:202,1,200
253,211,93830,1,0,0:0:0:0:
349,169,94275,6,0,P|396:97|360:65,2,150
220,176,96051,2,0,P|160:135|192:68,2,150
263,72,97827,2,0,P|324:65|360:143,2,150
221,155,99603,2,0,P|218:235|270:278,2,150
256,192,101380,12,0,104488,0:0:0:0:
