osu file format v14

[General]
AudioFilename: audio.mp3
AudioLeadIn: 0
PreviewTime: 40756
Countdown: 0
SampleSet: Soft
StackLeniency: 0.4
Mode: 0
LetterboxInBreaks: 0
WidescreenStoryboard: 0

[Editor]
Bookmarks: 5380,12534,20089,26756,33645,40756,47867,51422,54978,62089,75421,80754,87865,94976,100309,102087,109198,112754,116309
DistanceSpacing: 1.2
BeatDivisor: 2
GridSize: 32
TimelineZoom: 3.599998

[Metadata]
Title:Fatal Menace
TitleUnicode:Fatal Menace
Artist:Hydra
ArtistUnicode:Hydra
Creator:TheAlphaSheep
Version:Obliteration
Source:Hachi Hachi
Tags:
BeatmapID:1919636
BeatmapSetID:919389

[Difficulty]
HPDrainRate:4
CircleSize:3.8
OverallDifficulty:9
ApproachRate:9.5
SliderMultiplier:1.4
SliderTickRate:1

[Events]
//Background and Video events
0,0,"imperius_by_demonplay-d968vzn.jpg",0,0
//Break Periods
//Storyboard Layer 0 (Background)
//Storyboard Layer 1 (Fail)
//Storyboard Layer 2 (Pass)
//Storyboard Layer 3 (Foreground)
//Storyboard Sound Samples

[TimingPoints]
886,224.719101123595,4,2,0,50,1,0
5380,-200,4,2,0,50,0,0
12534,222.222222222222,4,2,0,50,1,0
28311,-142.857142857143,4,2,0,50,0,0
28533,-90.9090909090909,4,2,0,50,0,0
28867,-100,4,2,0,50,0,0
29145,-166.666666666667,4,2,0,50,0,0
29422,-83.3333333333333,4,2,0,50,0,0
29867,-100,4,2,0,50,0,0
32533,-86.9565217391304,4,2,0,50,0,0
32700,-76.9230769230769,4,2,0,50,0,0
32922,-68.9655172413793,4,2,0,50,0,0
33089,-62.5,4,2,0,50,0,0
33200,-57.1428571428571,4,2,0,50,0,0
33422,-52.6315789473684,4,2,0,50,0,0
33645,222.222222222222,4,2,0,50,1,0
34978,-76.9230769230769,4,2,0,50,0,0
35422,-83.3333333333333,4,2,0,50,0,0
35811,-90.9090909090909,4,2,0,50,0,0
36089,-100,4,2,0,50,0,0
36311,-66.6666666666667,4,2,0,50,0,0
36533,-71.4285714285714,4,2,0,50,0,0
36682,-62.5,4,2,0,50,0,0
36978,-58.8235294117647,4,2,0,50,0,0
37200,-50,4,2,0,50,0,0
40533,-83.3333333333333,4,2,0,50,0,0
40756,-62.5,4,2,0,50,0,1
54978,-83.3333333333333,4,2,0,50,0,0
56719,-83.3333333333333,4,2,0,5,0,0
56756,-83.3333333333333,4,2,0,50,0,0
58496,-83.3333333333333,4,2,0,5,0,0
58533,-83.3333333333333,4,2,0,50,0,0
60274,-83.3333333333333,4,2,0,5,0,0
60311,-83.3333333333333,4,2,0,50,0,0
67200,222.222222222222,4,2,0,50,1,0
68755,222.222222222222,4,2,0,50,1,0
72088,222.222222222222,4,2,0,50,1,0
75421,222.222222222222,4,2,0,50,1,0
102087,-83.3333333333333,4,2,0,50,0,1
116309,-83.3333333333333,4,2,0,50,0,0

[HitObjects]
74,144,5380,6,0,B|132:166|154:122|212:144,1,140
293,38,5979,2,0,L|305:84,1,46.6666666666667
316,129,6279,2,0,L|333:61,1,70
229,211,6728,2,0,L|212:144,1,70
315,218,7065,5,0,0:0:0:0:
451,129,7178,2,0,B|383:111|383:111|315:129,1,140
229,211,7739,1,0,0:0:0:0:
383,246,7852,2,0,B|364:178|364:178|315:128,1,140
161,194,8526,2,0,L|229:211,1,70
92,39,8975,6,0,B|70:97|114:119|92:177,1,140
137,284,9575,2,0,L|149:238,1,46.6666666666667
161,194,9874,2,0,L|178:262,1,70
281,111,10324,2,0,L|264:179,1,70
92,39,10773,5,0,0:0:0:0:
92,39,12121,5,0,0:0:0:0:
83,108,12534,6,0,P|84:73|92:39,1,70
165,216,12756,1,0,0:0:0:0:
72,108,12867,2,0,P|73:73|81:39,1,70
82,231,13163,5,0,0:0:0:0:
96,224,13200,2,0,P|130:216|165:216,1,70
292,307,13422,2,0,P|257:305|223:297,1,70
389,165,13608,5,0,0:0:0:0:
395,179,13645,2,0,P|402:213|403:247,1,70
267,106,13867,2,0,P|268:71|276:37,1,70
286,237,14015,5,0,0:0:0:0:
263,249,14089,2,0,P|228:257|194:258,1,70
123,121,14311,6,0,P|157:112|191:111,1,70
39,228,14533,1,0,0:0:0:0:
120,110,14644,2,0,P|154:101|188:100,1,70
277,305,14978,6,0,P|278:270|286:236,1,70
370,77,15200,5,0,0:0:0:0:
370,77,15311,1,0,0:0:0:0:
418,241,15422,1,0,0:0:0:0:
418,241,15533,1,0,0:0:0:0:
306,144,15645,5,0,0:0:0:0:
306,144,15756,1,0,0:0:0:0:
263,249,15867,1,0,0:0:0:0:
263,249,15978,1,0,0:0:0:0:
423,68,16089,6,0,P|430:102|431:136,1,70
418,241,16311,1,0,0:0:0:0:
434,68,16422,2,0,P|441:102|442:136,1,70
128,190,16719,5,0,0:0:0:0:
142,183,16756,2,0,P|176:175|211:175,1,70
340,299,16978,6,0,P|338:266|332:237,1,58.3333333333333
279,69,17163,1,0,0:0:0:0:
274,94,17200,2,0,P|275:126|279:156,1,46.6666666666667
187,314,17385,6,0,P|185:281|179:252,1,58.3333333333333
126,84,17608,1,0,0:0:0:0:
121,109,17645,2,0,P|122:141|126:171,1,46.6666666666667
63,279,17867,6,0,P|97:283|131:281,1,70
220,169,18089,1,0,0:0:0:0:
63,289,18200,2,0,P|97:293|131:291,1,70
319,235,18533,5,0,0:0:0:0:
182,34,18756,6,0,P|186:68|184:102,1,70
147,233,18978,2,0,P|149:198|145:163,1,70
310,30,19200,6,0,P|305:64|307:98,1,70
345,229,19422,1,0,0:0:0:0:
345,229,19533,1,0,0:0:0:0:
479,42,19645,6,0,P|444:37|410:39,1,70
466,202,19867,1,0,0:0:0:0:
479,32,19978,1,0,0:0:0:0:
345,229,20089,5,0,0:0:0:0:
345,229,20200,1,0,0:0:0:0:
299,120,20311,5,0,0:0:0:0:
299,120,20404,1,0,0:0:0:0:
234,199,20496,5,0,0:0:0:0:
234,199,20589,1,0,0:0:0:0:
192,126,20663,5,0,0:0:0:0:
192,126,20756,1,0,0:0:0:0:
122,171,20830,5,0,0:0:0:0:
122,171,20922,1,0,0:0:0:0:
57,118,20996,5,0,0:0:0:0:
57,118,21088,1,0,0:0:0:0:
87,40,21163,5,0,0:0:0:0:
87,40,21255,1,0,0:0:0:0:
170,45,21329,5,0,0:0:0:0:
170,45,21422,2,0,P|208:52|269:52,1,93.3333333333333
414,40,21645,5,0,0:0:0:0:
366,156,21756,1,0,0:0:0:0:
262,52,21867,1,0,0:0:0:0:
214,168,21978,1,0,0:0:0:0:
170,45,22089,5,0,0:0:0:0:
170,45,22200,1,0,0:0:0:0:
92,234,22311,5,0,0:0:0:0:
158,141,22422,1,0,0:0:0:0:
223,301,22533,2,0,P|224:264|233:227,1,70
388,133,22756,5,0,0:0:0:0:
322,226,22867,1,0,0:0:0:0:
257,66,22978,2,0,P|256:103|247:140,1,70
54,297,23200,6,0,P|85:281|117:271,1,70
236,245,23422,1,0,0:0:0:0:
51,286,23533,2,0,P|82:270|114:260,1,70
177,178,23756,5,0,0:0:0:0:
295,312,23867,2,0,L|366:324,1,70
137,323,24089,5,0,0:0:0:0:
236,245,24200,1,0,0:0:0:0:
85,177,24311,2,0,L|54:242,1,70
260,131,24533,5,0,0:0:0:0:
161,209,24644,1,0,0:0:0:0:
312,277,24755,2,0,L|343:212,1,70
186,76,24978,6,0,L|173:147,1,70
244,240,25200,1,0,0:0:0:0:
317,76,25311,2,0,L|329:147,1,70
248,279,25533,5,0,0:0:0:0:
174,145,25645,1,0,0:0:0:0:
328,145,25756,1,0,0:0:0:0:
129,292,25867,6,0,P|125:253|114:220,1,70
197,79,26089,2,0,P|180:114|173:148,1,70
316,292,26311,2,0,P|276:288|244:277,1,70
396,131,26533,2,0,P|357:134|324:146,1,70
446,318,26756,5,0,0:0:0:0:
446,318,26978,5,0,0:0:0:0:
446,318,27200,5,0,0:0:0:0:
328,144,27311,1,0,0:0:0:0:
328,144,27533,5,0,0:0:0:0:
328,144,27756,5,0,0:0:0:0:
328,144,27978,5,0,0:0:0:0:
210,318,28089,1,0,0:0:0:0:
133,233,28311,6,0,P|177:230|211:231,1,73.4999977569581
234,235,28533,2,0,B|326:245|293:319|395:333,1,192.500005874634
411,336,28867,6,0,P|409:291|417:195,1,140
426,167,29145,6,0,P|396:151|347:156,1,83.9999974365235
334,171,29422,2,0,P|208:235|117:133,1,293.999991027832
53,29,29867,6,0,P|52:65|45:141,1,105
46,156,30089,2,0,P|47:192|54:268,1,105
119,342,30311,5,0,0:0:0:0:
119,342,30533,5,0,0:0:0:0:
119,342,30755,5,0,0:0:0:0:
204,150,30866,1,0,0:0:0:0:
204,150,31088,5,0,0:0:0:0:
204,150,31311,5,0,0:0:0:0:
204,150,31533,5,0,0:0:0:0:
351,301,31644,1,0,0:0:0:0:
351,301,31867,5,0,0:0:0:0:
351,301,31978,1,0,0:0:0:0:
204,150,32089,6,0,P|207:188|205:255,1,105
290,91,32311,5,0,0:0:0:0:
216,266,32422,1,0,0:0:0:0:
124,76,32533,2,0,P|121:114|126:164,1,80.5000015354157
47,288,32700,2,0,P|49:241|46:165,1,121.333327779134
203,49,32922,6,0,P|208:93|203:154,1,101.500003097534
215,322,33089,6,0,P|215:291|217:261,1,56
328,47,33200,2,0,P|338:149|394:224,1,183.750001752377
467,326,33422,2,0,P|372:283|279:297,1,199.499994672775
136,250,33645,5,0,0:0:0:0:
136,250,33867,5,0,0:0:0:0:
136,250,34089,5,0,0:0:0:0:
203,49,34200,1,0,0:0:0:0:
203,49,34422,5,0,0:0:0:0:
203,49,34645,5,0,0:0:0:0:
203,49,34867,5,0,0:0:0:0:
361,189,34978,2,0,P|401:201|453:206,1,90.9999958343508
199,309,35200,2,0,P|239:297|291:292,1,90.9999958343508
44,163,35422,6,0,B|195:127|168:224|321:181,1,279.999991455078
330,177,35811,6,0,P|396:194|381:294,1,179.666672149658
376,297,36089,2,0,P|309:286|287:233,1,128.333333333333
286,216,36311,6,0,P|254:159|142:190,1,192.500007343293
137,200,36533,2,0,P|99:224|66:176,1,114.333329844157
69,161,36682,6,0,P|166:103|208:230,1,280
201,240,36978,2,0,P|242:336|298:274,1,218.166670827866
299,271,37200,6,0,B|279:187|307:86|361:28|453:20|550:88|557:184|497:244|439:272|377:247,1,560
378,250,38089,1,0,0:0:0:0:
361,248,38533,1,0,0:0:0:0:
199,239,38978,5,0,0:0:0:0:
265,54,39089,1,0,0:0:0:0:
265,54,39144,1,0,0:0:0:0:
265,54,39200,1,0,0:0:0:0:
312,278,39311,5,0,0:0:0:0:
161,128,39422,1,0,0:0:0:0:
161,128,39478,1,0,0:0:0:0:
161,128,39533,1,0,0:0:0:0:
103,320,39644,5,0,0:0:0:0:
255,187,39756,1,0,0:0:0:0:
72,204,39867,5,0,0:0:0:0:
226,267,39978,1,0,0:0:0:0:
25,279,40089,5,0,0:0:0:0:
147,236,40182,1,0,0:0:0:0:
41,88,40422,5,0,0:0:0:0:
103,320,40533,2,0,P|107:254|116:189,1,125.999996154785
203,37,40756,6,0,P|206:80|200:162,1,112
226,267,40978,1,0,0:0:0:0:
361,108,41089,2,0,P|396:83|470:48,2,112
226,267,41422,2,0,B|169:277|169:277|108:260,1,112
43,97,41644,6,0,B|100:87|100:87|161:104,1,112
226,267,41867,1,0,0:0:0:0:
226,267,41978,1,0,0:0:0:0:
361,108,42089,1,0,0:0:0:0:
361,108,42200,2,0,P|368:136|374:160,1,37.3333333333333
382,335,42311,2,0,P|385:292|379:210,1,112
169,170,42533,6,0,P|187:208|234:276,1,112
361,108,42756,2,0,P|332:74|270:21,1,112
315,282,42978,1,0,0:0:0:0:
315,282,43089,1,0,0:0:0:0:
385,104,43200,2,0,P|356:70|294:17,1,112
462,301,43422,6,0,P|454:257|426:180,1,112
475,49,43644,1,0,0:0:0:0:
315,282,43756,2,0,P|322:238|350:161,1,112
302,30,43978,1,0,0:0:0:0:
225,266,44089,2,0,P|217:222|189:145,1,112
34,67,44311,6,0,P|77:70|159:64,1,112
302,30,44533,1,0,0:0:0:0:
225,266,44644,2,0,P|217:222|189:145,2,112
397,362,44978,2,0,B|454:352|454:352|515:369,1,112
391,183,45200,6,0,B|334:193|334:193|273:176,1,112
119,335,45422,2,0,L|248:330,1,112
128,162,45644,2,0,L|16:166,1,112
212,265,45867,2,0,P|220:210|240:158,1,112
126,20,46089,5,0,0:0:0:0:
128,162,46200,1,0,0:0:0:0:
183,89,46311,1,0,0:0:0:0:
212,265,46422,5,0,0:0:0:0:
128,162,46533,1,0,0:0:0:0:
73,235,46644,1,0,0:0:0:0:
44,59,46756,5,0,0:0:0:0:
143,250,46867,1,0,0:0:0:0:
238,16,46978,1,0,0:0:0:0:
297,227,47089,1,0,0:0:0:0:
183,89,47200,5,0,0:0:0:0:
143,250,47311,1,0,0:0:0:0:
240,158,47422,1,0,0:0:0:0:
282,280,47533,1,0,0:0:0:0:
424,77,47867,5,0,0:0:0:0:
424,77,47978,1,0,0:0:0:0:
240,158,48089,2,0,P|303:154|361:162,1,112
225,20,48311,5,0,0:0:0:0:
147,180,48422,1,0,0:0:0:0:
188,13,48533,1,0,0:0:0:0:
240,158,48644,5,0,0:0:0:0:
343,0,48756,2,0,P|339:63|347:121,1,112
345,205,48978,5,0,0:0:0:0:
242,47,49090,2,0,P|246:110|238:168,1,112
240,252,49311,1,0,0:0:0:0:
345,111,49422,2,0,P|408:107|466:115,1,112
161,43,49644,5,0,0:0:0:0:
151,49,49682,1,0,0:0:0:0:
142,56,49719,1,0,0:0:0:0:
112,98,49793,1,0,0:0:0:0:
114,150,49867,1,0,0:0:0:0:
147,190,49941,1,0,0:0:0:0:
164,239,50015,1,0,0:0:0:0:
159,291,50089,1,0,0:0:0:0:
39,252,50200,5,0,0:0:0:0:
188,121,50311,1,0,0:0:0:0:
214,150,50367,1,0,0:0:0:0:
224,187,50422,1,0,0:0:0:0:
45,53,50533,5,0,0:0:0:0:
104,21,50607,1,0,0:0:0:0:
171,14,50682,1,0,0:0:0:0:
235,33,50756,1,0,0:0:0:0:
298,54,50830,1,0,0:0:0:0:
365,55,50904,5,0,0:0:0:0:
429,34,50978,1,0,0:0:0:0:
419,70,51052,1,0,0:0:0:0:
418,107,51126,1,0,0:0:0:0:
432,141,51200,1,0,0:0:0:0:
441,152,51274,1,0,0:0:0:0:
452,161,51348,1,0,0:0:0:0:
363,316,51422,5,0,0:0:0:0:
336,212,51533,1,0,0:0:0:0:
224,354,51644,5,0,0:0:0:0:
248,232,51756,1,0,0:0:0:0:
121,358,51867,5,0,0:0:0:0:
88,168,51978,1,0,0:0:0:0:
18,362,52089,5,0,0:0:0:0:
168,200,52200,1,0,0:0:0:0:
327,350,52311,2,0,B|403:349|403:349|439:335,1,112
347,84,52533,5,0,0:0:0:0:
330,117,52607,1,0,0:0:0:0:
325,154,52682,1,0,0:0:0:0:
441,248,52756,5,0,0:0:0:0:
405,140,52867,1,0,0:0:0:0:
301,99,52978,1,0,0:0:0:0:
200,150,53089,1,0,0:0:0:0:
208,323,53200,5,0,0:0:0:0:
301,99,53311,1,0,0:0:0:0:
216,328,53534,5,0,0:0:0:0:
309,104,53645,1,0,0:0:0:0:
224,333,53867,5,0,0:0:0:0:
317,109,53978,1,0,0:0:0:0:
232,338,54200,5,0,0:0:0:0:
325,114,54311,1,0,0:0:0:0:
336,358,54422,5,0,0:0:0:0:
243,134,54533,1,0,0:0:0:0:
54,322,54978,5,0,0:0:0:0:
98,231,55089,1,0,0:0:0:0:
198,224,55200,1,0,0:0:0:0:
255,308,55311,1,0,0:0:0:0:
355,301,55422,5,0,0:0:0:0:
399,210,55534,1,0,0:0:0:0:
343,126,55645,1,0,0:0:0:0:
243,134,55756,1,0,0:0:0:0:
153,314,55867,5,0,0:0:0:0:
343,126,56163,2,0,P|295:151|244:134,1,111.999996582031
89,60,56459,2,0,P|134:142|99:230,1,195.999994018555
153,314,56756,5,0,0:0:0:0:
198,224,56867,1,0,0:0:0:0:
297,216,56978,1,0,0:0:0:0:
343,126,57089,1,0,0:0:0:0:
288,44,57199,5,0,0:0:0:0:
189,52,57310,1,0,0:0:0:0:
144,142,57421,1,0,0:0:0:0:
45,150,57533,1,0,0:0:0:0:
189,52,57644,5,0,0:0:0:0:
189,52,57941,1,0,0:0:0:0:
189,52,58237,2,0,P|283:52|343:125,1,195.999994018555
297,216,58533,5,0,0:0:0:0:
243,134,58644,1,0,0:0:0:0:
198,224,58756,1,0,0:0:0:0:
144,142,58867,1,0,0:0:0:0:
98,231,58978,5,0,0:0:0:0:
198,224,59089,1,0,0:0:0:0:
153,314,59200,1,0,0:0:0:0:
255,308,59311,1,0,0:0:0:0:
343,126,59422,5,0,0:0:0:0:
153,314,59719,2,0,P|143:260|97:230,1,111.999996582031
90,60,60015,2,0,P|146:133|243:134,1,195.999994018555
297,216,60311,5,0,0:0:0:0:
255,308,60422,1,0,0:0:0:0:
198,224,60533,1,0,0:0:0:0:
243,134,60644,1,0,0:0:0:0:
343,126,60756,5,0,0:0:0:0:
399,210,60867,1,0,0:0:0:0:
355,301,60978,1,0,0:0:0:0:
297,216,61089,1,0,0:0:0:0:
256,192,61200,12,0,61978,0:0:0:0:
138,58,62089,6,0,L|144:154,1,83.9999974365235
198,224,62311,1,0,0:0:0:0:
237,50,62422,2,0,L|243:146,1,83.9999974365235
297,216,62644,1,0,0:0:0:0:
336,42,62756,1,0,0:0:0:0:
396,208,62867,1,0,0:0:0:0:
237,50,62978,6,0,P|190:47|138:58,1,83.9999974365235
30,137,63200,1,0,0:0:0:0:
40,134,63311,2,0,P|87:131|139:142,1,83.9999974365235
248,220,63533,1,0,0:0:0:0:
125,222,63644,1,0,0:0:0:0:
242,133,63756,1,0,0:0:0:0:
340,305,63867,6,0,L|256:306,1,83.9999974365235
164,222,64089,2,0,L|247:220,1,83.9999974365235
326,132,64311,2,0,L|242:133,1,83.9999974365235
150,49,64533,2,0,L|233:47,1,83.9999974365235
410,131,64756,6,0,L|326:132,1,83.9999974365235
157,135,64978,1,0,0:0:0:0:
317,45,65089,1,0,0:0:0:0:
339,304,65200,2,0,L|332:221,1,83.9999974365235
234,47,65422,5,0,0:0:0:0:
164,222,65533,1,0,0:0:0:0:
326,131,65644,1,0,0:0:0:0:
150,49,65756,1,0,0:0:0:0:
80,224,65867,1,0,0:0:0:0:
243,133,65978,1,0,0:0:0:0:
67,56,66089,2,0,L|74:139,1,83.9999974365235
171,309,66311,5,0,0:0:0:0:
243,133,66422,1,0,0:0:0:0:
339,304,66533,2,0,L|332:221,1,83.9999974365235
317,45,66756,2,0,L|324:128,1,83.9999974365235
171,309,66978,2,0,L|164:226,1,83.9999974365235
67,56,67200,5,0,0:0:0:0:
248,220,67311,1,0,0:0:0:0:
74,139,67422,1,0,0:0:0:0:
234,47,67533,1,0,0:0:0:0:
164,226,67644,1,0,0:0:0:0:
157,135,67755,1,0,0:0:0:0:
256,308,67866,5,0,0:0:0:0:
157,135,67977,1,0,0:0:0:0:
84,309,68088,1,0,0:0:0:0:
248,220,68200,1,0,0:0:0:0:
74,139,68311,5,0,0:0:0:0:
171,309,68422,1,0,0:0:0:0:
243,133,68533,1,0,0:0:0:0:
