osu file format v14

[General]
AudioFilename: audio.mp3
AudioLeadIn: 0
PreviewTime: 47583
Countdown: 0
SampleSet: Normal
StackLeniency: 0.7
Mode: 1
LetterboxInBreaks: 0
WidescreenStoryboard: 0

[Editor]
DistanceSpacing: 1
BeatDivisor: 4
GridSize: 32
TimelineZoom: 1

[Metadata]
Title:Carousel
TitleUnicode:Carousel
Artist:Hybrid Theory
ArtistUnicode:Hybrid Theory
Creator:Surono
Version:Muzukashii
Source:
Tags:Linkin Park rap rock alternative
BeatmapID:1480603
BeatmapSetID:699157

[Difficulty]
HPDrainRate:6
CircleSize:2
OverallDifficulty:5
ApproachRate:10
SliderMultiplier:1.4
SliderTickRate:1

[Events]
//Background and Video events
0,0,"bg.jpg",0,-75
//Break Periods
//Storyboard Layer 0 (Background)
//Storyboard Layer 1 (Fail)
//Storyboard Layer 2 (Pass)
//Storyboard Layer 3 (Foreground)
//Storyboard Sound Samples

[TimingPoints]
25544,521.648408972353,4,1,0,80,1,0
42106,-90.9090909090909,4,1,0,80,0,0
44192,-83.3333333333333,4,1,0,80,0,0
46279,-76.9230769230769,4,1,0,80,0,0
48366,-71.4285714285714,4,1,0,80,0,0
50583,-66.6666666666667,4,1,0,90,0,1
58127,461.538461538462,4,1,0,90,1,9
58127,-76.9230769230769,4,1,0,90,0,9
58473,521.739130434783,4,1,0,90,1,9
58473,-68.0272108843537,4,1,0,90,0,9
58884,550.05500550055,4,1,0,90,1,1
58884,-64.5161290322581,4,1,0,90,0,1
59282,550.05500550055,4,1,0,90,1,9
59282,-64.5161290322581,4,1,0,90,0,9
59694,521.648408972353,4,1,0,90,1,9
59694,-66.6666666666667,4,1,0,90,0,9
60998,521.648408972353,4,1,0,90,1,1
60998,-66.6666666666667,4,1,0,90,0,1
67257,521.648408972353,4,1,0,90,1,9
67257,-66.6666666666667,4,1,0,90,0,9
67272,521.648408972353,4,1,0,80,1,0
67272,-66.6666666666667,4,1,0,80,0,0
67402,-100,4,1,0,80,0,0
83834,-90.9090909090909,4,1,0,80,0,0
85920,-83.3333333333333,4,1,0,80,0,0
88007,-76.9230769230769,4,1,0,80,0,0
90094,-71.4285714285714,4,1,0,80,0,0
92311,-66.6666666666667,4,1,0,90,0,1
109003,-66.6666666666667,4,1,0,80,0,0
109655,-100,4,1,0,70,0,0
125696,521.648408972353,4,1,0,80,1,8
125731,521.648408972353,4,1,0,80,1,0
140337,-100,4,1,0,90,0,0
142390,545.454545454546,4,1,0,90,1,1
142390,-64.5161290322581,4,1,0,90,0,1
142935,491.803278688525,4,1,0,90,1,9
142935,-71.4285714285714,4,1,0,90,0,9
143426,521.648408972353,4,1,0,90,1,9
143426,-66.6666666666667,4,1,0,90,0,9
144469,521.648408972353,4,1,0,90,1,1
144469,-66.6666666666667,4,1,0,90,0,1
152684,-64.5161290322581,4,1,0,90,0,1
153728,-62.5,4,1,0,90,0,1
154771,-60.6060606060606,4,1,0,90,0,1
155933,512.820512820513,4,1,0,90,1,9
155933,-58.8235294117647,4,1,0,90,0,9
156958,512.820512820513,4,1,0,90,1,1
156958,-57.1428571428571,4,1,0,90,0,1
157855,-55.5555555555556,4,1,0,90,0,1
159009,-54.054054054054,4,1,0,90,0,0

[HitObjects]
256,192,25283,5,0,0:0:0:0:
256,192,25544,1,4,0:0:0:0:
256,192,25935,1,8,0:0:0:0:
256,192,26196,1,8,0:0:0:0:
256,192,26587,1,0,0:0:0:0:
256,192,26848,1,0,0:0:0:0:
256,192,27108,1,8,0:0:0:0:
256,192,27630,1,0,0:0:0:0:
256,192,28021,1,8,0:0:0:0:
256,192,28282,1,0,0:0:0:0:
256,192,28673,1,0,0:0:0:0:
256,192,29195,1,8,0:0:0:0:
256,192,29717,1,0,0:0:0:0:
256,192,30108,1,8,0:0:0:0:
256,192,30369,1,0,0:0:0:0:
256,192,30760,1,0,0:0:0:0:
256,192,31282,1,8,0:0:0:0:
256,192,31542,1,8,0:0:0:0:
256,192,31803,1,0,0:0:0:0:
256,192,32195,1,8,0:0:0:0:
256,192,32455,1,0,0:0:0:0:
256,192,32847,1,8,0:0:0:0:
256,192,33107,1,0,0:0:0:0:
256,192,33368,1,8,0:0:0:0:
256,192,33890,1,0,0:0:0:0:
256,192,34281,1,8,0:0:0:0:
256,192,34542,1,8,0:0:0:0:
256,192,34933,1,0,0:0:0:0:
256,192,35194,1,0,0:0:0:0:
256,192,35455,1,8,0:0:0:0:
256,192,35976,1,0,0:0:0:0:
256,192,36368,1,8,0:0:0:0:
256,192,36629,1,8,0:0:0:0:
256,192,37020,1,0,0:0:0:0:
256,192,37541,1,8,0:0:0:0:
256,192,38063,1,0,0:0:0:0:
256,192,38454,1,8,0:0:0:0:
256,192,38715,1,0,0:0:0:0:
256,192,39106,1,8,0:0:0:0:
256,192,39367,1,0,0:0:0:0:
256,192,39628,1,8,0:0:0:0:
256,192,40150,1,0,0:0:0:0:
256,192,40541,1,8,0:0:0:0:
256,192,40802,1,0,0:0:0:0:
256,192,41193,1,8,0:0:0:0:
256,192,42236,1,0,0:0:0:0:
256,192,42367,1,0,0:0:0:0:
256,192,42627,1,8,0:0:0:0:
256,192,42888,1,0,0:0:0:0:
256,192,43149,1,8,0:0:0:0:
256,192,43540,1,0,0:0:0:0:
256,192,43801,1,8,0:0:0:0:
256,192,44323,1,0,0:0:0:0:
256,192,44453,1,0,0:0:0:0:
256,192,44714,1,8,0:0:0:0:
256,192,44975,1,0,0:0:0:0:
256,192,45236,1,8,0:0:0:0:
256,192,45627,1,0,0:0:0:0:
256,192,45888,1,8,0:0:0:0:
256,192,46409,1,0,0:0:0:0:
256,192,46540,1,0,0:0:0:0:
256,192,46801,1,8,0:0:0:0:
256,192,47061,1,0,0:0:0:0:
256,192,47322,1,8,0:0:0:0:
256,192,47714,1,8,0:0:0:0:
256,192,47974,1,8,0:0:0:0:
256,192,48496,1,0,0:0:0:0:
256,192,48626,1,0,0:0:0:0:
256,192,48887,1,8,0:0:0:0:
256,192,49148,1,0,0:0:0:0:
256,192,49539,1,8,0:0:0:0:
256,192,49800,1,0,0:0:0:0:
256,192,50061,1,8,0:0:0:0:
256,192,50583,1,4,0:0:0:0:
256,192,50974,1,8,0:0:0:0:
256,192,51104,1,0,0:0:0:0:
256,192,51626,1,8,0:0:0:0:
256,192,52017,1,0,0:0:0:0:
256,192,52148,1,8,0:0:0:0:
256,192,52669,1,0,0:0:0:0:
256,192,53060,1,8,0:0:0:0:
256,192,53191,1,0,0:0:0:0:
256,192,53713,1,8,0:0:0:0:
256,192,53973,1,0,0:0:0:0:
256,192,54234,1,8,0:0:0:0:
256,192,54495,1,8,0:0:0:0:
256,192,54756,1,4,0:0:0:0:
256,192,55147,1,8,0:0:0:0:
256,192,55277,1,0,0:0:0:0:
256,192,55799,1,8,0:0:0:0:
256,192,56190,1,0,0:0:0:0:
256,192,56321,1,8,0:0:0:0:
256,192,56842,1,0,0:0:0:0:
256,192,57234,1,8,0:0:0:0:
256,192,57364,1,0,0:0:0:0:
256,192,57886,1,0,0:0:0:0:
256,192,58127,1,8,0:0:0:0:
256,192,58242,1,8,0:0:0:0:
256,192,58357,1,8,0:0:0:0:
256,192,58603,1,0,0:0:0:0:
256,192,58884,1,12,0:0:0:0:
256,192,59282,1,8,0:0:0:0:
256,192,59419,1,0,0:0:0:0:
256,192,59954,1,8,0:0:0:0:
256,192,60346,1,0,0:0:0:0:
256,192,60476,1,8,0:0:0:0:
256,192,60998,1,0,0:0:0:0:
256,192,61389,1,8,0:0:0:0:
256,192,61519,1,0,0:0:0:0:
256,192,62041,1,8,0:0:0:0:
256,192,62302,1,0,0:0:0:0:
256,192,62562,1,8,0:0:0:0:
256,192,62823,1,8,0:0:0:0:
256,192,63084,1,0,0:0:0:0:
256,192,63475,1,8,0:0:0:0:
256,192,63606,1,0,0:0:0:0:
256,192,64127,1,8,0:0:0:0:
256,192,64519,1,0,0:0:0:0:
256,192,64649,1,8,0:0:0:0:
256,192,65171,1,0,0:0:0:0:
256,192,65562,1,8,0:0:0:0:
256,192,65692,1,0,0:0:0:0:
256,192,66214,1,8,0:0:0:0:
256,192,66605,1,0,0:0:0:0:
256,192,66736,1,8,0:0:0:0:
256,192,67272,1,4,0:0:0:0:
256,192,68315,1,0,0:0:0:0:
256,192,68836,1,8,0:0:0:0:
256,192,69358,1,0,0:0:0:0:
256,192,69749,1,8,0:0:0:0:
256,192,70010,1,8,0:0:0:0:
256,192,70401,1,0,0:0:0:0:
256,192,70532,1,0,0:0:0:0:
256,192,70923,1,8,0:0:0:0:
256,192,71445,1,0,0:0:0:0:
256,192,71836,1,8,0:0:0:0:
256,192,72097,1,0,0:0:0:0:
256,192,72488,1,0,0:0:0:0:
256,192,72618,1,0,0:0:0:0:
256,192,73010,1,8,0:0:0:0:
256,192,73270,1,0,0:0:0:0:
256,192,73531,1,0,0:0:0:0:
256,192,73923,1,8,0:0:0:0:
256,192,74183,1,0,0:0:0:0:
256,192,74575,1,8,0:0:0:0:
256,192,75096,1,8,0:0:0:0:
256,192,75357,1,8,0:0:0:0:
256,192,75618,1,0,0:0:0:0:
256,192,76009,1,8,0:0:0:0:
256,192,76270,1,0,0:0:0:0:
256,192,76661,1,0,0:0:0:0:
256,192,76922,1,0,0:0:0:0:
256,192,77183,1,8,0:0:0:0:
256,192,77704,1,0,0:0:0:0:
256,192,78096,1,8,0:0:0:0:
256,192,78357,1,0,0:0:0:0:
256,192,78487,1,0,0:0:0:0:
256,192,78748,1,8,0:0:0:0:
256,192,79009,1,0,0:0:0:0:
256,192,79269,1,8,0:0:0:0:
256,192,79791,1,8,0:0:0:0:
256,192,80182,1,8,0:0:0:0:
256,192,80443,1,0,0:0:0:0:
256,192,80574,1,0,0:0:0:0:
256,192,80834,1,8,0:0:0:0:
256,192,81356,1,8,0:0:0:0:
256,192,81617,1,8,0:0:0:0:
256,192,81878,1,0,0:0:0:0:
256,192,82269,1,8,0:0:0:0:
256,192,82530,1,0,0:0:0:0:
256,192,82921,1,8,0:0:0:0:
256,192,83964,1,0,0:0:0:0:
256,192,84225,1,0,0:0:0:0:
256,192,84355,1,8,0:0:0:0:
256,192,84616,1,0,0:0:0:0:
256,192,84877,1,8,0:0:0:0:
256,192,85268,1,0,0:0:0:0:
256,192,85529,1,8,0:0:0:0:
256,192,86051,1,0,0:0:0:0:
256,192,86312,1,0,0:0:0:0:
256,192,86442,1,8,0:0:0:0:
256,192,86703,1,0,0:0:0:0:
256,192,86964,1,8,0:0:0:0:
256,192,87355,1,0,0:0:0:0:
256,192,87616,1,8,0:0:0:0:
256,192,88137,1,0,0:0:0:0:
256,192,88398,1,0,0:0:0:0:
256,192,88529,1,8,0:0:0:0:
256,192,88789,1,0,0:0:0:0:
256,192,89050,1,8,0:0:0:0:
256,192,89442,1,8,0:0:0:0:
256,192,89702,1,8,0:0:0:0:
256,192,90224,1,0,0:0:0:0:
256,192,90485,1,0,0:0:0:0:
256,192,90615,1,8,0:0:0:0:
256,192,90876,1,0,0:0:0:0:
256,192,91267,1,8,0:0:0:0:
256,192,91528,1,0,0:0:0:0:
256,192,91789,1,8,0:0:0:0:
256,192,92311,1,4,0:0:0:0:
256,192,92702,1,8,0:0:0:0:
256,192,92832,1,0,0:0:0:0:
256,192,93354,1,8,0:0:0:0:
256,192,93745,1,0,0:0:0:0:
256,192,93876,1,8,0:0:0:0:
256,192,94397,1,4,0:0:0:0:
256,192,94788,1,8,0:0:0:0:
256,192,94919,1,0,0:0:0:0:
256,192,95441,1,8,0:0:0:0:
256,192,95701,1,0,0:0:0:0:
256,192,95962,1,8,0:0:0:0:
256,192,96223,1,8,0:0:0:0:
256,192,96484,1,0,0:0:0:0:
256,192,96875,1,8,0:0:0:0:
256,192,97005,1,0,0:0:0:0:
256,192,97527,1,8,0:0:0:0:
256,192,97918,1,0,0:0:0:0:
256,192,98049,1,8,0:0:0:0:
256,192,98570,1,0,0:0:0:0:
256,192,98962,1,8,0:0:0:0:
256,192,99092,1,0,0:0:0:0:
256,192,99614,1,8,0:0:0:0:
256,192,100005,1,0,0:0:0:0:
256,192,100135,1,8,0:0:0:0:
256,192,100396,1,0,0:0:0:0:
256,192,100657,1,4,0:0:0:0:
256,192,101048,1,8,0:0:0:0:
256,192,101179,1,0,0:0:0:0:
256,192,101700,1,8,0:0:0:0:
256,192,102092,1,0,0:0:0:0:
256,192,102222,1,8,0:0:0:0:
256,192,102744,1,0,0:0:0:0:
256,192,103135,1,8,0:0:0:0:
256,192,103265,1,0,0:0:0:0:
256,192,103787,1,8,0:0:0:0:
256,192,104048,1,0,0:0:0:0:
256,192,104309,1,8,0:0:0:0:
256,192,104569,1,8,0:0:0:0:
256,192,104830,1,4,0:0:0:0:
256,192,105221,1,8,0:0:0:0:
256,192,105352,1,0,0:0:0:0:
256,192,105873,1,8,0:0:0:0:
256,192,106265,1,0,0:0:0:0:
256,192,106395,1,8,0:0:0:0:
256,192,106917,1,0,0:0:0:0:
256,192,107308,1,8,0:0:0:0:
256,192,107438,1,0,0:0:0:0:
256,192,107960,1,8,0:0:0:0:
256,192,108351,1,0,0:0:0:0:
256,192,108482,1,8,0:0:0:0:
256,192,108743,1,0,0:0:0:0:
256,192,109003,1,4,0:0:0:0:
256,192,109395,1,0,0:0:0:0:
256,192,109525,1,0,0:0:0:0:
256,192,111090,5,8,0:0:0:0:
256,192,111481,1,8,0:0:0:0:
256,192,111612,1,8,0:0:0:0:
256,192,113177,5,0,0:0:0:0:
256,192,113568,1,0,0:0:0:0:
256,192,113698,1,0,0:0:0:0:
256,192,115263,5,8,0:0:0:0:
256,192,115654,1,8,0:0:0:0:
256,192,115785,1,8,0:0:0:0:
256,192,117350,5,0,0:0:0:0:
256,192,117480,1,0,0:0:0:0:
256,192,117741,1,8,0:0:0:0:
256,192,117871,1,8,0:0:0:0:
256,192,119436,5,8,0:0:0:0:
256,192,119566,1,8,0:0:0:0:
256,192,119827,1,0,0:0:0:0:
256,192,119958,1,0,0:0:0:0:
256,192,121523,5,0,0:0:0:0:
256,192,121653,1,0,0:0:0:0:
256,192,121914,1,8,0:0:0:0:
256,192,122045,1,8,0:0:0:0:
256,192,123610,5,8,0:0:0:0:
256,192,123740,1,8,0:0:0:0:
256,192,124001,1,0,0:0:0:0:
256,192,124131,1,0,0:0:0:0:
256,192,125731,1,0,0:0:0:0:
256,192,126122,1,8,0:0:0:0:
256,192,126252,1,8,0:0:0:0:
256,192,126774,1,8,0:0:0:0:
256,192,127035,1,8,0:0:0:0:
256,192,127295,1,0,0:0:0:0:
256,192,127556,1,8,0:0:0:0:
256,192,127817,1,0,0:0:0:0:
256,192,128208,1,8,0:0:0:0:
256,192,128339,1,8,0:0:0:0:
256,192,128860,1,8,0:0:0:0:
256,192,129121,1,0,0:0:0:0:
256,192,129382,1,0,0:0:0:0:
256,192,129643,1,8,0:0:0:0:
256,192,129904,1,0,0:0:0:0:
256,192,130295,1,8,0:0:0:0:
256,192,130425,1,8,0:0:0:0:
256,192,130947,1,8,0:0:0:0:
256,192,131208,1,0,0:0:0:0:
256,192,131469,1,8,0:0:0:0:
256,192,131729,1,8,0:0:0:0:
256,192,131990,1,0,0:0:0:0:
256,192,132382,1,8,0:0:0:0:
256,192,132512,1,8,0:0:0:0:
256,192,133034,1,8,0:0:0:0:
256,192,133294,1,0,0:0:0:0:
256,192,133555,1,0,0:0:0:0:
256,192,133816,1,8,0:0:0:0:
256,192,134077,1,8,0:0:0:0:
256,192,134468,1,0,0:0:0:0:
256,192,134599,1,0,0:0:0:0:
256,192,135120,1,8,0:0:0:0:
256,192,135381,1,8,0:0:0:0:
256,192,135642,1,0,0:0:0:0:
256,192,135903,1,8,0:0:0:0:
256,192,136424,1,8,0:0:0:0:
256,192,136685,1,0,0:0:0:0:
256,192,136816,1,8,0:0:0:0:
256,192,137076,1,0,0:0:0:0:
256,192,137207,1,8,0:0:0:0:
256,192,137468,1,0,0:0:0:0:
256,192,137728,1,0,0:0:0:0:
256,192,137989,1,8,0:0:0:0:
256,192,138250,1,0,0:0:0:0:
256,192,138641,1,8,0:0:0:0:
256,192,138902,1,0,0:0:0:0:
256,192,139293,1,0,0:0:0:0:
256,192,139554,1,0,0:0:0:0:
256,192,139815,1,8,0:0:0:0:
256,192,140337,1,12,0:0:0:0:
256,192,140858,1,12,0:0:0:0:
256,192,142390,1,4,0:0:0:0:
256,192,142799,1,8,0:0:0:0:
256,192,142935,1,0,0:0:0:0:
256,192,143426,1,8,0:0:0:0:
256,192,143817,1,0,0:0:0:0:
256,192,143947,1,8,0:0:0:0:
256,192,144469,1,0,0:0:0:0:
256,192,144599,1,0,0:0:0:0:
256,192,144860,1,8,0:0:0:0:
256,192,144990,1,0,0:0:0:0:
256,192,145512,1,8,0:0:0:0:
256,192,145773,1,0,0:0:0:0:
256,192,146033,1,8,0:0:0:0:
256,192,146294,1,8,0:0:0:0:
256,192,146555,1,0,0:0:0:0:
256,192,146686,1,0,0:0:0:0:
256,192,146946,1,8,0:0:0:0:
256,192,147077,1,0,0:0:0:0:
256,192,147598,1,8,0:0:0:0:
256,192,147990,1,0,0:0:0:0:
256,192,148120,1,8,0:0:0:0:
256,192,148642,1,0,0:0:0:0:
256,192,148772,1,0,0:0:0:0:
256,192,149033,1,8,0:0:0:0:
256,192,149163,1,0,0:0:0:0:
256,192,149685,1,0,0:0:0:0:
256,192,149946,1,8,0:0:0:0:
256,192,150076,1,8,0:0:0:0:
256,192,150207,1,8,0:0:0:0:
256,192,150467,1,0,0:0:0:0:
256,192,150728,1,12,0:0:0:0:
256,192,151120,1,8,0:0:0:0:
256,192,151250,1,0,0:0:0:0:
256,192,151772,1,8,0:0:0:0:
256,192,152163,1,0,0:0:0:0:
256,192,152293,1,8,0:0:0:0:
256,192,152815,1,12,0:0:0:0:
256,192,153337,1,8,0:0:0:0:
256,192,153858,1,12,0:0:0:0:
256,192,154380,1,8,0:0:0:0:
256,192,154641,1,8,0:0:0:0:
256,192,154901,1,12,0:0:0:0:
256,192,155423,1,8,0:0:0:0:
256,192,155933,1,12,0:0:0:0:
256,192,156445,1,8,0:0:0:0:
256,192,156702,1,0,0:0:0:0:
256,192,156958,1,12,0:0:0:0:
256,192,157470,1,8,0:0:0:0:
256,192,157727,1,0,0:0:0:0:
256,192,157983,1,12,0:0:0:0:
256,192,158368,1,0,0:0:0:0:
256,192,158496,1,8,0:0:0:0:
256,192,158752,1,0,0:0:0:0:
256,192,159009,1,12,0:0:0:0:
256,192,159393,1,0,0:0:0:0:
256,192,159522,1,0,0:0:0:0:
