osu file format v14

[General]
AudioFilename: audio.mp3
AudioLeadIn: 0
PreviewTime: 184899
Countdown: 0
SampleSet: None
StackLeniency: 0.2
Mode: 0
LetterboxInBreaks: 0
WidescreenStoryboard: 0

[Editor]
Bookmarks: 20619,46659,54339
DistanceSpacing: 0.3
BeatDivisor: 4
GridSize: 32
TimelineZoom: 1.7

[Metadata]
Title:Choose Me
TitleUnicode:Choose Me
Artist:Hyadain feat. Sasaki Sayaka
ArtistUnicode:Hyadain feat. Sasaki Sayaka
Creator:Yogurtt
Version:please choose me
Source:日常
Tags:nichijou, my ordinary life, single, bop
BeatmapID:2097332
BeatmapSetID:1001950

[Difficulty]
HPDrainRate:4.7
CircleSize:4.5
OverallDifficulty:8.8
ApproachRate:9.6
SliderMultiplier:3.59999990463257
SliderTickRate:1

[Events]
//Background and Video events
0,0,"37760_nichijou.jpg",0,0
//Break Periods
//Storyboard Layer 0 (Background)
//Storyboard Layer 1 (Fail)
//Storyboard Layer 2 (Pass)
//Storyboard Layer 3 (Foreground)
//Storyboard Sound Samples

[TimingPoints]
579,480,4,2,7,30,1,0
1059,-500,4,2,7,30,0,0
6339,-250,4,2,7,30,0,0
6819,-200,4,2,7,30,0,0
7179,-166.666666666667,4,2,7,30,0,0
14019,-142.857142857143,4,2,7,50,0,0
14499,-125,4,2,7,60,0,0
14979,-111.111111111111,4,2,7,70,0,0
15459,-500,4,2,7,30,0,0
15939,-100,4,2,7,70,0,0
16419,-83.3333333333333,4,2,7,70,0,0
17379,-100,4,2,7,70,0,0
22179,-83.3333333333333,4,2,7,70,0,0
22659,-71.4285714285714,4,2,7,70,0,0
22899,-100,4,2,7,70,0,0
30339,-66.6666666666667,4,2,7,70,0,0
31299,-100,4,2,7,70,0,0
31779,-83.3333333333333,4,2,7,70,0,0
32379,-100,4,2,7,70,0,0
37539,-83.3333333333333,4,2,7,70,0,0
38019,-71.4285714285714,4,2,7,70,0,0
38259,-100,4,2,7,70,0,0
53619,-200,4,2,7,40,0,0
54339,-100,4,2,7,10,0,1
54399,-100,4,2,7,30,0,1
54459,-100,4,2,7,50,0,1
54519,-100,4,2,7,70,0,1
54579,-100,4,2,7,90,0,1
54819,-66.6666666666667,4,2,7,90,0,1
55059,-100,4,2,7,70,0,0
60579,-83.3333333333333,4,2,7,80,0,0
61059,-71.4285714285714,4,2,7,90,0,0
62019,-100,4,2,7,70,0,0
64419,-76.9230769230769,4,2,7,80,0,0
64779,-66.6666666666667,4,2,7,90,0,0
65859,-100,4,2,7,70,0,0
68979,-200,4,2,7,40,0,0
69699,-100,4,2,7,10,0,1
69759,-100,4,2,7,30,0,1
69819,-100,4,2,7,50,0,1
69879,-100,4,2,7,70,0,1
69939,-100,4,2,7,90,0,1
70179,-66.6666666666667,4,2,7,90,0,1
70419,-100,4,2,7,70,0,0
75939,-83.3333333333333,4,2,7,80,0,0
76419,-71.4285714285714,4,2,7,90,0,0
77379,-100,4,2,7,70,0,0
79779,-76.9230769230769,4,2,7,80,0,0
80139,-55.5555555555556,4,2,7,90,0,0
81219,-100,4,2,7,70,0,0
85539,-100,4,2,7,60,0,0
86019,-133.333333333333,4,2,7,50,0,0
86499,-133.333333333333,4,2,7,40,0,0
86979,-500,4,2,7,30,0,0
90819,-166.666666666667,4,2,7,60,0,0

[Colours]
Combo1 : 114,139,182
Combo2 : 216,63,63
Combo3 : 236,187,74
Combo4 : 151,189,125
Combo5 : 131,100,86
Combo6 : 200,77,101
Combo7 : 201,176,118

[HitObjects]
121,103,579,53,0,0:0:0:0:
125,108,1059,2,0,L|122:144,1,35.9999990463257
189,169,1419,2,0,L|192:133,1,35.9999990463257
193,114,1779,1,0,0:0:0:0:
265,130,2019,1,0,0:0:0:0:
337,146,2259,1,0,0:0:0:0:
341,154,2499,22,0,L|338:190,1,35.9999990463257
341,301,2979,2,0,L|344:265,1,35.9999990463257
349,257,3339,1,0,0:0:0:0:
272,311,3459,2,0,L|275:275,1,35.9999990463257
217,189,3939,2,0,L|220:225,1,35.9999990463257
150,251,4419,70,0,L|147:215,1,35.9999990463257
88,126,4899,2,0,L|91:162,1,35.9999990463257
24,191,5259,2,0,L|21:155,1,35.9999990463257
20,132,5619,1,0,0:0:0:0:
85,230,5859,1,0,0:0:0:0:
20,328,6099,1,0,0:0:0:0:
88,358,6339,54,0,P|127:347|172:364,1,71.9999980926514
182,336,6819,6,0,P|221:347|269:326,1,89.9999976158142
281,348,7179,6,0,P|320:337|380:371,1,107.999993843079
377,366,7539,1,0,0:0:0:0:
456,310,7779,1,0,0:0:0:0:
368,270,8019,1,0,0:0:0:0:
484,216,8259,6,0,B|326:186|339:312|156:267,1,323.999981529236
66,192,9219,2,0,P|102:134|152:276,1,323.999981529236
95,125,10179,22,0,P|164:114|225:224,1,161.999990764618
248,132,10659,2,0,P|317:143|378:33,1,161.999990764618
389,48,11139,2,0,B|354:53|323:34|323:34|347:214,1,215.999987686158
352,252,11859,1,0,0:0:0:0:
179,223,12099,69,0,0:0:0:0:
176,230,12579,1,0,0:0:0:0:
194,323,12819,1,0,0:0:0:0:
370,345,13059,1,0,0:0:0:0:
352,252,13299,1,0,0:0:0:0:
272,286,13539,1,0,0:0:0:0:
290,379,13779,1,0,0:0:0:0:
467,187,14019,6,0,L|342:167,1,125.999992816925,4|0,0:3|0:3,0:3:0:0:
240,150,14379,1,8,0:3:0:0:
467,188,14499,22,0,P|400:156|313:183,1,143.999996185303,4|0,0:3|0:3,0:3:0:0:
240,150,14859,1,8,0:3:0:0:
468,190,14979,6,0,P|390:202|305:150,1,161.999990764618,4|0,0:3|0:3,0:3:0:0:
285,44,15459,54,0,P|288:69|290:86,1,35.9999990463257,2|0,0:0|0:0,0:0:0:0:
278,325,15939,70,0,P|262:241|235:132,1,179.999995231628,4|0,0:0|0:0,0:0:0:0:
212,75,16299,1,0,0:0:0:0:
398,45,16419,86,0,P|402:155|496:106,1,215.999987686158,8|0,0:0|0:0,0:0:0:0:
489,125,16779,2,0,P|379:136|434:227,1,215.999987686158
455,253,17139,1,0,0:0:0:0:
455,253,17259,1,0,0:0:0:0:
340,252,17379,2,0,L|353:342,1,89.9999976158142,8|0,0:0|0:0,0:0:0:0:
336,359,17619,2,0,L|323:269,1,89.9999976158142,8|0,0:0|0:0,0:0:0:0:
289,79,17859,86,0,P|245:51|133:132,1,179.999995231628,2|0,0:0|0:0,0:0:0:0:
130,172,18219,1,0,0:0:0:0:
45,34,18339,2,0,P|50:81|55:241,1,179.999995231628,8|0,0:0|0:0,0:0:0:0:
45,202,18699,1,0,0:0:0:0:
158,351,18819,2,0,P|159:297|163:257,1,89.9999976158142
252,126,19059,2,0,P|323:190|321:274,1,179.999995231629,0|8,0:0|0:0,0:0:0:0:
277,326,19419,1,0,0:0:0:0:
277,326,19539,1,8,0:0:0:0:
345,181,19659,1,0,0:0:0:0:
443,310,19779,86,0,P|422:217|416:123,1,179.999995231629,2|0,0:0|0:0,0:0:0:0:
428,144,20139,1,0,0:0:0:0:
317,94,20259,2,0,P|280:110|226:98,2,89.9999976158143,8|0|0,0:0|0:0|0:0,0:0:0:0:
211,133,20619,2,0,P|174:117|120:129,2,89.9999976158143
247,201,20979,1,0,0:0:0:0:
219,271,21099,1,0,0:0:0:0:
388,272,21219,1,8,0:0:0:0:
360,202,21339,1,0,0:0:0:0:
297,318,21459,1,8,0:0:0:0:
297,318,21699,70,0,B|201:303|213:372|96:336,1,179.999995231629,6|0,0:0|0:0,0:0:0:0:
122,342,22059,1,0,0:0:0:0:
122,342,22179,54,0,B|230:311|213:401|355:354,1,215.999987686158,2|0,0:0|0:0,0:0:0:0:
331,361,22539,1,0,0:0:0:0:
331,361,22659,6,0,P|393:283|240:255,1,251.999985633851,2|0,0:0|0:0,0:0:0:0:
234,244,23019,1,0,0:0:0:0:
169,211,23139,1,8,0:0:0:0:
104,244,23259,1,0,0:0:0:0:
56,106,23379,1,8,0:0:0:0:
81,313,23499,1,0,0:0:0:0:
76,119,23619,70,0,B|144:105|144:105|180:122|180:122|256:108,1,179.999995231629,6|0,0:0|0:0,0:0:0:0:
238,101,23979,1,0,0:0:0:0:
338,20,24099,2,0,P|316:112|319:205,1,179.999995231629,8|0,0:0|0:0,0:0:0:0:
407,209,24459,2,0,P|429:117|426:24,1,179.999995231629
351,265,24819,1,0,0:0:0:0:
351,265,24939,1,0,0:0:0:0:
251,196,25059,2,0,L|143:179,1,89.9999976158143,8|0,0:0|0:0,0:0:0:0:
144,200,25299,2,0,L|232:213,1,89.9999976158143,8|0,0:0|0:0,0:0:0:0:
145,45,25539,22,0,P|49:22|20:114,1,179.999995231629,2|0,0:0|0:0,0:0:0:0:
6,153,25899,1,0,0:0:0:0:
85,85,26019,2,0,P|76:179|76:277,1,179.999995231629,8|0,0:0|0:0,0:0:0:0:
105,331,26379,2,0,B|200:302|184:370|294:340,1,179.999995231629
338,300,26739,1,0,0:0:0:0:
325,224,26859,1,0,0:0:0:0:
351,376,26979,1,8,0:0:0:0:
351,376,27219,21,8,0:0:0:0:
325,224,27339,1,0,0:0:0:0:
426,274,27459,2,0,P|328:260|229:249,1,179.999995231629,2|0,0:0|0:0,0:0:0:0:
146,247,27819,2,0,P|244:233|343:222,1,179.999995231629,8|0,0:0|0:0,0:0:0:0:
306,214,28179,1,0,0:0:0:0:
386,100,28299,2,0,P|405:151|406:204,1,89.9999976158143
340,366,28539,2,0,P|359:315|360:262,1,89.9999976158143
263,123,28779,1,0,0:0:0:0:
266,134,28899,1,8,0:0:0:0:
191,110,29019,1,0,0:0:0:0:
120,146,29139,1,8,0:0:0:0:
95,221,29259,1,0,0:0:0:0:
56,96,29379,53,10,0:0:0:0:
130,291,29499,1,0,0:0:0:0:
56,96,29619,1,0,0:0:0:0:
26,259,29739,5,0,0:0:0:0:
126,71,29859,1,10,0:0:0:0:
26,259,29979,1,0,0:0:0:0:
69,23,30099,69,0,0:0:0:0:
168,206,30219,1,0,0:0:0:0:
365,266,30339,2,0,P|433:270|499:211,1,135.000001573563,8|0,0:0|0:0,0:0:0:0:
251,323,30579,2,0,P|196:285|129:290,1,135.000001573563,8|0,0:0|0:0,0:0:0:0:
404,170,30819,1,2,0:0:0:0:
411,131,30939,1,2,0:0:0:0:
403,93,31059,1,2,0:0:0:0:
383,60,31179,1,2,0:0:0:0:
328,129,31299,6,0,B|246:114|248:180|134:137,1,179.999995231629,6|0,0:0|0:0,0:0:0:0:
126,71,31659,1,0,0:0:0:0:
182,215,31779,6,0,P|122:176|39:285,1,215.999987686158,8|0,0:0|0:0,0:0:0:0:
37,282,32139,2,0,P|98:223|10:145,1,215.999987686158,8|0,0:0|0:0,0:0:0:0:
126,71,32499,1,0,0:0:0:0:
126,71,32619,1,0,0:0:0:0:
215,135,32739,2,0,P|207:189|204:239,1,89.9999976158143,8|0,0:0|0:0,0:0:0:0:
277,290,32979,2,0,P|285:236|288:186,1,89.9999976158143,8|0,0:0|0:0,0:0:0:0:
289,85,33219,22,0,P|371:35|447:98,1,179.999995231629,2|0,0:0|0:0,0:0:0:0:
472,140,33579,1,0,0:0:0:0:
309,182,33699,2,0,P|219:156|113:167,1,179.999995231629,8|0,0:0|0:0,0:0:0:0:
152,147,34059,1,0,0:0:0:0:
24,142,34179,2,0,P|30:186|39:242,1,89.9999976158143
54,337,34419,2,0,B|141:365|141:365|232:319,1,179.999995231629,0|8,0:0|0:0,0:0:0:0:
286,280,34779,1,0,0:0:0:0:
286,280,34899,1,8,0:0:0:0:
327,378,35019,1,0,0:0:0:0:
381,252,35139,22,0,P|380:161|385:55,1,179.999995231629,2|0,0:0|0:0,0:0:0:0:
398,93,35499,1,0,0:0:0:0:
288,5,35619,2,0,P|298:53|304:111,2,89.9999976158143,8|0|0,0:0|0:0|0:0,0:0:0:0:
172,11,35979,2,0,P|162:59|156:117,2,89.9999976158143
232,144,36339,1,0,0:0:0:0:
129,183,36459,1,0,0:0:0:0:
34,58,36579,1,8,0:0:0:0:
157,99,36699,1,0,0:0:0:0:
201,223,36819,1,8,0:0:0:0:
201,223,37059,6,0,P|279:285|369:245,1,179.999995231629,6|0,0:0|0:0,0:0:0:0:
349,265,37419,1,0,0:0:0:0:
349,265,37539,6,0,B|307:252|281:227|281:227|294:384,1,215.999987686158,2|0,0:0|0:0,0:0:0:0:
292,364,37899,1,0,0:0:0:0:
292,364,38019,6,0,B|205:300|153:394|49:291,1,251.999985633851,2|0,0:0|0:0,0:0:0:0:
29,232,38379,1,0,0:0:0:0:
71,169,38499,1,8,0:0:0:0:
104,236,38619,1,0,0:0:0:0:
38,102,38739,1,8,0:0:0:0:
57,299,38859,1,0,0:0:0:0:
48,83,38979,22,0,P|141:63|253:51,1,179.999995231629,6|0,0:0|0:0,0:0:0:0:
205,40,39339,1,0,0:0:0:0:
363,90,39459,2,0,P|291:110|271:210,1,179.999995231629,8|0,0:0|0:0,0:0:0:0:
323,250,39819,2,0,P|395:230|415:130,1,179.999995231629
253,274,40179,1,0,0:0:0:0:
253,274,40299,1,0,0:0:0:0:
161,137,40419,2,0,P|167:184|179:242,1,89.9999976158143,8|0,0:0|0:0,0:0:0:0:
132,287,40659,2,0,P|140:242|146:198,1,89.9999976158143,8|0,0:0|0:0,0:0:0:0:
16,329,40899,22,0,B|103:365|106:292|217:340,1,179.999995231629,2|0,0:0|0:0,0:0:0:0:
258,357,41259,1,0,0:0:0:0:
390,325,41379,2,0,P|381:246|381:139,1,179.999995231629,8|0,0:0|0:0,0:0:0:0:
349,36,41739,2,0,P|349:125|339:215,1,179.999995231629
278,260,42099,1,0,0:0:0:0:
211,227,42219,1,0,0:0:0:0:
144,260,42339,1,8,0:0:0:0:
144,260,42579,5,8,0:0:0:0:
278,260,42699,1,0,0:0:0:0:
211,144,42819,1,2,0:0:0:0:
209,137,42939,1,0,0:0:0:0:
207,130,43059,1,0,0:0:0:0:
175,57,43179,2,0,P|95:33|54:129,1,179.999995231629,8|0,0:0|0:0,0:0:0:0:
59,178,43539,1,0,0:0:0:0:
182,324,43659,2,0,P|168:274|150:221,1,89.9999976158143
303,173,43899,2,0,P|289:215|277:259,1,89.9999976158143
365,354,44139,2,0,P|390:308|415:258,2,89.9999976158143,0|8|0,0:0|0:0|0:0,0:0:0:0:
370,211,44499,1,8,0:0:0:0:
370,211,44619,1,0,0:0:0:0:
370,211,44739,6,0,P|419:197|474:223,1,89.9999976158143,4|0,0:3|0:3,0:3:0:0:
490,276,44979,1,8,0:3:0:0:
493,286,45099,1,0,0:3:0:0:
284,207,45219,6,0,P|333:221|388:195,1,89.9999976158143,4|0,0:3|0:3,0:3:0:0:
404,142,45459,1,8,0:3:0:0:
407,132,45579,1,0,0:3:0:0:
407,274,45699,21,10,0:0:0:0:
359,57,45819,1,0,0:0:0:0:
284,207,45939,5,2,0:0:0:0:
440,53,46059,1,0,0:0:0:0:
493,286,46179,5,10,0:0:0:0:
327,142,46299,1,0,0:0:0:0:
265,350,46419,5,2,0:0:0:0:
265,350,46659,5,4,0:0:0:0:
43,313,46779,1,0,0:0:0:0:
181,297,46899,1,0,0:0:0:0:
183,305,47139,1,0,0:0:0:0:
185,313,47379,5,4,0:0:0:0:
212,101,47499,1,0,0:0:0:0:
240,246,47619,1,0,0:0:0:0:
231,242,47859,1,0,0:0:0:0:
221,237,48099,2,0,L|323:226,1,89.9999976158143,8|0,0:0|0:0,0:0:0:0:
437,170,48339,2,0,L|335:159,1,89.9999976158143,8|0,0:0|0:0,0:0:0:0:
278,152,48579,21,4,0:0:0:0:
324,367,48699,1,0,0:0:0:0:
310,227,48819,1,0,0:0:0:0:
321,232,49059,1,0,0:0:0:0:
332,237,49299,53,4,0:0:0:0:
72,287,49419,1,0,0:0:0:0:
218,219,49539,1,0,0:0:0:0:
218,237,49779,1,0,0:0:0:0:
218,255,50019,2,0,L|201:141,1,89.9999976158143,8|0,0:0|0:0,0:0:0:0:
110,46,50259,2,0,L|96:135,1,89.9999976158143,8|0,0:0|0:0,0:0:0:0:
84,207,50499,5,4,0:0:0:0:
378,197,50619,1,0,0:0:0:0:
204,165,50739,1,0,0:0:0:0:
207,137,50979,1,0,0:0:0:0:
210,109,51219,69,4,0:0:0:0:
273,353,51339,1,0,0:0:0:0:
279,191,51459,2,0,L|387:179,1,89.9999976158143,8|0,0:0|0:0,0:0:0:0:
373,96,51699,2,0,L|462:105,1,89.9999976158143,8|0,0:0|0:0,0:0:0:0:
512,269,51939,2,0,L|422:278,1,89.9999976158143,8|0,0:0|0:0,0:0:0:0:
273,41,52179,2,0,L|183:31,1,89.9999976158143,8|0,0:0|0:0,0:0:0:0:
0,116,52419,5,4,0:3:0:0:
190,244,52539,1,8,0:3:0:0:
101,215,52659,1,8,0:3:0:0:
12,244,52779,1,8,0:3:0:0:
196,348,52899,5,4,0:3:0:0:
150,139,53019,1,8,0:3:0:0:
190,244,53139,1,8,0:3:0:0:
292,289,53259,1,8,0:3:0:0:
255,25,53379,21,4,0:3:0:0:
347,119,53619,22,0,L|281:133,1,44.9999988079071,8|0,0:0|0:0,0:0:0:0:
165,119,53859,2,0,L|231:133,1,44.9999988079071,8|0,0:0|0:0,0:0:0:0:
256,227,54099,2,0,L|256:182,1,44.9999988079071,8|0,0:0|0:0,0:0:0:0:
155,37,54339,6,0,P|99:69|107:181,1,179.999995231629,6|0,0:0|0:0,0:0:0:0:
164,219,54699,1,0,0:0:0:0:
422,130,54819,6,0,B|324:55|283:176|161:117,1,270.000003147125,12|0,0:0|0:0,0:0:0:0:
272,22,55179,5,0,0:0:0:0:
357,184,55299,1,2,0:0:0:0:
357,184,55419,1,0,0:0:0:0:
437,117,55539,2,8,P|434:87|433:54,2,59.9999984105428,8|8|8,0:3|0:3|0:3,0:3:0:0:
460,235,55779,2,0,P|378:208|287:266,1,179.999995231629,12|0,0:0|0:0,0:0:0:0:
264,356,56139,1,0,0:0:0:0:
236,178,56259,22,0,P|256:275|264:375,1,179.999995231629,6|0,0:0|0:0,0:0:0:0:
140,378,56619,1,0,0:0:0:0:
210,106,56739,2,0,P|262:106|305:155,1,89.9999976158143,8|0,0:0|0:0,0:0:0:0:
139,253,56979,2,0,P|101:277|57:274,1,89.9999976158143
329,49,57219,2,0,P|319:136|315:235,1,179.999995231629,2|0,0:0|0:0,0:0:0:0:
302,211,57579,1,0,0:0:0:0:
374,306,57699,2,0,P|412:239|406:207,1,89.9999976158143,8|0,0:0|0:0,0:0:0:0:
341,70,57939,2,0,P|366:106|368:150,1,89.9999976158143
155,232,58179,22,0,P|145:145|141:46,1,179.999995231629,2|0,0:0|0:0,0:0:0:0:
128,70,58539,1,0,0:0:0:0:
57,274,58659,1,8,0:0:0:0:
103,348,58779,1,0,0:0:0:0:
189,364,58899,2,0,L|288:338,1,89.9999976158143
325,124,59139,2,0,L|298:222,1,89.9999976158143,2|0,0:0|0:0,0:0:0:0:
465,350,59379,2,8,L|399:283,2,59.9999984105428,8|8|8,0:3|0:3|0:3,0:3:0:0:
503,262,59619,2,12,B|411:247|421:327|306:277,1,179.999995231629,12|0,0:0|0:0,0:0:0:0:
234,242,59979,1,0,0:0:0:0:
113,258,60099,6,0,L|101:357,1,89.9999976158143,2|0,0:0|0:0,0:0:0:0:
50,182,60339,1,0,0:0:0:0:
50,182,60459,1,0,0:0:0:0:
215,256,60579,6,0,L|201:367,1,107.999993843079,2|0,0:0|0:0,0:0:0:0:
152,180,60819,1,0,0:0:0:0:
152,180,60939,1,0,0:0:0:0:
321,250,61059,6,0,L|303:383,1,125.999992816925,2|0,0:0|0:0,0:0:0:0:
258,174,61299,1,10,0:0:0:0:
258,174,61419,1,0,0:0:0:0:
408,256,61539,1,10,0:0:0:0:
258,92,61659,1,0,0:0:0:0:
408,174,61779,1,10,0:0:0:0:
258,10,61899,1,0,0:0:0:0:
182,222,62019,22,0,B|118:231|118:231|89:258|89:258|6:273,1,179.999995231629,6|0,0:0|0:0,0:0:0:0:
32,257,62379,1,0,0:0:0:0:
258,174,62499,2,0,P|255:224|255:270,2,89.9999976158143,8|0|0,0:0|0:0|0:0,0:0:0:0:
321,57,62859,2,0,P|406:97|403:181,1,179.999995231629,2|0,0:0|0:0,0:0:0:0:
336,288,63219,2,8,L|323:208,2,59.9999984105428,8|8|8,0:3|0:3|0:3,0:3:0:0:
341,330,63459,2,0,P|270:298|145:314,1,179.999995231629,12|0,0:0|0:0,0:0:0:0:
98,345,63819,1,0,0:0:0:0:
182,216,63939,22,0,P|174:138|97:38,1,179.999995231629,2|0,0:0|0:0,0:0:0:0:
47,13,64299,1,0,0:0:0:0:
0,279,64419,6,0,B|59:284|98:257|98:257|92:273|92:273|141:225|233:234,1,233.999983089448,2|0,0:0|0:0,0:0:0:0:
270,248,64779,6,0,P|392:198|319:103,1,270.000003147125,2|0,0:0|0:0,0:0:0:0:
126,92,65139,6,0,P|80:202|195:232,1,270.000003147125,2|0,0:0|0:0,0:0:0:0:
255,154,65499,1,0,0:0:0:0:
257,83,65619,1,0,0:0:0:0:
259,12,65739,1,0,0:0:0:0:
268,181,65859,22,0,B|360:208|355:145|456:158,1,179.999995231629,2|0,0:0|0:0,0:0:0:0:
506,197,66219,1,0,0:0:0:0:
388,335,66339,2,0,P|403:287|411:239,1,89.9999976158143,8|0,0:0|0:0,0:0:0:0:
388,79,66579,1,0,0:0:0:0:
241,307,66699,2,0,P|217:262|189:222,1,89.9999976158143,0|2,0:0|0:0,0:0:0:0:
59,125,66939,1,0,0:0:0:0:
64,329,67059,2,0,P|175:355|253:310,1,179.999995231629,0|8,0:0|0:0,0:0:0:0:
323,251,67419,1,0,0:0:0:0:
323,251,67539,2,0,P|386:240|416:251,1,89.9999976158143
468,298,67779,21,10,0:0:0:0:
356,169,67899,1,0,0:0:0:0:
318,370,68019,1,2,0:0:0:0:
258,108,68139,5,0,0:0:0:0:
323,251,68259,1,10,0:0:0:0:
369,31,68379,1,0,0:0:0:0:
235,187,68499,5,2,0:0:0:0:
425,101,68619,1,0,0:0:0:0:
168,54,68739,1,10,0:0:0:0:
297,5,68859,5,0,0:0:0:0:
141,152,68979,2,0,L|150:221,1,44.9999988079071,8|0,0:0|0:0,0:0:0:0:
77,188,69219,2,0,L|71:143,1,44.9999988079071,8|0,0:0|0:0,0:0:0:0:
6,173,69459,2,0,L|15:242,1,44.9999988079071,8|0,0:0|0:0,0:0:0:0:
24,293,69699,22,0,P|83:324|192:274,1,179.999995231629,6|0,0:0|0:0,0:0:0:0:
209,216,70059,1,0,0:0:0:0:
234,75,70179,22,0,B|262:14|324:27|358:71|346:118|330:168|295:215,1,270.000003147125,12|0,0:0|0:0,0:0:0:0:
183,286,70539,1,0,0:0:0:0:
251,148,70659,1,2,0:0:0:0:
251,148,70779,1,0,0:0:0:0:
324,310,70899,2,8,P|357:296|389:294,2,59.9999984105428,8|8|8,0:3|0:3|0:3,0:3:0:0:
292,331,71139,2,0,P|200:290|244:223,1,179.999995231629,12|0,0:0|0:0,0:0:0:0:
299,208,71499,1,0,0:0:0:0:
155,151,71619,6,0,B|122:145|96:130|96:130|109:263,1,179.999995231629,6|0,0:0|0:0,0:0:0:0:
115,321,71979,1,0,0:0:0:0:
27,100,72099,2,0,P|88:57|126:61,1,89.9999976158143,8|0,0:0|0:0,0:0:0:0:
251,148,72339,2,0,P|239:105|207:74,1,89.9999976158143
0,19,72579,2,0,P|12:112|19:202,1,179.999995231629,2|0,0:0|0:0,0:0:0:0:
30,175,72939,1,0,0:0:0:0:
0,332,73059,2,0,L|100:312,1,89.9999976158143,8|0,0:0|0:0,0:0:0:0:
220,235,73299,2,0,L|120:215,1,89.9999976158143
285,362,73539,6,0,B|343:340|343:340|325:221,1,179.999995231629,2|0,0:0|0:0,0:0:0:0:
341,238,73899,1,0,0:0:0:0:
243,39,74019,1,8,0:0:0:0:
162,58,74139,1,0,0:0:0:0:
118,128,74259,2,0,P|126:175|132:222,1,89.9999976158143
206,323,74499,2,0,P|211:278|219:234,1,89.9999976158143,2|0,0:0|0:0,0:0:0:0:
334,164,74739,2,8,P|329:193|324:223,2,59.9999984105428,8|8|8,0:3|0:3|0:3,0:3:0:0:
351,87,74979,2,0,P|414:47|503:119,1,179.999995231629,12|0,0:0|0:0,0:0:0:0:
511,168,75339,1,0,0:0:0:0:
373,279,75459,6,0,P|320:297|272:276,1,89.9999976158143,2|0,0:0|0:0,0:0:0:0:
323,223,75699,1,0,0:0:0:0:
323,223,75819,1,0,0:0:0:0:
272,136,75939,54,0,P|314:172|318:238,1,107.999993843079,2|0,0:0|0:0,0:0:0:0:
221,224,76179,1,0,0:0:0:0:
221,224,76299,1,0,0:0:0:0:
114,183,76419,6,0,P|169:179|223:231,1,125.999992816925,2|0,0:0|0:0,0:0:0:0:
140,284,76659,1,10,0:0:0:0:
140,284,76779,1,0,0:0:0:0:
34,172,76899,1,10,0:0:0:0:
189,158,77019,1,0,0:0:0:0:
83,46,77139,1,10,0:0:0:0:
238,32,77259,1,0,0:0:0:0:
34,172,77379,22,0,P|24:261|21:355,1,179.999995231629,6|0,0:0|0:0,0:0:0:0:
5,334,77739,1,0,0:0:0:0:
224,281,77859,2,0,P|181:269|131:291,2,89.9999976158143,8|0|0,0:0|0:0|0:0,0:0:0:0:
286,333,78219,2,0,P|361:354|385:244,1,179.999995231629,2|0,0:0|0:0,0:0:0:0:
381,156,78579,2,8,L|395:83,2,59.9999984105428,8|8|8,0:3|0:3|0:3,0:3:0:0:
377,182,78819,2,0,B|286:166|288:223|190:190,1,179.999995231629,12|0,0:0|0:0,0:0:0:0:
136,152,79179,1,0,0:0:0:0:
52,303,79299,86,0,P|131:364|204:307,1,179.999995231629,2|0,0:0|0:0,0:0:0:0:
200,193,79659,1,0,0:0:0:0:
44,9,79779,6,0,B|67:85|67:85|47:146|47:146|86:262,1,233.999983089448,2|0,0:0|0:0,0:0:0:0:
374,240,80139,54,0,B|393:236|429:223|462:170|389:112|332:83|283:144|320:251|190:215|106:141,1,323.999981529237,2|0,0:0|0:0,0:0:0:0:
25,144,80499,70,0,B|6:148|-30:161|-63:214|10:272|67:301|116:240|79:133|209:169|293:243,1,323.999981529237,2|0,0:0|0:0,0:0:0:0:
277,264,80859,1,0,0:0:0:0:
305,332,80979,1,0,0:0:0:0:
232,322,81099,1,0,0:0:0:0:
276,137,81219,38,0,P|364:153|463:167,1,179.999995231629,2|0,0:0|0:0,0:0:0:0:
433,178,81579,1,0,0:0:0:0:
491,11,81699,2,0,P|501:57|507:117,1,89.9999976158143,8|0,0:0|0:0,0:0:0:0:
510,228,81939,1,0,0:0:0:0:
292,48,82059,2,0,P|285:94|270:153,1,89.9999976158143,0|2,0:0|0:0,0:0:0:0:
234,258,82299,1,0,0:0:0:0:
161,63,82419,2,0,P|76:40|45:143,1,179.999995231629,0|8,0:0|0:0,0:0:0:0:
140,237,82779,1,0,0:0:0:0:
140,237,82899,2,0,P|129:193|123:148,1,89.9999976158143
43,299,83139,5,10,0:0:0:0:
59,306,83259,1,0,0:0:0:0:
58,289,83379,1,2,0:0:0:0:
102,369,83499,5,0,0:0:0:0:
50,197,83619,1,10,0:0:0:0:
140,237,83739,1,0,0:0:0:0:
88,65,83859,1,2,0:0:0:0:
11,206,83979,1,0,0:0:0:0:
196,111,84099,21,10,0:0:0:0:
233,104,84219,1,0,0:0:0:0:
270,97,84339,1,2,0:0:0:0:
88,65,84459,21,0,0:0:0:0:
375,153,84579,1,10,0:0:0:0:
140,161,84699,1,0,0:0:0:0:
427,57,84819,5,2,0:0:0:0:
249,214,84939,1,0,0:0:0:0:
234,20,85059,6,0,L|247:97,1,59.9999984105428,8|0,0:0|0:0,0:0:0:0:
328,293,85219,2,0,L|337:233,1,59.9999984105428,8|0,0:0|0:0,0:0:0:0:
140,161,85379,2,0,L|221:145,1,59.9999984105428,8|0,0:0|0:0,0:0:0:0:
375,153,85539,2,0,L|294:137,1,59.9999984105428,8|0,0:0|0:0,0:0:0:0:
106,262,85699,2,0,L|187:278,1,59.9999984105428,8|0,0:0|0:0,0:0:0:0:
412,298,85859,2,0,L|331:314,1,59.9999984105428,8|0,0:0|0:0,0:0:0:0:
222,327,86019,6,0,L|231:376,1,45.0000005245209,8|0,0:0|0:0,0:0:0:0:
274,223,86179,2,0,L|265:272,1,45.0000005245209,8|0,0:0|0:0,0:0:0:0:
198,149,86339,2,0,L|207:198,1,45.0000005245209,8|0,0:0|0:0,0:0:0:0:
278,100,86499,2,0,L|269:149,1,45.0000005245209,8|0,0:0|0:0,0:0:0:0:
236,35,86659,2,0,L|245:84,1,45.0000005245209,8|0,0:0|0:0,0:0:0:0:
254,0,86819,2,0,L|245:49,1,45.0000005245209,8|0,0:0|0:0,0:0:0:0:
167,309,86979,5,0,0:0:0:0:
167,309,87459,2,0,L|164:273,1,35.9999990463257
233,241,87819,2,0,L|235:276,1,35.9999990463257
238,297,88179,1,0,0:0:0:0:
311,275,88419,1,0,0:0:0:0:
384,253,88659,1,0,0:0:0:0:
337,170,88899,21,0,0:0:0:0:
337,170,89379,2,0,L|332:219,1,35.9999990463257
264,183,89739,2,0,L|267:147,1,35.9999990463257
278,68,90339,1,0,0:0:0:0:
278,68,90459,2,0,L|242:64,1,35.9999990463257
163,52,90819,6,0,L|173:123,1,53.9999969215394
87,195,91059,1,0,0:0:0:0:
87,195,91179,1,0,0:0:0:0:
87,195,91299,2,0,L|94:141,1,53.9999969215394
151,238,91539,1,0,0:0:0:0:
151,238,91659,1,0,0:0:0:0:
151,238,91779,2,0,L|158:292,2,53.9999969215394
211,180,92139,2,0,B|277:163|259:204|349:181,1,107.999993843079
389,163,92499,2,0,L|383:239,1,53.9999969215394
454,323,92739,6,0,L|449:269,1,53.9999969215394
493,153,92979,1,0,0:0:0:0:
493,153,93099,1,0,0:0:0:0:
493,153,93219,2,0,L|488:206,1,53.9999969215394
434,93,93459,1,0,0:0:0:0:
434,93,93579,1,0,0:0:0:0:
434,93,93700,2,0,L|438:39,1,53.9999969215394
