osu file format v14

[General]
AudioFilename: audio.mp3
AudioLeadIn: 0
PreviewTime: 72014
Countdown: 1
SampleSet: Normal
StackLeniency: 0.6
Mode: 0
LetterboxInBreaks: 0
SkinPreference:Default
WidescreenStoryboard: 1

[Editor]
DistanceSpacing: 0.8
BeatDivisor: 8
GridSize: 32
TimelineZoom: 5.299997

[Metadata]
Title:Rap de Chocobo
TitleUnicode:Rap de Chocobo
Artist:Hyadain
ArtistUnicode:ヒャダイン
Creator:mrowswares
Version:Insane
Source:
Tags:apollo apo11o CHOCOBO!! チョコボ white fat black novelty parody hip hop hip-hop electronic video game japanese science final fantasy ii Kenichi Maeyamada 前山田 健一 ファイナルファンタジー VII nintendo ds remix
BeatmapID:2699675
BeatmapSetID:1125851

[Difficulty]
HPDrainRate:5
CircleSize:4
OverallDifficulty:8
ApproachRate:8
SliderMultiplier:1.6
SliderTickRate:2

[Events]
//Background and Video events
Video,0,"video.mp4"
0,0,"Rap The Chocobo.jpg",0,0
//Break Periods
2,32758,36926
2,60993,71338
2,94875,99573
2,122759,124456
2,125582,127279
2,128405,130103
2,131229,132044
//Storyboard Layer 0 (Background)
//Storyboard Layer 1 (Fail)
//Storyboard Layer 2 (Pass)
//Storyboard Layer 3 (Foreground)
//Storyboard Layer 4 (Overlay)
//Storyboard Sound Samples

[TimingPoints]
4324,352.941176470588,4,1,1,45,1,0
21265,-100,4,1,1,55,0,1
25500,-66.6666666666667,4,1,1,55,0,1
26912,-100,4,1,1,55,0,1
32206,-80,4,1,1,55,0,1
32559,-80,4,1,1,45,0,0
41206,-100,4,1,1,45,0,0
48794,-125,4,1,1,45,0,0
49500,-100,4,1,1,55,0,1
60441,-80,4,1,1,55,0,1
60794,-80,4,1,1,45,0,0
83735,-82.9875518672199,4,1,1,45,0,0
94323,-80,4,1,1,45,0,0
100323,-100,4,1,1,45,0,0
111618,-100,4,1,1,55,0,1
115853,-66.6666666666667,4,1,1,55,0,1
118676,-100,4,1,1,55,0,1
122559,-100,4,1,1,45,0,0

[Colours]
Combo1 : 255,128,192
Combo2 : 192,192,192
Combo3 : 128,128,255
Combo4 : 64,128,128

[HitObjects]
483,335,9441,5,2,0:0:0:0:
483,335,9529,1,2,0:0:0:0:
483,335,9618,1,2,0:0:0:0:
390,363,9794,6,8,B|355:382|301:371|284:334,1,120,8|0,0:0|0:0,0:0:0:0:
284,335,10147,2,0,L|290:232,1,80,2|8,0:0|0:0,0:0:0:0:
362,201,10500,5,0,0:0:0:0:
367,68,10676,1,2,0:0:0:0:
227,64,10853,1,0,0:0:0:0:
222,197,11029,1,8,0:0:0:0:
295,133,11206,1,8,0:0:0:0:
362,201,11382,6,0,B|417:217|446:192|446:192,1,80,2|0,0:0|0:0,0:0:0:0:
496,261,11735,2,0,B|524:293|505:346|505:346,1,80,8|8,0:0|0:0,0:0:0:0:
507,337,12000,1,8,0:0:0:0:
507,337,12088,1,8,0:0:0:0:
422,308,12265,1,8,0:0:0:0:
422,308,12353,1,8,0:0:0:0:
422,308,12441,2,0,L|322:306,1,80,8|10,0:0|0:0,0:0:0:0:
250,372,12794,5,4,0:0:0:0:
250,372,12971,2,0,B|150:371|153:261|153:261,1,160
155,151,13500,2,0,P|139:131|118:117,1,40,8|8,0:0|0:0,0:0:0:0:
59,81,13676,1,8,0:0:0:0:
9,195,13853,2,0,L|14:282,1,80,8|8,0:0|0:0,0:0:0:0:
21,384,14206,1,6,0:0:0:0:
160,26,14559,5,2,0:0:0:0:
247,6,14735,1,2,0:0:0:0:
322,53,14912,1,8,0:0:0:0:
341,139,15088,1,8,0:0:0:0:
293,213,15265,1,8,0:0:0:0:
206,231,15441,1,2,0:0:0:0:
131,182,15618,6,0,L|152:133,2,40,4|0|0,0:0|0:0|0:0,0:0:0:0:
30,241,15971,1,8,0:0:0:0:
90,335,16147,1,0,0:0:0:0:
90,335,16235,1,0,0:0:0:0:
90,335,16323,2,0,B|122:313|169:323|169:323,1,80
248,363,16588,1,0,0:0:0:0:
248,363,16676,2,0,B|280:385|327:375|327:375,1,80,8|0,0:0|0:0,0:0:0:0:
460,324,17029,6,0,L|509:336,2,40,2|0|0,0:0|0:0|0:0,0:0:0:0:
381,227,17382,2,0,B|346:198|306:206|306:206,1,80,8|0,0:0|0:0,0:0:0:0:
145,186,17735,2,2,B|177:164|224:174|224:174,1,80
303,214,18000,1,0,0:0:0:0:
303,214,18088,2,0,B|335:236|382:226|382:226,1,80,8|8,0:0|0:0,0:0:0:0:
498,147,18441,5,4,0:0:0:0:
458,66,18618,1,0,0:0:0:0:
375,43,18794,1,12,0:0:0:0:
303,90,18971,1,0,0:0:0:0:
379,207,19147,1,2,0:0:0:0:
379,207,19235,1,2,0:0:0:0:
332,321,19412,1,2,0:0:0:0:
332,321,19500,1,2,0:0:0:0:
249,212,19676,6,0,B|155:233|102:122|102:122,1,160,8|0,0:0|0:0,0:0:0:0:
117,38,20206,1,2,0:0:0:0:
105,41,20294,1,0,0:0:0:0:
93,44,20382,1,0,0:0:0:0:
81,47,20471,1,0,0:0:0:0:
69,50,20559,2,0,B|46:94|60:129|60:129,1,80,8|0,0:0|0:0,0:0:0:0:
108,204,20823,1,8,0:0:0:0:
108,204,20912,2,0,B|122:239|100:281|100:281,1,80,8|8,0:0|0:0,0:0:0:0:
219,153,21265,6,0,L|210:99,2,40,6|0|0,0:0|0:0|0:0,0:0:0:0:
291,335,21618,2,0,L|282:389,4,40,10|0|0|0|8,0:0|0:0|0:0|0:0|0:0,0:0:0:0:
401,129,22147,2,8,L|394:89,4,40,10|8|8|0|8,0:0|0:0|0:0|0:0|0:0,0:0:0:0:
497,366,22676,6,0,P|510:341|511:305,2,60,2|0|0,0:0|0:0|0:0,0:0:0:0:
419,319,23029,2,0,P|410:293|409:254,2,60,2|0|0,0:0|0:0|0:0,0:0:0:0:
498,222,23382,1,8,0:0:0:0:
394,89,23559,1,0,0:0:0:0:
326,258,23735,1,8,0:0:0:0:
326,258,23823,1,8,0:0:0:0:
326,258,23912,1,8,0:0:0:0:
97,148,24088,5,2,0:0:0:0:
109,148,24176,1,0,0:0:0:0:
122,148,24265,1,2,0:0:0:0:
134,148,24353,1,0,0:0:0:0:
146,148,24441,2,0,L|186:148,1,40,10|0,0:0|0:0,0:0:0:0:
257,148,24618,2,0,L|297:148,1,40
369,148,24794,5,2,0:0:0:0:
254,33,24971,1,2,0:0:0:0:
254,33,25059,1,2,0:0:0:0:
254,33,25147,2,0,B|298:19|337:43|337:43,1,80,10|0,0:0|0:0,0:0:0:0:
489,137,25500,6,0,L|494:233,1,60.0000022888184,4|0,0:0|0:0,0:0:0:0:
498,303,25676,1,0,0:0:0:0:
472,127,25853,6,0,L|477:223,1,60.0000022888184,4|0,0:0|0:0,0:0:0:0:
482,312,26029,1,0,0:0:0:0:
455,117,26206,6,0,L|460:213,1,60.0000022888184,12|0,0:0|0:0,0:0:0:0:
467,323,26382,1,0,0:0:0:0:
438,107,26559,6,0,L|443:203,1,60.0000022888184,12|0,0:0|0:0,0:0:0:0:
453,333,26735,1,0,0:0:0:0:
346,232,26912,6,0,L|298:222,2,40,4|0|0,0:0|0:0|0:0,0:0:0:0:
90,153,27265,2,0,L|146:143,4,40,8|0|0|0|8,0:0|0:0|0:0|0:0|0:0,0:0:0:0:
379,80,27794,2,0,L|331:70,4,40,8|0|8|8|8,0:0|0:0|0:0|0:0|0:0,0:0:0:0:
135,40,28323,6,0,B|124:64|124:85|124:85,1,40,2|0,0:0|0:0,0:0:0:0:
63,142,28500,2,0,B|68:167|80:184|80:184,1,40
64,267,28676,2,0,B|83:284|103:291|103:291,1,40,8|0,0:0|0:0,0:0:0:0:
135,369,28853,2,0,B|161:372|181:365|181:365,1,40
265,308,29029,2,0,B|315:294|352:315|352:315,1,80,8|8,0:0|0:0,0:0:0:0:
459,371,29382,1,8,0:0:0:0:
459,371,29471,1,8,0:0:0:0:
459,371,29559,1,8,0:0:0:0:
500,213,29735,5,2,0:0:0:0:
343,311,29912,1,2,0:0:0:0:
396,123,30088,1,2,0:0:0:0:
326,294,30265,1,2,0:0:0:0:
255,115,30441,1,2,0:0:0:0:
298,294,30618,1,2,0:0:0:0:
137,195,30794,1,2,0:0:0:0:
277,314,30971,1,2,0:0:0:0:
255,115,31147,6,0,B|276:78|320:74|320:74,1,80,8|8,0:0|0:0,0:0:0:0:
130,286,31500,2,0,B|87:286|61:250|61:250,1,80,8|8,0:0|0:0,0:0:0:0:
345,306,31853,2,0,B|366:342|348:382|348:382,1,80,8|0,0:0|0:0,0:0:0:0:
46,295,32206,6,0,L|45:91,1,200,4|4,0:0|0:0,0:0:0:0:
81,299,37676,5,8,0:0:0:0:
191,278,37853,1,8,0:0:0:0:
78,283,38029,1,8,0:0:0:0:
188,262,38206,1,8,0:0:0:0:
75,267,38382,1,8,0:0:0:0:
291,368,38735,1,2,0:0:0:0:
377,347,38912,1,8,0:0:0:0:
439,290,39088,1,0,0:0:0:0:
455,206,39265,1,8,0:0:0:0:
435,126,39441,1,2,0:0:0:0:
212,21,39794,1,8,0:0:0:0:
271,135,39971,1,8,0:0:0:0:
255,10,40147,1,4,0:0:0:0:
89,157,40500,5,8,0:0:0:0:
89,157,40588,1,8,0:0:0:0:
89,157,40676,1,8,0:0:0:0:
10,86,40853,1,0,0:0:0:0:
101,25,41029,1,4,0:0:0:0:
10,86,41206,2,0,B|32:133|44:187|30:258,1,160,2|0,0:0|0:0,0:0:0:0:
32,241,41647,1,0,0:0:0:0:
32,241,41735,1,4,0:0:0:0:
150,363,41912,2,0,B|128:316|116:262|135:187,1,160,2|0,0:0|0:0,0:0:0:0:
130,207,42353,1,0,0:0:0:0:
130,207,42441,5,2,0:0:0:0:
313,222,42618,1,2,0:0:0:0:
216,280,42795,1,2,0:0:0:0:
286,111,42971,2,8,B|336:82|389:100|389:100,1,80,2|0,0:0|0:0,0:0:0:0:
506,144,43323,5,8,0:0:0:0:
396,165,43500,1,8,0:0:0:0:
509,160,43676,1,8,0:0:0:0:
399,181,43853,1,8,0:0:0:0:
512,176,44029,1,8,0:0:0:0:
386,345,44382,1,2,0:0:0:0:
304,378,44559,1,2,0:0:0:0:
219,367,44735,1,0,0:0:0:0:
153,310,44912,1,10,0:0:0:0:
140,226,45088,1,0,0:0:0:0:
16,383,45441,1,0,0:0:0:0:
46,299,45618,1,8,0:0:0:0:
36,209,45794,1,4,0:0:0:0:
4,33,46147,5,0,0:0:0:0:
4,33,46235,1,8,0:0:0:0:
4,33,46323,1,8,0:0:0:0:
96,87,46500,1,8,0:0:0:0:
0,131,46676,1,8,0:0:0:0:
96,87,46853,2,0,L|262:75,1,160,4|0,0:0|0:0,0:0:0:0:
399,35,47382,1,8,0:0:0:0:
338,100,47559,2,0,L|351:294,1,160,4|0,0:0|0:0,0:0:0:0:
422,342,48088,1,0,0:0:0:0:
400,37,48794,6,0,P|434:28|465:31,1,64,4|4,0:0|0:0,0:0:0:0:
400,37,49147,2,0,P|366:46|335:43,1,64,4|4,0:0|0:0,0:0:0:0:
213,19,49500,6,0,L|156:6,2,40,6|0|0,0:0|0:0|0:0,0:0:0:0:
323,136,49853,2,0,L|376:127,4,40,8|0|0|0|8,0:0|0:0|0:0|0:0|0:0,0:0:0:0:
243,267,50382,2,0,L|190:258,4,40,8|0|2|0|8,0:0|0:0|0:0|0:0|0:0,0:0:0:0:
350,380,50912,6,0,L|406:384,2,53.3333333333333,4|0|0,0:0|0:0|0:0,0:0:0:0:
264,374,51265,1,2,0:0:0:0:
264,374,51353,1,0,0:0:0:0:
264,374,51441,2,0,B|279:338|256:289|256:289,1,80
205,139,51794,1,8,0:0:0:0:
97,274,51971,1,8,0:0:0:0:
97,274,52059,1,8,0:0:0:0:
97,274,52147,1,8,0:0:0:0:
116,139,52323,5,10,0:0:0:0:
129,139,52412,1,0,0:0:0:0:
141,139,52500,1,0,0:0:0:0:
153,139,52588,1,0,0:0:0:0:
165,139,52676,2,0,L|205:139,1,40,10|0,0:0|0:0,0:0:0:0:
276,139,52853,2,0,L|316:139,1,40
390,143,53029,5,2,0:0:0:0:
390,143,53118,1,2,0:0:0:0:
435,312,53294,1,2,0:0:0:0:
435,312,53382,2,0,B|419:265|438:219|438:219,1,80,10|0,0:0|0:0,0:0:0:0:
477,120,53735,5,8,0:0:0:0:
477,120,53823,1,0,0:0:0:0:
477,120,53912,1,0,0:0:0:0:
355,234,54088,1,8,0:0:0:0:
355,234,54176,1,0,0:0:0:0:
355,234,54265,1,0,0:0:0:0:
240,108,54441,5,6,0:0:0:0:
174,220,54618,1,6,0:0:0:0:
156,10,54794,1,6,0:0:0:0:
46,190,54971,1,6,0:0:0:0:
37,60,55147,6,0,L|20:11,2,40,4|0|0,0:0|0:0|0:0,0:0:0:0:
162,245,55500,2,0,L|148:282,4,40,8|0|0|0|8,0:0|0:0|0:0|0:0|0:0,0:0:0:0:
263,97,56029,2,0,L|249:59,4,40,8|0|2|0|8,0:0|0:0|0:0|0:0|0:0,0:0:0:0:
327,299,56559,5,8,0:0:0:0:
241,195,56735,1,8,0:0:0:0:
134,279,56912,1,8,0:0:0:0:
220,383,57088,1,8,0:0:0:0:
241,195,57265,1,8,0:0:0:0:
134,279,57441,2,0,L|72:274,1,40,2|0,0:0|0:0,0:0:0:0:
10,271,57618,1,8,0:0:0:0:
10,271,57706,1,8,0:0:0:0:
10,271,57794,1,8,0:0:0:0:
212,162,57971,5,2,0:0:0:0:
56,72,58147,1,2,0:0:0:0:
132,196,58324,1,2,0:0:0:0:
288,106,58500,1,2,0:0:0:0:
210,245,58677,1,2,0:0:0:0:
54,155,58853,1,2,0:0:0:0:
134,279,59029,1,2,0:0:0:0:
290,189,59205,1,2,0:0:0:0:
169,15,59382,6,0,B|116:1|79:33|79:33,1,80,8|8,0:0|0:0,0:0:0:0:
86,216,59735,2,0,B|100:268|146:284|146:284,1,80,8|8,0:0|0:0,0:0:0:0:
290,189,60088,2,0,B|328:150|319:102|319:102,1,80,8|0,0:0|0:0,0:0:0:0:
60,95,60441,6,4,L|61:301,1,200,0|0,0:0|0:0,0:0:0:0:
448,320,72088,5,6,0:0:0:0:
448,32,72441,1,10,0:0:0:0:
352,32,72618,1,0,0:0:0:0:
352,128,72794,1,2,0:0:0:0:
448,128,72971,1,0,0:0:0:0:
448,224,73147,1,8,0:0:0:0:
352,224,73323,1,0,0:0:0:0:
256,224,73500,5,4,0:0:0:0:
64,224,73853,1,12,0:0:0:0:
256,224,74206,1,6,0:0:0:0:
256,224,74735,5,0,0:0:0:0:
256,128,74912,1,2,0:0:0:0:
160,128,75088,1,0,0:0:0:0:
160,176,75176,1,0,0:0:0:0:
160,224,75265,1,8,0:0:0:0:
256,224,75441,1,0,0:0:0:0:
352,224,75618,1,6,0:0:0:0:
352,224,76147,5,0,0:0:0:0:
352,320,76323,1,2,0:0:0:0:
256,320,76500,1,0,0:0:0:0:
208,320,76588,1,0,0:0:0:0:
160,320,76676,1,8,0:0:0:0:
64,320,76853,1,0,0:0:0:0:
64,224,77029,1,6,0:0:0:0:
64,128,77206,1,0,0:0:0:0:
64,224,77382,1,0,0:0:0:0:
64,128,77559,1,0,0:0:0:0:
160,128,77735,1,6,0:0:0:0:
448,128,78088,5,8,0:0:0:0:
352,128,78265,1,0,0:0:0:0:
352,32,78441,1,0,0:0:0:0:
256,32,78618,1,0,0:0:0:0:
256,128,78794,1,8,0:0:0:0:
160,128,78971,1,0,0:0:0:0:
160,224,79147,5,2,0:0:0:0:
448,224,79500,1,10,0:0:0:0:
160,224,79853,1,2,0:0:0:0:
160,224,80382,5,0,0:0:0:0:
256,224,80559,1,0,0:0:0:0:
256,320,80735,1,0,0:0:0:0:
304,320,80823,1,0,0:0:0:0:
352,320,80912,1,8,0:0:0:0:
448,320,81088,1,0,0:0:0:0:
448,224,81265,1,2,0:0:0:0:
448,224,81794,5,0,0:0:0:0:
352,224,81971,1,2,0:0:0:0:
352,128,82147,1,0,0:0:0:0:
400,128,82235,1,0,0:0:0:0:
448,128,82323,1,10,0:0:0:0:
448,32,82500,1,0,0:0:0:0:
352,32,82676,1,0,0:0:0:0:
256,32,82853,1,0,0:0:0:0:
352,32,83029,1,0,0:0:0:0:
256,32,83206,1,0,0:0:0:0:
448,32,83382,1,4,0:0:0:0:
64,352,83735,6,0,L|64:256,1,96.4000035302736,8|0,0:0|0:0,0:0:0:0:
160,352,84088,2,0,L|160:256,1,96.4000035302736,8|0,0:0|0:0,0:0:0:0:
256,352,84441,2,0,L|256:256,1,96.4000035302736,8|0,0:0|0:0,0:0:0:0:
352,352,84794,2,0,L|352:256,1,96.4000035302736,8|0,0:0|0:0,0:0:0:0:
448,352,85147,2,0,L|448:256,1,96.4000035302736,8|0,0:0|0:0,0:0:0:0:
448,160,85500,2,0,L|128:160,1,289.200010590821,8|2,0:0|0:0,0:0:0:0:
64,160,86206,1,4,0:0:0:0:
64,32,86559,6,0,L|160:32,1,96.4000035302736,8|0,0:0|0:0,0:0:0:0:
256,128,86912,2,0,L|256:32,1,96.4000035302736,12|0,0:0|0:0,0:0:0:0:
448,32,87265,2,0,L|352:32,1,96.4000035302736,8|0,0:0|0:0,0:0:0:0:
256,128,87618,5,8,0:0:0:0:
256,224,87794,1,0,0:0:0:0:
256,272,87882,1,0,0:0:0:0:
256,320,87971,1,8,0:0:0:0:
160,320,88147,1,0,0:0:0:0:
160,224,88323,1,8,0:0:0:0:
256,224,88500,1,10,0:0:0:0:
352,224,88676,1,10,0:0:0:0:
352,320,88853,1,10,0:0:0:0:
256,320,89029,1,6,0:0:0:0:
64,32,89382,6,0,L|64:128,1,96.4000035302736,8|0,0:0|0:0,0:0:0:0:
160,32,89735,2,0,L|160:128,1,96.4000035302736,8|0,0:0|0:0,0:0:0:0:
256,32,90088,2,0,L|256:128,1,96.4000035302736,8|0,0:0|0:0,0:0:0:0:
352,32,90441,2,0,L|352:128,1,96.4000035302736,12|0,0:0|0:0,0:0:0:0:
448,32,90794,2,0,L|448:128,1,96.4000035302736,8|0,0:0|0:0,0:0:0:0:
448,224,91147,2,0,L|128:224,1,289.200010590821,8|10,0:0|0:0,0:0:0:0:
64,224,91853,5,6,0:0:0:0:
64,128,92029,1,8,0:0:0:0:
64,80,92118,1,8,0:0:0:0:
64,32,92206,1,8,0:0:0:0:
160,224,92382,1,8,0:0:0:0:
160,32,92559,1,8,0:0:0:0:
256,224,92735,1,2,0:0:0:0:
256,32,92912,1,2,0:0:0:0:
352,224,93088,1,2,0:0:0:0:
352,32,93265,5,14,0:0:0:0:
448,224,93441,1,0,0:0:0:0:
448,176,93530,1,8,0:0:0:0:
448,128,93618,1,8,0:0:0:0:
448,32,93794,1,8,0:0:0:0:
352,224,93971,1,8,0:0:0:0:
64,295,94323,6,4,L|64:96,1,200
493,40,100323,5,6,0:0:0:0:
431,102,100500,1,0,0:0:0:0:
356,51,100676,1,8,0:0:0:0:
298,118,100853,1,0,0:0:0:0:
223,68,101029,1,2,0:0:0:0:
173,140,101206,1,0,0:0:0:0:
45,19,101559,6,0,B|122:-3|204:55|204:55,1,160,2|0,0:0|0:0,0:0:0:0:
351,151,102088,1,8,0:0:0:0:
351,151,102265,2,0,B|274:129|192:187|192:187,1,160,2|8,0:0|0:0,0:0:0:0:
52,257,102794,2,0,B|96:254|127:283|127:283,1,80,8|0,0:0|0:0,0:0:0:0:
263,359,103147,5,12,0:0:0:0:
465,344,103500,1,8,0:0:0:0:
501,261,103676,1,0,0:0:0:0:
436,189,103853,1,10,0:0:0:0:
360,242,104029,1,2,0:0:0:0:
180,345,104382,5,8,0:0:0:0:
106,299,104559,2,0,B|89:263|99:213|99:213,1,80
13,190,104912,1,10,0:0:0:0:
33,105,105089,2,0,B|61:77|112:71|112:71,1,80,2|0,0:0|0:0,0:0:0:0:
168,8,105441,1,8,0:0:0:0:
255,0,105618,2,0,B|289:19|311:65|311:65,1,80,8|8,0:0|0:0,0:0:0:0:
365,147,105971,5,6,0:0:0:0:
309,259,106147,1,0,0:0:0:0:
438,248,106323,1,8,0:0:0:0:
382,361,106500,1,0,0:0:0:0:
309,259,106676,1,8,0:0:0:0:
438,248,106853,1,0,0:0:0:0:
365,147,107029,1,10,0:0:0:0:
309,259,107206,6,0,B|229:323|166:248|166:248,1,160,8|0,0:0|0:0,0:0:0:0:
112,156,107735,1,2,0:0:0:0:
112,156,107912,2,0,L|97:336,1,160,8|0,0:0|0:0,0:0:0:0:
194,377,108441,2,0,B|241:383|270:354|270:354,1,80,2|0,0:0|0:0,0:0:0:0:
380,275,108794,5,12,0:0:0:0:
459,226,108971,1,0,0:0:0:0:
512,308,109147,1,8,0:0:0:0:
428,360,109323,1,12,0:0:0:0:
381,182,109676,1,12,0:0:0:0:
335,8,110029,1,0,0:0:0:0:
285,86,110206,6,0,L|168:72,1,80,6|0,0:0|0:0,0:0:0:0:
60,167,110559,2,0,L|177:153,1,80,6|0,0:0|0:0,0:0:0:0:
277,247,110912,1,2,0:0:0:0:
160,296,111088,2,0,L|115:315,2,40,8|8|8,0:0|0:0|0:0,0:0:0:0:
96,66,111618,5,14,0:0:0:0:
96,66,111706,1,8,0:0:0:0:
96,66,111794,1,8,0:0:0:0:
160,297,111971,1,8,0:0:0:0:
160,297,112059,1,8,0:0:0:0:
160,297,112147,1,8,0:0:0:0:
160,297,112235,1,8,0:0:0:0:
160,297,112323,1,8,0:0:0:0:
329,157,112500,1,8,0:0:0:0:
329,157,112588,1,8,0:0:0:0:
329,157,112676,1,8,0:0:0:0:
329,157,112764,1,8,0:0:0:0:
329,157,112852,1,8,0:0:0:0:
400,344,113029,6,0,B|446:331|468:299|468:299,1,80,2|0,0:0|0:0,0:0:0:0:
466,301,113294,1,0,0:0:0:0:
466,301,113382,2,0,L|458:211,1,80,10|0,0:0|0:0,0:0:0:0:
487,86,113735,1,12,0:0:0:0:
375,24,113912,1,8,0:0:0:0:
375,24,114000,1,8,0:0:0:0:
375,24,114088,1,8,0:0:0:0:
377,219,114265,1,8,0:0:0:0:
296,131,114441,5,2,0:0:0:0:
284,131,114529,1,0,0:0:0:0:
272,131,114617,1,0,0:0:0:0:
260,131,114705,1,0,0:0:0:0:
248,131,114793,1,10,0:0:0:0:
236,131,114882,1,0,0:0:0:0:
224,131,114970,1,2,0:0:0:0:
212,131,115058,1,2,0:0:0:0:
200,131,115146,1,2,0:0:0:0:
96,128,115323,1,0,0:0:0:0:
96,128,115411,1,0,0:0:0:0:
96,128,115500,2,0,L|-9:128,1,80,8|0,0:0|0:0,0:0:0:0:
33,276,115853,6,0,B|65:291|104:282|104:282,1,60.0000022888184,8|0,0:0|0:0,0:0:0:0:
236,263,116029,1,8,0:0:0:0:
25,288,116206,6,0,B|57:303|96:294|96:294,1,60.0000022888184,8|0,0:0|0:0,0:0:0:0:
245,275,116382,1,8,0:0:0:0:
19,298,116559,6,0,B|51:313|90:304|90:304,1,60.0000022888184,10|0,0:0|0:0,0:0:0:0:
254,284,116735,1,2,0:0:0:0:
14,309,116912,6,0,B|46:324|85:315|85:315,1,60.0000022888184,10|0,0:0|0:0,0:0:0:0:
264,297,117088,1,2,0:0:0:0:
313,103,117265,5,8,0:0:0:0:
313,103,117353,1,8,0:0:0:0:
313,103,117441,1,8,0:0:0:0:
41,165,117618,1,8,0:0:0:0:
41,165,117706,1,8,0:0:0:0:
41,165,117794,1,8,0:0:0:0:
41,165,117882,1,8,0:0:0:0:
41,165,117971,1,8,0:0:0:0:
267,219,118147,1,8,0:0:0:0:
267,219,118235,1,8,0:0:0:0:
267,219,118323,1,8,0:0:0:0:
267,219,118412,1,8,0:0:0:0:
267,219,118500,1,8,0:0:0:0:
14,309,118676,6,0,L|62:301,1,40,8|0,0:0|0:0,0:0:0:0:
131,232,118853,1,8,0:0:0:0:
131,232,118941,1,0,0:0:0:0:
131,232,119029,2,0,L|179:240,1,40,10|0,0:0|0:0,0:0:0:0:
247,321,119206,1,8,0:0:0:0:
247,321,119294,1,0,0:0:0:0:
247,321,119382,6,0,L|295:313,1,40
396,291,119559,1,0,0:0:0:0:
512,159,119735,2,0,L|464:151,1,40,2|0,0:0|0:0,0:0:0:0:
363,129,119912,1,0,0:0:0:0:
247,321,120088,5,2,0:0:0:0:
376,212,120265,1,2,0:0:0:0:
267,83,120441,1,2,0:0:0:0:
138,192,120618,1,2,0:0:0:0:
247,321,120794,1,2,0:0:0:0:
376,212,120971,1,2,0:0:0:0:
240,344,121147,1,2,0:0:0:0:
393,220,121323,1,2,0:0:0:0:
138,192,121500,6,0,L|38:184,1,80,8|8,0:0|0:0,0:0:0:0:
321,78,121853,2,0,L|377:-4,1,80,8|8,0:0|0:0,0:0:0:0:
332,306,122206,2,0,L|375:396,1,80,8|8,0:0|0:0,0:0:0:0:
255,191,122559,1,8,0:0:0:0:
256,192,125206,5,8,0:0:0:0:
256,192,125294,1,8,0:0:0:0:
256,192,125382,1,8,0:0:0:0:
256,192,128029,5,8,0:0:0:0:
256,192,128117,1,8,0:0:0:0:
256,192,128205,1,8,0:0:0:0:
256,192,130853,5,8,0:0:0:0:
256,192,130941,1,8,0:0:0:0:
256,192,131029,1,8,0:0:0:0:
256,72,132794,5,4,0:0:0:0:
352,240,133147,5,4,0:0:0:0:
144,240,133500,5,4,0:0:0:0:
