osu file format v14

[General]
AudioFilename: audio.mp3
AudioLeadIn: 0
PreviewTime: 72014
Countdown: 1
SampleSet: Normal
StackLeniency: 0.3
Mode: 0
LetterboxInBreaks: 0
SkinPreference:Default
WidescreenStoryboard: 1

[Editor]
DistanceSpacing: 1
BeatDivisor: 4
GridSize: 32
TimelineZoom: 2.4

[Metadata]
Title:Rap de Chocobo
TitleUnicode:Rap de Chocobo
Artist:Hyadain
ArtistUnicode:ヒャダイン
Creator:mrowswares
Version:Hard
Source:
Tags:apollo apo11o CHOCOBO!! チョコボ white fat black novelty parody hip hop hip-hop electronic video game japanese science final fantasy ii Kenichi Maeyamada 前山田 健一 ファイナルファンタジー VII nintendo ds remix
BeatmapID:2701443
BeatmapSetID:1125851

[Difficulty]
HPDrainRate:4
CircleSize:4
OverallDifficulty:7
ApproachRate:8
SliderMultiplier:1.6
SliderTickRate:1

[Events]
//Background and Video events
Video,0,"video.mp4"
0,0,"Rap The Chocobo.jpg",0,0
//Break Periods
2,32406,36926
2,60641,71338
2,94523,99573
2,122759,124456
2,125582,127279
2,128405,130103
2,131229,132044
//Storyboard Layer 0 (Background)
//Storyboard Layer 1 (Fail)
//Storyboard Layer 2 (Pass)
//Storyboard Layer 3 (Foreground)
//Storyboard Layer 4 (Overlay)
//Storyboard Sound Samples

[TimingPoints]
4324,352.941176470588,4,1,1,45,1,0
21265,-100,4,1,1,55,0,1
32206,-100,4,1,1,45,0,0
49500,-100,4,1,1,55,0,1
60441,-100,4,1,1,45,0,0
72088,-83.3333333333333,4,1,1,45,0,0
100323,-100,4,1,1,45,0,0
111618,-100,4,1,1,55,0,1
122559,-100,4,1,1,45,0,0

[Colours]
Combo1 : 255,128,192
Combo2 : 192,192,192
Combo3 : 128,128,255
Combo4 : 64,128,128

[HitObjects]
418,321,9441,6,0,L|483:348,2,40,2|2|2,0:0|0:0|0:0,0:0:0:0:
392,244,9794,6,8,P|355:270|358:376,1,160,8|2,0:0|0:0,0:0:0:0:
418,321,10323,1,8,0:0:0:0:
392,244,10500,1,0,0:0:0:0:
419,169,10676,2,0,P|456:193|472:233,1,80,2|0,0:0|0:0,0:0:0:0:
392,244,11029,1,8,0:0:0:0:
329,193,11206,1,8,0:0:0:0:
357,118,11382,6,0,L|383:26,1,80,2|0,0:0|0:0,0:0:0:0:
298,47,11735,2,0,L|276:123,1,80,8|8,0:0|0:0,0:0:0:0:
196,128,12088,2,0,L|217:51,1,80,8|8,0:0|0:0,0:0:0:0:
137,55,12441,2,0,L|115:131,1,80,8|10,0:0|0:0,0:0:0:0:
70,286,12971,6,0,B|143:270|146:333|222:312,1,160
286,261,13500,1,8,0:0:0:0:
286,261,13588,1,8,0:0:0:0:
286,261,13676,2,0,L|298:174,2,80,8|8|8,0:0|0:0|0:0,0:0:0:0:
320,333,14206,5,6,0:0:0:0:
195,233,14559,2,0,P|148:210|101:207,1,80,2|2,0:0|0:0,0:0:0:0:
62,151,14912,2,0,P|109:128|156:125,1,80,8|8,0:0|0:0,0:0:0:0:
197,73,15265,2,0,P|150:50|103:47,1,80,8|2,0:0|0:0,0:0:0:0:
47,18,15618,6,0,L|227:8,1,160,4|8,0:0|0:0,0:0:0:0:
280,62,16147,1,0,0:0:0:0:
280,62,16235,1,0,0:0:0:0:
280,62,16323,2,0,L|365:57,1,80
435,82,16676,2,0,P|440:46|420:1,1,80,8|0,0:0|0:0,0:0:0:0:
359,57,17029,6,0,B|365:129|365:129|356:157|356:157|361:226,1,160,2|8,0:0|0:0,0:0:0:0:
327,293,17559,1,0,0:0:0:0:
327,293,17647,1,0,0:0:0:0:
327,293,17735,2,2,L|412:288,1,80
482,313,18088,2,0,P|487:277|467:232,1,80,8|8,0:0|0:0,0:0:0:0:
406,288,18441,6,0,L|398:380,2,80,4|0|12,0:0|0:0|0:0,0:0:0:0:
383,211,18971,1,0,0:0:0:0:
449,166,19147,1,2,0:0:0:0:
449,166,19235,2,0,P|421:139|382:130,1,80,2|2,0:0|0:0,0:0:0:0:
341,134,19500,1,2,0:0:0:0:
312,251,19676,6,0,P|246:211|177:246,1,160,8|0,0:0|0:0,0:0:0:0:
130,309,20206,1,2,0:0:0:0:
70,360,20382,1,0,0:0:0:0:
70,360,20471,1,0,0:0:0:0:
70,360,20559,2,0,P|91:310|36:217,1,160,8|8,0:0|0:0,0:0:0:0:
36,61,21265,6,0,L|22:22,2,40,6|0|0,0:0|0:0|0:0,0:0:0:0:
105,101,21618,2,0,L|91:138,4,40,10|0|0|0|8,0:0|0:0|0:0|0:0|0:0,0:0:0:0:
182,70,22147,1,10,0:0:0:0:
182,70,22235,1,8,0:0:0:0:
182,70,22323,2,0,L|168:32,2,40,8|0|8,0:0|0:0|0:0,0:0:0:0:
253,105,22676,6,0,B|249:178|249:178|262:201|262:201|258:278,1,160,2|2,0:0|0:0,0:0:0:0:
325,307,23206,1,0,0:0:0:0:
376,246,23382,2,0,P|401:284|401:331,1,80,8|0,0:0|0:0,0:0:0:0:
325,307,23735,2,0,L|272:302,2,40,8|8|8,0:0|0:0|0:0,0:0:0:0:
376,246,24088,6,0,P|394:202|348:101,1,160,2|10,0:0|0:0,0:0:0:0:
282,64,24618,1,0,0:0:0:0:
204,42,24794,2,0,P|128:59|86:125,1,160,2|10,0:0|0:0,0:0:0:0:
55,283,25500,6,0,L|66:370,1,80,4|0,0:0|0:0,0:0:0:0:
139,333,25853,2,0,L|128:253,1,80,4|0,0:0|0:0,0:0:0:0:
203,224,26206,2,0,L|214:311,1,80,12|0,0:0|0:0,0:0:0:0:
287,274,26559,2,0,L|276:194,1,80,12|0,0:0|0:0,0:0:0:0:
363,185,26912,5,4,0:0:0:0:
363,185,27000,1,0,0:0:0:0:
363,185,27088,1,0,0:0:0:0:
421,239,27265,2,0,L|461:241,4,40,8|0|0|0|8,0:0|0:0|0:0|0:0|0:0,0:0:0:0:
396,318,27794,1,8,0:0:0:0:
396,318,27882,1,0,0:0:0:0:
396,318,27970,2,0,L|356:320,2,40,8|8|8,0:0|0:0|0:0,0:0:0:0:
460,365,28323,6,0,L|445:188,1,160,2|8,0:0|0:0,0:0:0:0:
512,157,28853,1,0,0:0:0:0:
512,157,28941,1,0,0:0:0:0:
512,157,29029,1,8,0:0:0:0:
448,205,29206,1,8,0:0:0:0:
386,154,29382,2,0,L|391:108,2,40,8|8|8,0:0|0:0|0:0,0:0:0:0:
336,216,29735,6,0,P|301:192|256:188,1,80,2|2,0:0|0:0,0:0:0:0:
234,112,30088,2,0,P|200:137|182:179,1,80,2|2,0:0|0:0,0:0:0:0:
104,177,30441,2,0,P|118:216|152:246,1,80,2|2,0:0|0:0,0:0:0:0:
124,320,30794,2,0,P|166:318|205:295,1,80,2|2,0:0|0:0,0:0:0:0:
266,345,31147,2,0,P|278:304|267:260,1,80,8|8,0:0|0:0,0:0:0:0:
336,216,31500,2,0,P|301:192|256:188,1,80,8|8,0:0|0:0,0:0:0:0:
234,112,31853,2,0,P|200:137|182:179,1,80,8|0,0:0|0:0,0:0:0:0:
271,268,32206,1,4,0:0:0:0:
114,138,37676,6,0,L|23:121,2,80,8|8|8,0:0|0:0|0:0,0:0:0:0:
130,216,38206,1,8,0:0:0:0:
140,295,38382,1,8,0:0:0:0:
274,381,38735,5,2,0:0:0:0:
344,343,38912,2,0,L|421:299,1,80,8|0,0:0|0:0,0:0:0:0:
481,260,39265,1,8,0:0:0:0:
413,218,39442,2,0,L|336:173,1,80,2|0,0:0|0:0,0:0:0:0:
275,137,39794,1,8,0:0:0:0:
274,217,39971,1,8,0:0:0:0:
343,177,40147,1,4,0:0:0:0:
204,97,40500,2,0,L|154:106,2,40,8|8|8,0:0|0:0|0:0,0:0:0:0:
276,61,40853,1,0,0:0:0:0:
352,31,41029,5,4,0:0:0:0:
352,31,41206,1,2,0:0:0:0:
467,141,41559,2,0,L|517:150,2,40,0|0|4,0:0|0:0|0:0,0:0:0:0:
388,125,41912,1,2,0:0:0:0:
302,260,42265,2,0,L|252:269,2,40,0|0|2,0:0|0:0|0:0,0:0:0:0:
381,244,42618,2,0,L|475:228,2,80,2|2|2,0:0|0:0|0:0,0:0:0:0:
251,150,43323,6,0,L|267:45,2,80,8|8|8,0:0|0:0|0:0,0:0:0:0:
177,182,43853,1,8,0:0:0:0:
100,205,44029,1,8,0:0:0:0:
17,67,44382,5,2,0:0:0:0:
87,29,44559,2,0,P|136:30|167:49,1,80,2|0,0:0|0:0,0:0:0:0:
222,98,44912,1,10,0:0:0:0:
220,177,45089,2,0,P|194:218|162:236,1,80
93,259,45441,1,0,0:0:0:0:
26,218,45618,2,0,P|2:175|3:138,1,80,8|4,0:0|0:0,0:0:0:0:
127,45,46147,2,0,L|118:2,2,40,0|8|8,0:0|0:0|0:0,0:0:0:0:
197,82,46500,1,8,0:0:0:0:
274,117,46676,5,8,0:0:0:0:
274,117,46853,1,4,0:0:0:0:
390,226,47206,1,0,0:0:0:0:
322,265,47382,1,8,0:0:0:0:
322,265,47559,1,4,0:0:0:0:
181,340,47912,1,0,0:0:0:0:
252,374,48088,1,0,0:0:0:0:
10,164,48794,6,0,L|6:253,1,80,4|4,0:0|0:0,0:0:0:0:
85,227,49147,2,0,L|81:316,1,80,4|4,0:0|0:0,0:0:0:0:
167,295,49500,5,6,0:0:0:0:
167,295,49588,1,0,0:0:0:0:
167,295,49676,1,0,0:0:0:0:
236,335,49853,2,0,L|241:379,4,40,8|0|0|0|8,0:0|0:0|0:0|0:0|0:0,0:0:0:0:
304,293,50382,1,8,0:0:0:0:
304,293,50471,1,0,0:0:0:0:
304,293,50559,2,0,L|315:251,2,40,2|0|8,0:0|0:0|0:0,0:0:0:0:
361,349,50912,6,0,B|399:332|440:348|440:348|441:303|469:274,1,160,4|2,0:0|0:0,0:0:0:0:
509,207,51441,1,0,0:0:0:0:
465,139,51618,2,0,P|436:170|426:214,1,80,0|8,0:0|0:0,0:0:0:0:
509,207,51971,2,8,L|546:234,2,40
465,139,52323,6,0,P|416:87|438:6,1,160,10|10,0:0|0:0,0:0:0:0:
493,64,52853,1,0,0:0:0:0:
465,139,53029,2,0,P|391:160|333:110,1,160,2|10,0:0|0:0,0:0:0:0:
318,31,53559,1,0,0:0:0:0:
238,19,53735,6,0,L|147:17,1,80,8|0,0:0|0:0,0:0:0:0:
135,94,54088,2,0,L|214:95,1,80,8|0,0:0|0:0,0:0:0:0:
278,144,54441,1,6,0:0:0:0:
284,223,54618,1,6,0:0:0:0:
290,302,54794,1,6,0:0:0:0:
297,381,54971,1,6,0:0:0:0:
371,345,55147,5,4,0:0:0:0:
371,345,55235,1,0,0:0:0:0:
371,345,55323,1,0,0:0:0:0:
290,302,55500,2,0,L|309:259,4,40,8|0|0|0|8,0:0|0:0|0:0|0:0|0:0,0:0:0:0:
223,340,56029,1,8,0:0:0:0:
223,340,56118,1,0,0:0:0:0:
223,340,56206,2,0,L|242:383,2,40,2|0|8,0:0|0:0|0:0,0:0:0:0:
178,268,56559,6,0,P|139:251|96:253,1,80,8|8,0:0|0:0,0:0:0:0:
49,191,56912,2,0,P|88:174|131:176,1,80,8|8,0:0|0:0,0:0:0:0:
179,115,57265,2,0,P|140:98|97:100,1,80,8|2,0:0|0:0,0:0:0:0:
61,29,57618,2,0,L|15:24,2,40,8|8|8,0:0|0:0|0:0,0:0:0:0:
140,42,57971,6,0,L|223:56,1,80,2|2,0:0|0:0,0:0:0:0:
296,73,58323,2,0,L|282:156,1,80,2|2,0:0|0:0,0:0:0:0:
269,230,58676,2,0,L|186:216,1,80,2|2,0:0|0:0,0:0:0:0:
113,199,59029,2,0,L|127:116,1,80,2|2,0:0|0:0,0:0:0:0:
140,42,59382,2,0,L|223:56,1,80,8|8,0:0|0:0,0:0:0:0:
296,73,59735,2,0,L|282:156,1,80,8|8,0:0|0:0,0:0:0:0:
269,230,60088,2,0,L|186:216,1,80,8|0,0:0|0:0,0:0:0:0:
218,55,60441,1,0,0:0:0:0:
256,192,72088,6,0,L|352:192,1,95.9999970703126,6|0,0:0|0:0,0:0:0:0:
352,96,72441,2,0,L|256:96,1,95.9999970703126,10|0,0:0|0:0,0:0:0:0:
160,96,72794,2,0,L|64:96,1,95.9999970703126,2|0,0:0|0:0,0:0:0:0:
64,0,73147,2,0,L|160:0,1,95.9999970703126,8|0,0:0|0:0,0:0:0:0:
256,0,73500,5,4,0:0:0:0:
256,192,73853,1,12,0:0:0:0:
448,192,74206,1,6,0:0:0:0:
448,0,74559,1,0,0:0:0:0:
256,0,74912,5,2,0:0:0:0:
256,96,75088,2,0,L|192:96,2,47.9999985351563,0|0|8,0:0|0:0|0:0,0:0:0:0:
352,96,75441,1,0,0:0:0:0:
352,192,75618,2,0,L|352:384,1,191.999994140625,6|0,0:0|0:0,0:0:0:0:
256,384,76147,1,0,0:0:0:0:
160,384,76323,5,2,0:0:0:0:
160,288,76500,2,0,L|224:288,2,47.9999985351563,0|0|8,0:0|0:0|0:0,0:0:0:0:
64,288,76853,1,0,0:0:0:0:
64,192,77029,1,6,0:0:0:0:
160,192,77206,2,0,L|256:192,1,95.9999970703126
448,192,77735,6,0,L|352:192,1,95.9999970703126,6|0,0:0|0:0,0:0:0:0:
352,288,78088,2,0,L|448:288,1,95.9999970703126,8|0,0:0|0:0,0:0:0:0:
448,384,78441,2,0,L|352:384,1,95.9999970703126
256,384,78794,2,0,L|160:384,1,95.9999970703126,8|0,0:0|0:0,0:0:0:0:
160,288,79147,5,2,0:0:0:0:
160,96,79500,1,10,0:0:0:0:
160,288,79853,1,2,0:0:0:0:
160,96,80206,1,8,0:0:0:0:
352,96,80559,5,0,0:0:0:0:
448,96,80735,2,0,L|512:96,2,47.9999985351563,0|0|8,0:0|0:0|0:0,0:0:0:0:
352,96,81088,1,0,0:0:0:0:
352,192,81265,2,0,L|352:288,1,95.9999970703126,2|0,0:0|0:0,0:0:0:0:
256,288,81618,2,0,L|160:288,1,95.9999970703126
64,288,81971,5,2,0:0:0:0:
64,192,82147,2,0,L|0:192,2,47.9999985351563,0|0|10,0:0|0:0|0:0,0:0:0:0:
160,192,82500,1,0,0:0:0:0:
160,96,82676,1,0,0:0:0:0:
64,96,82853,1,0,0:0:0:0:
64,0,83029,1,0,0:0:0:0:
256,0,83382,6,0,L|352:0,1,95.9999970703126,4|0,0:0|0:0,0:0:0:0:
352,96,83735,2,0,L|256:96,1,95.9999970703126,8|0,0:0|0:0,0:0:0:0:
256,192,84088,2,0,L|352:192,1,95.9999970703126,8|0,0:0|0:0,0:0:0:0:
352,288,84441,2,0,L|256:288,1,95.9999970703126,8|0,0:0|0:0,0:0:0:0:
256,384,84794,5,8,0:0:0:0:
256,192,85147,1,8,0:0:0:0:
256,0,85500,1,8,0:0:0:0:
256,192,85853,1,2,0:0:0:0:
256,384,86206,6,0,L|160:384,1,95.9999970703126,4|0,0:0|0:0,0:0:0:0:
160,288,86559,2,0,L|256:288,1,95.9999970703126,8|0,0:0|0:0,0:0:0:0:
256,192,86912,2,0,L|160:192,1,95.9999970703126,12|0,0:0|0:0,0:0:0:0:
160,96,87265,2,0,L|256:96,1,95.9999970703126,8|0,0:0|0:0,0:0:0:0:
256,0,87618,5,8,0:0:0:0:
160,0,87794,2,0,L|96:0,2,47.9999985351563,0|0|8,0:0|0:0|0:0,0:0:0:0:
160,96,88147,1,0,0:0:0:0:
256,96,88323,1,8,0:0:0:0:
352,96,88500,1,10,0:0:0:0:
352,0,88676,1,10,0:0:0:0:
352,192,89029,6,0,L|352:288,1,95.9999970703126,6|0,0:0|0:0,0:0:0:0:
256,288,89382,2,0,L|256:192,1,95.9999970703126,8|0,0:0|0:0,0:0:0:0:
160,192,89735,2,0,L|160:288,1,95.9999970703126,8|0,0:0|0:0,0:0:0:0:
64,288,90088,2,0,L|64:192,1,95.9999970703126,8|0,0:0|0:0,0:0:0:0:
64,96,90441,5,12,0:0:0:0:
256,96,90794,1,8,0:0:0:0:
448,96,91147,1,8,0:0:0:0:
256,96,91500,1,10,0:0:0:0:
64,96,91853,5,6,0:0:0:0:
64,0,92029,2,0,L|0:0,2,47.9999985351563,8|8|8,0:0|0:0|0:0,0:0:0:0:
160,0,92382,1,8,0:0:0:0:
160,96,92559,1,8,0:0:0:0:
160,192,92735,1,2,0:0:0:0:
256,192,92912,2,0,L|256:64,1,95.9999970703126,2|2,0:0|0:0,0:0:0:0:
352,96,93265,5,14,0:0:0:0:
352,192,93441,2,0,L|416:192,2,47.9999985351563,0|8|8,0:0|0:0|0:0,0:0:0:0:
256,192,93794,1,8,0:0:0:0:
256,288,93971,1,8,0:0:0:0:
256,96,94323,1,4,0:0:0:0:
105,185,100323,6,0,L|95:83,2,80,6|0|8,0:0|0:0|0:0,0:0:0:0:
72,259,100853,1,0,0:0:0:0:
60,337,101029,2,0,P|93:308|148:302,1,80,2|0,0:0|0:0,0:0:0:0:
195,341,101382,1,8,0:0:0:0:
263,383,101559,6,0,L|248:213,1,160,2|0,0:0|0:0,0:0:0:0:
310,171,102088,1,8,0:0:0:0:
384,201,102265,2,0,P|375:124|307:89,1,160,2|8,0:0|0:0,0:0:0:0:
238,129,102794,2,0,L|158:141,1,80,8|0,0:0|0:0,0:0:0:0:
99,194,103147,5,12,0:0:0:0:
50,41,103500,1,8,0:0:0:0:
126,17,103676,1,0,0:0:0:0:
199,49,103853,2,2,P|249:53|283:44,1,80,10|2,0:0|0:0,0:0:0:0:
433,9,104382,1,8,0:0:0:0:
396,80,104559,2,0,P|385:127|391:167,1,80
435,223,104912,1,10,0:0:0:0:
472,294,105089,2,0,P|483:341|477:381,2,80,2|0|8,0:0|0:0|0:0,0:0:0:0:
435,223,105618,2,0,L|331:215,1,80,8|8,0:0|0:0,0:0:0:0:
307,280,105971,6,0,P|265:288|228:277,1,80,6|0,0:0|0:0,0:0:0:0:
157,312,106323,2,0,P|149:270|160:233,1,80,8|0,0:0|0:0,0:0:0:0:
125,162,106676,2,0,P|167:154|204:165,1,80,8|0,0:0|0:0,0:0:0:0:
209,84,107029,1,10,0:0:0:0:
275,130,107206,6,0,P|283:172|272:209,1,80,8|0,0:0|0:0,0:0:0:0:
307,280,107559,2,0,P|265:288|228:277,1,80,0|2,0:0|0:0,0:0:0:0:
162,234,107912,2,0,P|83:214|11:248,1,160,8|0,0:0|0:0,0:0:0:0:
0,324,108441,1,2,0:0:0:0:
150,378,108794,5,12,0:0:0:0:
229,365,108971,2,0,L|326:353,1,80,0|8,0:0|0:0,0:0:0:0:
387,346,109323,1,12,0:0:0:0:
405,187,109676,1,12,0:0:0:0:
424,28,110029,1,0,0:0:0:0:
365,82,110206,6,0,P|320:94|280:92,1,80,6|0,0:0|0:0,0:0:0:0:
241,159,110559,2,0,P|286:171|326:169,1,80,6|0,0:0|0:0,0:0:0:0:
364,236,110912,2,0,P|319:248|279:246,1,80,2|8,0:0|0:0,0:0:0:0:
237,310,111265,1,8,0:0:0:0:
117,203,111618,5,14,0:0:0:0:
117,203,111706,1,8,0:0:0:0:
117,203,111794,1,8,0:0:0:0:
174,141,111971,1,8,0:0:0:0:
174,141,112059,1,8,0:0:0:0:
174,141,112147,2,0,L|222:142,2,40,8|8|8,0:0|0:0|0:0,0:0:0:0:
103,92,112500,1,8,0:0:0:0:
103,92,112588,1,8,0:0:0:0:
103,92,112676,2,0,L|55:93,2,40,8|8|8,0:0|0:0|0:0,0:0:0:0:
149,26,113029,6,0,P|199:16|306:68,1,160,2|10,0:0|0:0,0:0:0:0:
339,125,113559,1,0,0:0:0:0:
311,199,113735,1,12,0:0:0:0:
287,275,113912,2,0,L|273:315,2,40,8|8|8,0:0|0:0|0:0,0:0:0:0:
311,199,114265,1,8,0:0:0:0:
374,247,114441,6,0,P|429:244|461:145,1,160,2|10,0:0|0:0,0:0:0:0:
422,89,114971,1,2,0:0:0:0:
353,47,115147,2,0,B|278:50|278:50|259:61|259:61|185:63,1,160,2|8,0:0|0:0,0:0:0:0:
123,28,115676,1,0,0:0:0:0:
49,61,115853,6,0,L|56:147,1,80,8|8,0:0|0:0,0:0:0:0:
133,120,116206,2,0,L|140:206,1,80,8|8,0:0|0:0,0:0:0:0:
219,193,116559,2,0,L|226:279,1,80,10|2,0:0|0:0,0:0:0:0:
303,252,116912,2,0,L|310:338,1,80,10|2,0:0|0:0,0:0:0:0:
395,320,117265,5,8,0:0:0:0:
395,320,117353,1,8,0:0:0:0:
395,320,117441,1,8,0:0:0:0:
464,269,117618,1,8,0:0:0:0:
464,269,117706,1,8,0:0:0:0:
464,269,117794,2,0,L|509:277,2,40,8|8|8,0:0|0:0|0:0,0:0:0:0:
389,222,118147,1,8,0:0:0:0:
389,222,118235,1,8,0:0:0:0:
389,222,118323,2,0,L|344:230,2,40,8|8|8,0:0|0:0|0:0,0:0:0:0:
451,171,118676,6,0,P|459:137|446:87,1,80,8|8,0:0|0:0,0:0:0:0:
379,55,119029,2,0,P|369:93|377:132,1,80,10|8,0:0|0:0,0:0:0:0:
315,183,119382,2,0,P|276:192|237:184,1,80
198,114,119735,2,0,P|236:104|275:112,1,80,2|0,0:0|0:0,0:0:0:0:
337,259,120088,6,0,L|315:183,1,80,2|2,0:0|0:0,0:0:0:0:
190,312,120441,2,0,L|257:268,1,80,2|2,0:0|0:0,0:0:0:0:
94,190,120794,2,0,L|158:239,1,80,2|2,0:0|0:0,0:0:0:0:
180,59,121147,2,0,L|154:135,1,80,2|2,0:0|0:0,0:0:0:0:
330,100,121500,2,0,L|251:99,1,80,8|8,0:0|0:0,0:0:0:0:
337,259,121853,2,0,L|315:183,1,80,8|8,0:0|0:0,0:0:0:0:
190,312,122206,2,0,L|257:268,1,80,8|8,0:0|0:0,0:0:0:0:
94,190,122559,1,8,0:0:0:0:
256,192,125206,5,8,0:0:0:0:
256,192,125294,1,8,0:0:0:0:
256,192,125382,1,8,0:0:0:0:
256,192,128029,5,8,0:0:0:0:
256,192,128117,1,8,0:0:0:0:
256,192,128205,1,8,0:0:0:0:
256,192,130853,5,8,0:0:0:0:
256,192,130941,1,8,0:0:0:0:
256,192,131029,1,8,0:0:0:0:
256,72,132794,5,4,0:0:0:0:
352,240,133147,5,4,0:0:0:0:
144,240,133500,5,4,0:0:0:0:
