osu file format v14

[General]
AudioFilename: audio.mp3
AudioLeadIn: 0
PreviewTime: 255
Countdown: 0
SampleSet: Soft
StackLeniency: 0.7
Mode: 3
LetterboxInBreaks: 0
SpecialStyle: 0
WidescreenStoryboard: 1

[Editor]
DistanceSpacing: 0.8
BeatDivisor: 4
GridSize: 8
TimelineZoom: 1.6

[Metadata]
Title:Hyadain's Jojo Yujo (TV Size)
TitleUnicode:ヒャダインのじょーじょーゆーじょー (TV Size)
Artist:Hyadain
ArtistUnicode:ヒャダイン
Creator:PokeSky
Version:Selamat Pagi
Source:日常
Tags:dudehacker Nichijou My Ordinary Life arawi keiichi japanese anime op opening Joujou Yuujou
BeatmapID:1969596
BeatmapSetID:855946

[Difficulty]
HPDrainRate:8
CircleSize:4
OverallDifficulty:8
ApproachRate:5
SliderMultiplier:1.4
SliderTickRate:1

[Events]
//Background and Video events
Video,30,"video.avi" F,0,30,1030,0,1 F,0,30,1030,0,1 F,0,30,1030,0,1 F,0,88900,89900,1,0 F,0,88900,89900,1,0 F,0,88900,89900,1,0
0,0,"578566.jpg",0,0
//Break Periods
//Storyboard Layer 0 (Background)
//Storyboard Layer 1 (Fail)
//Storyboard Layer 2 (Pass)
//Storyboard Layer 3 (Foreground)
//Storyboard Layer 4 (Overlay)
//Storyboard Sound Samples

[TimingPoints]
555,300,4,2,1,100,1,0
14955,-166.666666666667,4,2,1,100,0,0
15105,-71.4285714285714,4,2,1,100,0,0
15255,-100,4,2,1,100,0,0
17355,-166.666666666667,4,2,1,100,0,0
17505,-71.4285714285714,4,2,1,100,0,0
17655,-100,4,2,1,100,0,0
24555,-166.666666666667,4,2,1,100,0,0
24705,-71.4285714285714,4,2,1,100,0,0
24855,-100,4,2,1,100,0,0
26955,-166.666666666667,4,2,1,100,0,0
27105,-71.4285714285714,4,2,1,100,0,0
27255,-100,4,2,1,100,0,0
56955,-100,4,2,1,100,0,1
73755,-50,4,2,1,100,0,1
73830,-151.515151515152,4,2,1,100,0,1
74055,-50,4,2,1,100,0,1
74130,-151.515151515152,4,2,1,100,0,1
74355,-50,4,2,1,100,0,1
74430,-151.515151515152,4,2,1,100,0,1
74655,-100,4,2,1,100,0,0
77355,-100,4,2,1,100,0,1
81555,-66.6666666666667,4,2,1,100,0,1
81705,-200,4,2,1,100,0,1
81855,-66.6666666666667,4,2,1,100,0,1
82005,-200,4,2,1,100,0,1
82155,-100,4,2,1,100,0,1
88155,-100,4,2,1,100,0,0

[HitObjects]
64,192,555,5,8,0:0:0:0:
320,192,555,1,4,0:0:0:0:
448,192,555,1,0,0:0:0:0:
64,192,855,1,8,0:0:0:0:
192,192,855,1,4,0:0:0:0:
448,192,855,1,0,0:0:0:0:
192,192,1155,128,8,1305:0:0:0:0:
320,192,1155,128,4,1305:0:0:0:0:
64,192,1305,128,0,1455:0:0:0:0:
448,192,1305,128,0,1455:0:0:0:0:
192,192,1455,1,8,0:0:0:0:
320,192,1455,1,4,0:0:0:0:
64,192,1755,1,8,0:0:0:0:
192,192,1755,1,4,0:0:0:0:
320,192,1755,1,0,0:0:0:0:
64,192,1905,1,0,0:0:0:0:
448,192,1905,1,0,0:0:0:0:
192,192,2055,1,8,0:0:0:0:
320,192,2055,1,4,0:0:0:0:
448,192,2055,1,0,0:0:0:0:
64,192,2205,1,0,0:0:0:0:
320,192,2205,1,0,0:0:0:0:
192,192,2355,128,8,2655:0:0:0:0:
448,192,2355,128,4,2655:0:0:0:0:
64,192,2655,1,8,0:0:0:0:
320,192,2655,1,4,0:0:0:0:
64,192,2955,1,8,0:0:0:0:
192,192,2955,1,0,0:0:0:70:LR_CymbalG.wav
320,192,3105,1,2,0:0:0:0:
64,192,3255,128,0,3405:0:0:0:0:
192,192,3255,128,0,3405:0:0:0:0:
320,192,3405,1,8,0:0:0:0:
448,192,3405,1,0,0:0:0:70:LR_CymbalG.wav
192,192,3555,1,2,0:0:0:0:
320,192,3705,128,0,3855:0:0:0:0:
448,192,3705,128,0,3855:0:0:0:0:
64,192,3855,1,8,0:0:0:0:
192,192,3855,1,0,0:0:0:70:LR_CymbalG.wav
64,192,4005,1,2,0:0:0:0:
192,192,4005,1,0,0:0:0:0:
192,192,4305,1,0,0:0:0:70:LR_Chm Soft Normal.wav
192,192,4455,1,0,0:0:0:70:LR_Chm Soft Normal.wav
192,192,4605,1,0,0:0:0:70:LR_Chm Soft Normal.wav
192,192,4755,1,0,0:0:0:70:LR_Chm Soft Normal.wav
192,192,4905,1,0,0:0:0:70:LR_Chm Soft Normal.wav
192,192,5055,1,0,0:0:0:70:LR_Chm Soft Normal.wav
320,192,5055,1,0,0:0:0:0:
192,192,5205,1,0,0:0:0:70:LR_Chm Soft Normal.wav
64,192,5355,128,2,5655:0:0:0:0:
448,192,5355,128,0,5655:0:0:0:0:
192,192,5655,1,8,0:0:0:0:
320,192,5655,1,0,0:0:0:0:
320,192,5805,1,2,0:0:0:0:
192,192,5955,1,2,0:0:0:0:
192,192,6105,1,0,0:0:0:0:
64,192,6255,1,8,0:0:0:0:
320,192,6255,1,0,0:0:0:0:
448,192,6255,1,0,0:0:0:0:
192,192,6405,1,2,0:0:0:0:
64,192,6555,1,0,0:0:0:0:
320,192,6705,1,2,0:0:0:0:
64,192,6855,1,8,0:0:0:0:
192,192,6855,1,0,0:0:0:0:
448,192,6855,1,0,0:0:0:0:
320,192,7005,1,2,0:0:0:0:
192,192,7155,1,2,0:0:0:0:
64,192,7305,1,0,0:0:0:0:
192,192,7455,1,8,0:0:0:0:
320,192,7455,1,0,0:0:0:0:
448,192,7455,1,0,0:0:0:0:
64,192,7605,1,0,0:0:0:0:
192,192,7755,128,2,8055:0:0:0:0:
448,192,7755,128,0,8055:0:0:0:0:
64,192,8055,1,8,0:0:0:0:
320,192,8055,1,0,0:0:0:0:
192,192,8205,1,2,0:0:0:0:
320,192,8355,1,2,0:0:0:0:
320,192,8505,128,0,8655:0:0:0:0:
64,192,8655,1,8,0:0:0:0:
192,192,8655,1,0,0:0:0:0:
448,192,8655,1,0,0:0:0:0:
64,192,8805,1,2,0:0:0:0:
320,192,8805,128,0,8955:0:0:0:0:
64,192,9105,128,2,9255:0:0:0:0:
448,192,9105,1,0,0:0:0:0:
192,192,9255,1,8,0:0:0:0:
320,192,9255,1,0,0:0:0:0:
64,192,9405,1,2,0:0:0:0:
448,192,9405,128,0,9555:0:0:0:0:
192,192,9555,1,2,0:0:0:0:
448,192,9705,128,0,9855:0:0:0:0:
192,192,9855,128,8,10005:0:0:0:0:
320,192,9855,128,0,10005:0:0:0:0:
64,192,10005,128,0,10155:0:0:0:0:
320,192,10155,1,2,0:0:0:0:
448,192,10155,128,0,10455:0:0:0:30:LR_CymbalG.wav
64,192,10455,1,8,0:0:0:0:
192,192,10455,1,0,0:0:0:0:
320,192,10455,1,0,0:0:0:0:
192,192,10605,1,2,0:0:0:0:
64,192,10755,1,2,0:0:0:0:
448,192,10755,1,0,0:0:0:30:LR_CymbalG.wav
192,192,10905,1,2,0:0:0:0:
320,192,10905,1,0,0:0:0:0:
64,192,11055,1,8,0:0:0:0:
192,192,11055,1,0,0:0:0:0:
448,192,11055,1,0,0:0:0:0:
320,192,11205,1,2,0:0:0:0:
448,192,11205,1,0,0:0:0:0:
192,192,11355,1,0,0:0:0:0:
64,192,11505,1,2,0:0:0:0:
320,192,11505,1,0,0:0:0:0:
192,192,11655,1,8,0:0:0:0:
320,192,11655,1,0,0:0:0:0:
448,192,11655,1,0,0:0:0:0:
64,192,11805,1,2,0:0:0:0:
448,192,11805,1,0,0:0:0:0:
192,192,11955,128,2,12180:0:0:0:0:
320,192,11955,128,0,12180:0:0:0:0:
320,192,12255,128,8,12480:0:0:0:0:
448,192,12255,128,0,12480:0:0:0:0:
64,192,12555,128,0,12780:0:0:0:70:LR_Kick Bass strong fast.wav
192,192,12555,128,0,12780:0:0:0:0:
64,192,12855,1,0,0:0:0:70:LR_Clap Drum hit.wav
320,192,12855,1,0,0:0:0:0:
448,192,12855,1,0,0:0:0:0:
192,192,13155,1,0,0:0:0:70:LR_Kick Bass strong fast.wav
448,192,13155,1,0,0:0:0:0:
64,192,13305,1,0,0:0:0:70:LR_Kick Bass strong fast.wav
320,192,13305,1,0,0:0:0:0:
64,192,13455,1,0,0:0:0:70:LR_Clap Drum hit.wav
192,192,13455,1,0,0:0:0:0:
448,192,13455,1,0,0:0:0:0:
320,192,13605,1,0,0:0:0:70:LR_Kick Bass strong fast.wav
448,192,13605,1,0,0:0:0:0:
64,192,13905,1,0,0:0:0:70:bell.wav
192,192,14055,1,0,0:0:0:70:bell.wav
320,192,14205,1,0,0:0:0:70:bell.wav
448,192,14355,1,0,0:0:0:70:bell.wav
192,192,14655,1,8,0:0:0:0:
320,192,14655,1,0,0:0:0:70:LR_Chm High Long.wav
448,192,14655,1,0,0:0:0:0:
64,192,14955,128,2,15255:0:0:0:0:
192,192,14955,128,0,15255:0:0:0:0:
320,192,15255,1,8,0:0:0:0:
448,192,15255,1,0,0:0:0:0:
192,192,15405,1,2,0:0:0:0:
320,192,15555,1,2,0:0:0:0:
448,192,15555,1,0,0:0:0:0:
64,192,15705,1,2,0:0:0:0:
320,192,15705,1,0,0:0:0:0:
64,192,15855,1,8,0:0:0:0:
192,192,15855,1,0,0:0:0:0:
448,192,15855,1,0,0:0:0:0:
320,192,16005,1,2,0:0:0:0:
448,192,16005,1,0,0:0:0:0:
64,192,16155,1,0,0:0:0:0:
192,192,16305,1,2,0:0:0:0:
448,192,16305,1,0,0:0:0:0:
64,192,16455,1,8,0:0:0:0:
192,192,16455,1,0,0:0:0:0:
320,192,16455,1,0,0:0:0:0:
320,192,16605,1,2,0:0:0:0:
448,192,16605,1,0,0:0:0:0:
64,192,16755,1,2,0:0:0:0:
192,192,16905,1,0,0:0:0:0:
320,192,16905,1,0,0:0:0:0:
64,192,17055,1,8,0:0:0:0:
192,192,17055,1,0,0:0:0:0:
448,192,17055,1,0,0:0:0:0:
320,192,17205,1,0,0:0:0:0:
448,192,17205,1,0,0:0:0:0:
64,192,17355,128,2,17655:0:0:0:0:
192,192,17355,128,0,17655:0:0:0:0:
320,192,17655,1,8,0:0:0:0:
448,192,17655,1,0,0:0:0:0:
64,192,17805,1,2,0:0:0:0:
320,192,17955,1,2,0:0:0:0:
448,192,17955,1,0,0:0:0:0:
64,192,18105,1,2,0:0:0:0:
192,192,18105,1,0,0:0:0:0:
64,192,18255,1,8,0:0:0:0:
320,192,18255,1,0,0:0:0:0:
448,192,18255,1,0,0:0:0:0:
192,192,18405,1,2,0:0:0:0:
448,192,18405,1,0,0:0:0:0:
64,192,18555,1,0,0:0:0:0:
192,192,18705,1,2,0:0:0:0:
320,192,18705,1,0,0:0:0:0:
64,192,18855,1,8,0:0:0:0:
192,192,18855,1,0,0:0:0:0:
448,192,18855,1,0,0:0:0:0:
320,192,19005,1,2,0:0:0:0:
448,192,19005,1,0,0:0:0:0:
192,192,19155,1,2,0:0:0:0:
64,192,19305,1,0,0:0:0:0:
320,192,19305,1,0,0:0:0:0:
64,192,19455,1,8,0:0:0:0:
192,192,19455,1,0,0:0:0:0:
448,192,19455,1,0,0:0:0:0:
320,192,19605,1,0,0:0:0:0:
448,192,19605,1,0,0:0:0:0:
64,192,19755,128,2,20355:0:0:0:0:
192,192,19755,1,0,0:0:0:30:LR_CymbalG.wav
320,192,19755,1,0,0:0:0:0:
192,192,20055,1,8,0:0:0:0:
448,192,20055,1,0,0:0:0:0:
320,192,20355,1,2,0:0:0:0:
448,192,20355,128,0,20805:0:0:0:30:LR_CymbalG.wav
320,192,20505,1,2,0:0:0:0:
64,192,20655,1,8,0:0:0:0:
192,192,20655,1,0,0:0:0:0:
320,192,20805,1,2,0:0:0:0:
64,192,20805,128,0,21405:0:0:0:30:LR_CymbalG.wav
448,192,21105,1,2,0:0:0:0:
320,192,21255,1,8,0:0:0:0:
192,192,21255,1,0,0:0:0:0:
192,192,21405,1,2,0:0:0:0:
448,192,21405,1,0,0:0:0:0:
320,192,21555,1,2,0:0:0:0:
64,192,21705,1,0,0:0:0:0:
192,192,21705,1,0,0:0:0:0:
64,192,21855,1,8,0:0:0:0:
320,192,21855,1,0,0:0:0:0:
448,192,21855,1,0,0:0:0:0:
192,192,22005,1,0,0:0:0:0:
448,192,22005,1,0,0:0:0:0:
64,192,22155,1,2,0:0:0:0:
320,192,22155,1,0,0:0:0:0:
192,192,22305,1,0,0:0:0:0:
64,192,22455,1,8,0:0:0:0:
320,192,22455,1,0,0:0:0:0:
448,192,22455,1,0,0:0:0:0:
192,192,22605,1,2,0:0:0:0:
448,192,22605,1,0,0:0:0:0:
64,192,22755,1,2,0:0:0:0:
192,192,22905,1,2,0:0:0:0:
320,192,22905,1,0,0:0:0:0:
64,192,23055,1,8,0:0:0:0:
320,192,23055,1,0,0:0:0:0:
448,192,23055,1,0,0:0:0:0:
64,192,23205,1,2,0:0:0:0:
192,192,23205,1,0,0:0:0:0:
448,192,23505,1,0,0:0:0:70:bell2.wav
448,192,23655,1,0,0:0:0:70:bell2.wav
448,192,23805,1,0,0:0:0:70:bell2.wav
448,192,23955,1,0,0:0:0:70:bell2.wav
448,192,24105,1,0,0:0:0:70:bell2.wav
64,192,24255,1,8,0:0:0:0:
192,192,24255,1,0,0:0:0:70:bell2.wav
448,192,24255,1,0,0:0:0:0:
448,192,24405,1,0,0:0:0:70:bell2.wav
64,192,24555,128,2,24855:0:0:0:0:
192,192,24555,128,0,24855:0:0:0:0:
320,192,24855,1,8,0:0:0:0:
448,192,24855,1,0,0:0:0:0:
192,192,25005,1,2,0:0:0:0:
64,192,25155,1,2,0:0:0:0:
320,192,25155,1,0,0:0:0:0:
192,192,25305,1,2,0:0:0:0:
448,192,25305,1,0,0:0:0:0:
64,192,25455,1,8,0:0:0:0:
320,192,25455,1,0,0:0:0:0:
448,192,25455,1,0,0:0:0:0:
64,192,25605,1,2,0:0:0:0:
192,192,25605,1,0,0:0:0:0:
448,192,25755,1,0,0:0:0:0:
64,192,25905,1,2,0:0:0:0:
320,192,25905,1,0,0:0:0:0:
192,192,26055,1,8,0:0:0:0:
320,192,26055,1,0,0:0:0:0:
448,192,26055,1,0,0:0:0:0:
64,192,26205,1,2,0:0:0:0:
448,192,26205,1,0,0:0:0:0:
192,192,26355,1,2,0:0:0:0:
192,192,26505,1,0,0:0:0:0:
320,192,26505,1,0,0:0:0:0:
64,192,26655,1,8,0:0:0:0:
320,192,26655,1,0,0:0:0:0:
448,192,26655,1,0,0:0:0:0:
64,192,26805,1,0,0:0:0:0:
192,192,26805,1,0,0:0:0:0:
320,192,26955,128,2,27255:0:0:0:0:
448,192,26955,128,0,27255:0:0:0:0:
64,192,27255,1,8,0:0:0:0:
192,192,27255,1,0,0:0:0:0:
64,192,27405,1,2,0:0:0:0:
192,192,27555,1,2,0:0:0:0:
448,192,27555,1,0,0:0:0:0:
320,192,27705,1,2,0:0:0:0:
64,192,27855,1,8,0:0:0:0:
192,192,27855,1,0,0:0:0:0:
448,192,27855,1,0,0:0:0:0:
192,192,28005,1,2,0:0:0:0:
320,192,28005,1,0,0:0:0:0:
64,192,28155,1,0,0:0:0:0:
192,192,28305,1,2,0:0:0:0:
448,192,28305,1,0,0:0:0:0:
64,192,28455,1,8,0:0:0:0:
320,192,28455,1,0,0:0:0:0:
448,192,28455,1,0,0:0:0:0:
64,192,28605,1,2,0:0:0:0:
192,192,28605,1,0,0:0:0:0:
448,192,28755,1,2,0:0:0:0:
192,192,28905,1,0,0:0:0:0:
320,192,28905,1,0,0:0:0:0:
64,192,29055,1,8,0:0:0:0:
320,192,29055,1,0,0:0:0:0:
448,192,29055,1,0,0:0:0:0:
192,192,29205,1,0,0:0:0:0:
64,192,29355,1,2,0:0:0:0:
320,192,29355,1,0,0:0:0:30:LR_CymbalG.wav
448,192,29355,128,0,29955:0:0:0:0:
192,192,29655,1,8,0:0:0:0:
320,192,29655,1,0,0:0:0:0:
320,192,29955,1,2,0:0:0:0:
64,192,29955,128,0,30405:0:0:0:30:LR_CymbalG.wav
320,192,30105,1,2,0:0:0:0:
192,192,30255,1,8,0:0:0:0:
448,192,30255,1,0,0:0:0:0:
448,192,30405,128,2,31005:0:0:0:0:
320,192,30405,1,0,0:0:0:30:LR_CymbalG.wav
64,192,30705,1,2,0:0:0:0:
320,192,30855,1,8,0:0:0:0:
192,192,30855,1,0,0:0:0:0:
192,192,31005,1,2,0:0:0:0:
64,192,31005,1,0,0:0:0:0:
320,192,31155,1,2,0:0:0:0:
64,192,31305,1,0,0:0:0:0:
192,192,31305,1,0,0:0:0:0:
192,192,31455,1,8,0:0:0:0:
320,192,31455,1,0,0:0:0:0:
448,192,31455,1,0,0:0:0:0:
64,192,31605,1,0,0:0:0:0:
320,192,31605,1,0,0:0:0:0:
192,192,31755,1,2,0:0:0:0:
448,192,31755,1,0,0:0:0:0:
64,192,31905,1,0,0:0:0:0:
64,192,32055,1,8,0:0:0:0:
320,192,32055,1,0,0:0:0:0:
448,192,32055,1,0,0:0:0:0:
192,192,32205,1,2,0:0:0:0:
320,192,32355,1,2,0:0:0:0:
448,192,32355,1,0,0:0:0:0:
64,192,32505,1,0,0:0:0:0:
192,192,32505,1,0,0:0:0:0:
64,192,32655,1,8,0:0:0:0:
448,192,32655,1,0,0:0:0:0:
192,192,32805,1,2,0:0:0:0:
320,192,32805,1,4,0:0:0:0:
448,192,32955,1,0,0:0:0:0:
64,192,33030,1,0,0:0:0:0:
192,192,33105,1,2,0:0:0:0:
320,192,33105,1,4,0:0:0:0:
448,192,33180,1,0,0:0:0:0:
64,192,33255,1,0,0:0:0:70:LR_Chm High Long.wav
192,192,33330,1,0,0:0:0:0:
320,192,33405,1,2,0:0:0:0:
448,192,33405,1,4,0:0:0:0:
192,192,33480,1,0,0:0:0:0:
64,192,33555,1,2,0:0:0:0:
448,192,33630,1,0,0:0:0:0:
192,192,33705,1,4,0:0:0:0:
320,192,33705,1,0,0:0:0:0:
64,192,33780,1,0,0:0:0:0:
320,192,33855,1,8,0:0:0:0:
448,192,33855,1,0,0:0:0:0:
192,192,33930,1,0,0:0:0:0:
64,192,34005,1,0,0:0:0:0:
192,192,34155,1,2,0:0:0:0:
448,192,34155,1,0,0:0:0:0:
64,192,34305,1,0,0:0:0:0:
192,192,34305,1,0,0:0:0:0:
320,192,34455,1,2,0:0:0:0:
448,192,34455,1,0,0:0:0:0:
64,192,34605,1,0,0:0:0:0:
448,192,34605,1,0,0:0:0:0:
192,192,34755,1,2,0:0:0:0:
320,192,34755,1,0,0:0:0:0:
192,192,34905,1,0,0:0:0:0:
448,192,34905,1,0,0:0:0:0:
64,192,35055,1,2,0:0:0:0:
320,192,35055,1,0,0:0:0:0:
64,192,35205,1,0,0:0:0:0:
192,192,35205,1,0,0:0:0:0:
320,192,35355,1,2,0:0:0:0:
448,192,35355,1,0,0:0:0:0:
64,192,35505,1,0,0:0:0:0:
448,192,35505,1,0,0:0:0:0:
192,192,35655,1,2,0:0:0:0:
320,192,35655,1,0,0:0:0:0:
192,192,35805,1,0,0:0:0:0:
64,192,35805,1,0,0:0:0:0:
448,192,35955,1,2,0:0:0:0:
320,192,35955,1,0,0:0:0:0:
64,192,36105,128,0,36405:0:0:0:0:
320,192,36255,1,2,0:0:0:0:
448,192,36255,128,0,36405:0:0:0:0:
192,192,36405,128,0,36705:0:0:0:0:
320,192,36555,128,2,36705:0:0:0:0:
448,192,36555,1,0,0:0:0:0:
64,192,36705,128,0,37005:0:0:0:0:
192,192,36855,1,2,0:0:0:0:
448,192,36855,128,0,37005:0:0:0:0:
320,192,37005,128,0,37305:0:0:0:0:
192,192,37155,1,2,0:0:0:0:
448,192,37155,128,0,37305:0:0:0:0:
64,192,37305,128,0,37605:0:0:0:0:
192,192,37455,128,2,37605:0:0:0:0:
320,192,37455,1,0,0:0:0:0:
448,192,37605,128,0,37755:0:0:0:0:
64,192,37755,128,2,38055:0:0:0:0:
320,192,37755,1,0,0:0:0:0:
192,192,37905,128,0,38055:0:0:0:0:
320,192,38055,1,2,0:0:0:0:
448,192,38055,128,0,38355:0:0:0:0:
320,192,38205,128,0,38355:0:0:0:0:
64,192,38355,128,2,38505:0:0:0:0:
192,192,38355,1,0,0:0:0:0:
192,192,38505,1,0,0:0:0:0:
320,192,38505,1,0,0:0:0:0:
64,192,38655,1,2,0:0:0:0:
448,192,38655,1,0,0:0:0:0:
64,192,38805,1,0,0:0:0:0:
320,192,38805,1,0,0:0:0:0:
192,192,38955,1,2,0:0:0:0:
448,192,38955,1,0,0:0:0:0:
64,192,39105,1,0,0:0:0:70:LR_Clap Fast Low.wav
448,192,39105,1,0,0:0:0:0:
192,192,39255,1,2,0:0:0:0:
320,192,39255,1,0,0:0:0:0:
192,192,39405,1,0,0:0:0:70:LR_Clap Fast Low.wav
448,192,39405,1,0,0:0:0:0:
320,192,39555,1,2,0:0:0:0:
64,192,39555,1,0,0:0:0:0:
320,192,39705,1,0,0:0:0:70:LR_Clap Fast Low.wav
192,192,39705,1,0,0:0:0:0:
64,192,39855,1,2,0:0:0:0:
448,192,39855,1,0,0:0:0:0:
64,192,40005,1,0,0:0:0:70:LR_Clap Fast Low.wav
320,192,40005,1,0,0:0:0:0:
192,192,40080,1,0,0:0:0:0:
320,192,40155,1,2,0:0:0:0:
448,192,40155,1,0,0:0:0:0:
64,192,40305,1,0,0:0:0:70:LR_Clap Fast Low.wav
448,192,40305,1,0,0:0:0:0:
192,192,40455,1,2,0:0:0:0:
320,192,40455,1,0,0:0:0:0:
192,192,40605,1,0,0:0:0:70:LR_Clap Fast Low.wav
448,192,40605,1,0,0:0:0:0:
64,192,40755,1,2,0:0:0:0:
320,192,40755,1,0,0:0:0:0:
192,192,40905,128,0,41205:0:0:0:70:LR_Clap Fast Low.wav
64,192,40905,1,0,0:0:0:0:
320,192,41055,128,2,41205:0:0:0:0:
64,192,41205,128,0,41505:0:0:0:70:LR_Clap Fast Low.wav
448,192,41205,1,0,0:0:0:0:
448,192,41355,128,2,41505:0:0:0:0:
320,192,41505,128,0,41805:0:0:0:70:LR_Clap Fast Low.wav
192,192,41505,1,0,0:0:0:0:
192,192,41655,128,2,41805:0:0:0:0:
448,192,41805,128,0,42105:0:0:0:70:LR_Clap Fast Low.wav
64,192,41805,1,0,0:0:0:0:
320,192,41955,128,2,42105:0:0:0:0:
64,192,42105,128,0,42180:0:0:0:70:LR_Clap Fast Low.wav
192,192,42105,1,0,0:0:0:0:
448,192,42180,128,0,42255:0:0:0:0:
320,192,42255,128,2,42405:0:0:0:0:
64,192,42405,128,0,42480:0:0:0:70:LR_Clap Fast Low.wav
192,192,42405,1,0,0:0:0:0:
448,192,42480,128,0,42555:0:0:0:0:
192,192,42555,128,0,42855:0:0:0:0:
320,192,42705,128,0,42855:0:0:0:0:
64,192,42855,128,0,43155:0:0:0:0:
448,192,43155,128,0,43455:0:0:0:0:
64,192,43455,1,0,0:0:0:70:LR_Clap Long.wav
320,192,43455,1,0,0:0:0:0:
192,192,43455,1,0,0:0:0:0:
64,192,43755,1,0,0:0:0:30:LR_Drum Hit Clap Sn.wav
192,192,43755,1,0,0:0:0:40:LR_CymbalG.wav
320,192,43755,1,0,0:0:0:0:
448,192,43755,1,0,0:0:0:0:
64,192,44055,1,0,0:0:0:30:LR_Drum Hit Clap Sn.wav
320,192,44055,1,0,0:0:0:0:
448,192,44055,1,0,0:0:0:0:
192,192,44355,1,0,0:0:0:30:LR_Drum Hit Clap Sn.wav
320,192,44355,1,0,0:0:0:0:
448,192,44355,1,0,0:0:0:0:
64,192,44655,1,0,0:0:0:30:LR_Drum Hit Clap Sn.wav
320,192,44655,1,0,0:0:0:0:
448,192,44655,1,0,0:0:0:0:
64,192,44955,1,0,0:0:0:30:LR_Drum Hit Clap Sn.wav
192,192,44955,1,0,0:0:0:0:
320,192,44955,1,0,0:0:0:0:
192,192,45255,1,0,0:0:0:30:LR_Drum Hit Clap Sn.wav
320,192,45255,1,0,0:0:0:0:
448,192,45255,1,0,0:0:0:0:
64,192,45555,1,0,0:0:0:30:LR_Drum Hit Clap Sn.wav
192,192,45555,1,0,0:0:0:0:
320,192,45555,1,0,0:0:0:0:
320,192,45705,1,0,0:0:0:0:
448,192,45705,1,0,0:0:0:0:
64,192,45855,1,0,0:0:0:30:LR_Drum Hit Clap Sn.wav
192,192,45855,1,0,0:0:0:0:
448,192,45855,1,0,0:0:0:0:
192,192,46005,1,0,0:0:0:0:
320,192,46005,1,0,0:0:0:0:
64,192,46155,1,0,0:0:0:30:LR_Drum Hit Clap Sn.wav
192,192,46155,1,0,0:0:0:40:LR_CymbalG.wav
320,192,46155,1,0,0:0:0:0:
448,192,46155,1,0,0:0:0:0:
64,192,46455,1,0,0:0:0:30:LR_Drum Hit Clap Sn.wav
192,192,46455,1,0,0:0:0:0:
448,192,46455,1,0,0:0:0:0:
192,192,46755,1,0,0:0:0:30:LR_Drum Hit Clap Sn.wav
320,192,46755,1,0,0:0:0:0:
448,192,46755,1,0,0:0:0:0:
64,192,47055,1,0,0:0:0:30:LR_Drum Hit Clap Sn.wav
320,192,47055,1,0,0:0:0:0:
448,192,47055,1,0,0:0:0:0:
64,192,47355,1,0,0:0:0:30:LR_Drum Hit Clap Sn.wav
192,192,47355,1,0,0:0:0:0:
320,192,47355,1,0,0:0:0:0:
64,192,47655,1,0,0:0:0:30:LR_Drum Hit Clap Sn.wav
320,192,47655,1,0,0:0:0:0:
448,192,47655,1,0,0:0:0:0:
64,192,47955,1,0,0:0:0:30:LR_Drum Hit Clap Sn.wav
192,192,47955,1,0,0:0:0:0:
448,192,47955,1,0,0:0:0:0:
192,192,48105,1,0,0:0:0:0:
320,192,48105,1,0,0:0:0:0:
64,192,48255,1,0,0:0:0:30:LR_Drum Hit Clap Sn.wav
320,192,48255,1,0,0:0:0:0:
448,192,48255,1,0,0:0:0:0:
64,192,48405,1,0,0:0:0:0:
192,192,48405,1,0,0:0:0:0:
64,192,48555,1,0,0:0:0:30:LR_Drum Hit Clap Sn.wav
192,192,48555,1,0,0:0:0:40:LR_CymbalG.wav
320,192,48555,1,0,0:0:0:0:
448,192,48555,1,0,0:0:0:0:
192,192,48855,1,0,0:0:0:30:LR_Drum Hit Clap Sn.wav
320,192,48855,1,0,0:0:0:0:
448,192,48855,1,0,0:0:0:0:
64,192,49155,1,0,0:0:0:30:LR_Drum Hit Clap Sn.wav
192,192,49155,1,0,0:0:0:0:
448,192,49155,1,0,0:0:0:0:
192,192,49455,1,0,0:0:0:30:LR_Drum Hit Clap Sn.wav
320,192,49455,1,0,0:0:0:0:
448,192,49455,1,0,0:0:0:0:
64,192,49755,1,0,0:0:0:30:LR_Drum Hit Clap Sn.wav
192,192,49755,1,0,0:0:0:0:
320,192,49755,1,0,0:0:0:0:
64,192,49905,1,0,0:0:0:30:LR_Drum Hit Clap Sn.wav
192,192,49905,1,0,0:0:0:0:
64,192,50055,1,0,0:0:0:30:LR_Drum Hit Clap Sn.wav
192,192,50055,1,0,0:0:0:0:
64,192,50205,1,0,0:0:0:30:LR_Drum Hit Clap Sn.wav
192,192,50205,1,0,0:0:0:0:
64,192,50355,1,0,0:0:0:30:LR_Drum Hit Clap Sn.wav
192,192,50355,1,0,0:0:0:0:
64,192,50505,1,0,0:0:0:30:LR_Drum Hit Clap Sn.wav
192,192,50505,1,0,0:0:0:0:
64,192,50655,1,0,0:0:0:30:LR_Drum Hit Clap Sn.wav
192,192,50655,1,0,0:0:0:0:
64,192,50805,1,0,0:0:0:30:LR_Drum Hit Clap Sn.wav
192,192,50805,1,0,0:0:0:0:
320,192,50955,1,0,0:0:0:70:LR_Tom Drop.wav
448,192,50955,128,0,51355:0:0:0:0:
320,192,51155,128,0,51355:0:0:0:0:
192,192,51355,1,0,0:0:0:0:
64,192,51555,128,0,51955:0:0:0:70:LR_Tom Hit 2.wav
192,192,51555,1,0,0:0:0:0:
192,192,51755,128,0,51955:0:0:0:0:
320,192,51955,1,0,0:0:0:0:
192,192,52155,1,0,0:0:0:70:LR_Tom Drop.wav
448,192,52155,128,0,52555:0:0:0:0:
192,192,52355,128,0,52555:0:0:0:0:
320,192,52555,1,0,0:0:0:0:
64,192,52755,128,0,53155:0:0:0:70:LR_Tom Hit 2.wav
320,192,52755,1,0,0:0:0:0:
320,192,52955,128,0,53155:0:0:0:0:
192,192,53155,1,0,0:0:0:0:
320,192,53355,1,0,0:0:0:70:LR_Tom Drop.wav
448,192,53355,128,0,53755:0:0:0:0:
192,192,53555,1,0,0:0:0:70:LR_Tom Drop.wav
320,192,53555,128,0,53755:0:0:0:0:
64,192,53755,1,0,0:0:0:70:LR_Tom Drop.wav
192,192,53755,1,0,0:0:0:0:
64,192,53955,128,0,54355:0:0:0:70:LR_Tom Drop.wav
192,192,53955,1,0,0:0:0:0:
192,192,54155,128,0,54355:0:0:0:70:LR_Tom Drop.wav
320,192,54155,1,0,0:0:0:0:
320,192,54355,1,0,0:0:0:70:LR_Tom Drop.wav
448,192,54355,1,0,0:0:0:0:
192,192,54555,1,0,0:0:0:70:LR_Tom Drop.wav
320,192,54630,1,0,0:0:0:70:LR_Tom Drop.wav
192,192,54705,1,0,0:0:0:70:LR_Tom Drop.wav
320,192,54780,1,0,0:0:0:70:LR_Tom Drop.wav
192,192,54855,1,0,0:0:0:70:LR_Tom Drop.wav
320,192,54930,1,0,0:0:0:70:LR_Tom Drop.wav
192,192,55005,1,0,0:0:0:70:LR_Tom Drop.wav
320,192,55080,1,0,0:0:0:70:LR_Tom Drop.wav
192,192,55155,1,0,0:0:0:70:LR_Tom Drop.wav
320,192,55230,1,0,0:0:0:70:LR_Tom Drop.wav
192,192,55305,1,0,0:0:0:70:LR_Tom Drop.wav
320,192,55380,1,0,0:0:0:70:LR_Tom Drop.wav
192,192,55455,1,0,0:0:0:70:LR_Tom Drop.wav
320,192,55530,1,0,0:0:0:70:LR_Tom Drop.wav
192,192,55605,1,0,0:0:0:70:LR_Tom Drop.wav
320,192,55680,1,0,0:0:0:70:LR_Tom Drop.wav
64,192,55755,128,0,55905:0:0:0:70:bell.wav
192,192,55905,128,0,56055:0:0:0:70:bell.wav
320,192,56055,128,0,56205:0:0:0:70:bell.wav
448,192,56205,128,0,56355:0:0:0:70:bell.wav
64,192,56355,1,2,0:0:0:0:
192,192,56355,1,0,0:0:0:70:bell.wav
64,192,56505,1,2,0:0:0:0:
320,192,56505,1,0,0:0:0:70:bell.wav
192,192,56655,1,2,0:0:0:0:
448,192,56655,1,0,0:0:0:70:bell.wav
320,192,56805,1,2,0:0:0:0:
448,192,56805,1,0,0:0:0:70:bell.wav
64,192,56955,1,2,0:0:0:0:
192,192,56955,1,0,0:0:0:40:LR_CymbalG.wav
320,192,56955,1,0,0:0:0:0:
192,192,57105,1,0,0:0:0:40:LR_Clap Drum hit.wav
448,192,57105,1,0,0:0:0:0:
64,192,57255,1,2,0:0:0:0:
320,192,57255,1,0,0:0:0:0:
320,192,57405,1,0,0:0:0:40:LR_Clap Drum hit.wav
448,192,57405,1,0,0:0:0:0:
64,192,57555,1,2,0:0:0:0:
192,192,57555,1,0,0:0:0:0:
192,192,57705,1,0,0:0:0:40:LR_Clap Drum hit.wav
448,192,57705,128,0,58005:0:0:0:0:
64,192,57855,128,2,58005:0:0:0:0:
320,192,57855,1,0,0:0:0:0:
192,192,58005,128,0,58305:0:0:0:40:LR_Clap Drum hit.wav
64,192,58155,1,2,0:0:0:0:
320,192,58155,128,0,58305:0:0:0:0:
448,192,58305,128,0,58755:0:0:0:40:LR_Clap Drum hit.wav
64,192,58455,128,2,58755:0:0:0:0:
192,192,58455,1,0,0:0:0:0:
320,192,58605,128,0,58755:0:0:0:40:LR_Clap Drum hit.wav
192,192,58755,128,2,59205:0:0:0:0:
64,192,58905,1,0,0:0:0:40:LR_Clap Drum hit.wav
320,192,59055,1,2,0:0:0:0:
448,192,59055,1,0,0:0:0:0:
64,192,59205,1,0,0:0:0:40:LR_Clap Drum hit.wav
320,192,59205,1,0,0:0:0:0:
64,192,59355,1,2,0:0:0:0:
192,192,59355,1,0,0:0:0:40:LR_CymbalG.wav
448,192,59355,1,0,0:0:0:0:
320,192,59505,1,0,0:0:0:40:LR_Clap Drum hit.wav
64,192,59655,1,2,0:0:0:0:
448,192,59655,1,0,0:0:0:0:
64,192,59805,1,0,0:0:0:40:LR_Clap Drum hit.wav
192,192,59805,1,0,0:0:0:0:
320,192,59955,1,2,0:0:0:0:
448,192,59955,1,0,0:0:0:0:
64,192,60105,128,0,60405:0:0:0:40:LR_Clap Drum hit.wav
320,192,60105,1,0,0:0:0:0:
192,192,60255,128,2,60405:0:0:0:0:
448,192,60255,1,0,0:0:0:0:
320,192,60405,128,0,60705:0:0:0:40:LR_Clap Drum hit.wav
64,192,60555,1,2,0:0:0:0:
192,192,60555,128,0,60705:0:0:0:0:
448,192,60705,128,0,61005:0:0:0:40:LR_Clap Drum hit.wav
64,192,60855,128,2,61155:0:0:0:0:
192,192,60855,1,0,0:0:0:0:
320,192,61005,128,0,61155:0:0:0:40:LR_Clap Drum hit.wav
192,192,61155,128,2,61455:0:0:0:0:
448,192,61155,128,0,61455:0:0:0:0:
64,192,61455,128,2,61680:0:0:0:0:
320,192,61455,128,0,61680:0:0:0:0:
64,192,61755,1,2,0:0:0:0:
320,192,61755,1,0,0:0:0:40:LR_CymbalG.wav
448,192,61755,1,0,0:0:0:0:
64,192,61905,1,0,0:0:0:40:LR_Clap Drum hit.wav
448,192,61905,1,0,0:0:0:0:
192,192,62055,1,2,0:0:0:0:
320,192,62055,1,0,0:0:0:0:
320,192,62205,1,0,0:0:0:40:LR_Clap Drum hit.wav
448,192,62205,1,0,0:0:0:0:
64,192,62355,1,2,0:0:0:0:
192,192,62355,1,0,0:0:0:0:
448,192,62505,128,0,62805:0:0:0:40:LR_Clap Drum hit.wav
192,192,62655,1,2,0:0:0:0:
320,192,62655,128,0,62805:0:0:0:0:
64,192,62805,128,0,63105:0:0:0:40:LR_Clap Drum hit.wav
192,192,62955,128,2,63105:0:0:0:0:
320,192,62955,1,0,0:0:0:0:
448,192,63105,128,0,63405:0:0:0:40:LR_Clap Drum hit.wav
64,192,63255,128,2,63555:0:0:0:0:
192,192,63255,1,0,0:0:0:0:
320,192,63405,128,0,63555:0:0:0:40:LR_Clap Drum hit.wav
192,192,63555,128,2,64005:0:0:0:0:
448,192,63555,1,0,0:0:0:0:
64,192,63705,1,0,0:0:0:40:LR_Clap Drum hit.wav
320,192,63855,1,2,0:0:0:0:
448,192,63855,1,0,0:0:0:0:
64,192,64005,1,0,0:0:0:40:LR_Clap Drum hit.wav
320,192,64005,1,0,0:0:0:0:
192,192,64155,1,2,0:0:0:0:
320,192,64155,1,0,0:0:0:40:LR_CymbalG.wav
448,192,64155,128,0,64455:0:0:0:0:
64,192,64305,1,0,0:0:0:40:LR_Clap Drum hit.wav
64,192,64455,128,2,64755:0:0:0:0:
192,192,64455,1,0,0:0:0:0:
320,192,64605,1,0,0:0:0:40:LR_Clap Drum hit.wav
320,192,64755,128,2,65055:0:0:0:0:
448,192,64755,1,0,0:0:0:0:
192,192,64905,1,0,0:0:0:40:LR_Clap Drum hit.wav
64,192,65055,128,2,65205:0:0:0:0:
448,192,65055,128,0,65355:0:0:0:0:
192,192,65205,1,0,0:0:0:40:LR_Clap Drum hit.wav
64,192,65355,1,2,0:0:0:0:
192,192,65355,1,0,0:0:0:40:LR_CymbalG.wav
320,192,65355,1,0,0:0:0:0:
192,192,65505,1,0,0:0:0:70:LR_Chm Soft Normal.wav
448,192,65505,1,0,0:0:0:0:
64,192,65655,1,0,0:0:0:70:LR_Chm Soft Normal.wav
448,192,65655,1,0,0:0:0:0:
192,192,65805,1,0,0:0:0:70:LR_Chm Soft Normal.wav
448,192,65805,1,0,0:0:0:0:
64,192,65955,1,0,0:0:0:70:LR_Chm Soft Normal.wav
448,192,65955,1,0,0:0:0:0:
192,192,66105,1,0,0:0:0:70:LR_Chm Soft Normal.wav
448,192,66105,1,0,0:0:0:0:
64,192,66255,1,0,0:0:0:70:LR_Chm Soft Normal.wav
320,192,66255,1,0,0:0:0:0:
448,192,66255,1,0,0:0:0:0:
192,192,66405,1,0,0:0:0:70:LR_Chm Soft Normal.wav
448,192,66405,1,0,0:0:0:0:
64,192,66555,1,2,0:0:0:0:
192,192,66555,1,0,0:0:0:40:LR_CymbalG.wav
320,192,66555,1,0,0:0:0:0:
320,192,66705,1,0,0:0:0:40:LR_Clap Drum hit.wav
448,192,66705,1,0,0:0:0:0:
64,192,66855,1,2,0:0:0:0:
192,192,66855,1,0,0:0:0:0:
64,192,67005,1,0,0:0:0:40:LR_Clap Drum hit.wav
448,192,67005,1,0,0:0:0:0:
192,192,67155,1,2,0:0:0:0:
320,192,67155,1,0,0:0:0:0:
64,192,67305,128,0,67605:0:0:0:40:LR_Clap Drum hit.wav
448,192,67305,1,0,0:0:0:0:
320,192,67455,1,2,0:0:0:0:
448,192,67455,128,0,67605:0:0:0:0:
192,192,67605,128,0,67905:0:0:0:40:LR_Clap Drum hit.wav
320,192,67755,128,2,67905:0:0:0:0:
448,192,67755,1,0,0:0:0:0:
64,192,67905,128,0,68355:0:0:0:40:LR_Clap Drum hit.wav
320,192,68055,1,2,0:0:0:0:
448,192,68055,128,0,68355:0:0:0:0:
192,192,68205,128,0,68355:0:0:0:40:LR_Clap Drum hit.wav
320,192,68355,128,2,68805:0:0:0:0:
448,192,68505,1,0,0:0:0:40:LR_Clap Drum hit.wav
64,192,68655,1,2,0:0:0:0:
192,192,68655,1,0,0:0:0:0:
192,192,68805,1,0,0:0:0:40:LR_Clap Drum hit.wav
448,192,68805,1,0,0:0:0:0:
64,192,68955,1,2,0:0:0:0:
320,192,68955,1,0,0:0:0:40:LR_CymbalG.wav
448,192,68955,1,0,0:0:0:0:
64,192,69105,1,0,0:0:0:40:LR_Clap Drum hit.wav
192,192,69105,1,0,0:0:0:0:
320,192,69255,1,2,0:0:0:0:
448,192,69255,1,0,0:0:0:0:
64,192,69405,1,0,0:0:0:40:LR_Clap Drum hit.wav
320,192,69405,1,0,0:0:0:0:
192,192,69555,1,2,0:0:0:0:
448,192,69555,1,0,0:0:0:0:
64,192,69705,128,0,70155:0:0:0:40:LR_Clap Drum hit.wav
192,192,69855,128,2,70005:0:0:0:0:
448,192,69855,1,0,0:0:0:0:
320,192,70005,128,0,70155:0:0:0:40:LR_Clap Drum hit.wav
192,192,70155,128,2,70305:0:0:0:0:
448,192,70155,128,0,70305:0:0:0:0:
64,192,70305,128,0,70455:0:0:0:40:LR_Clap Drum hit.wav
320,192,70305,128,0,70455:0:0:0:0:
192,192,70455,128,2,70605:0:0:0:0:
448,192,70455,128,0,70605:0:0:0:0:
64,192,70605,128,0,70755:0:0:0:40:LR_Clap Drum hit.wav
320,192,70605,128,0,70755:0:0:0:0:
192,192,70755,128,2,71055:0:0:0:0:
448,192,70755,128,0,71055:0:0:0:0:
64,192,71055,128,2,71355:0:0:0:0:
320,192,71055,128,0,71355:0:0:0:40:LR_CymbalG.wav
192,192,71355,1,2,0:0:0:0:
448,192,71355,1,0,0:0:0:0:
64,192,71505,1,0,0:0:0:0:
320,192,71505,1,0,0:0:0:0:
192,192,71655,1,8,0:0:0:0:
320,192,71655,1,0,0:0:0:40:LR_CymbalG.wav
448,192,71655,1,0,0:0:0:0:
64,192,71805,1,0,0:0:0:0:
192,192,71805,1,0,0:0:0:0:
320,192,71955,1,2,0:0:0:0:
448,192,71955,1,0,0:0:0:0:
64,192,72105,128,0,72255:0:0:0:0:
192,192,72255,128,8,72405:0:0:0:0:
320,192,72255,1,0,0:0:0:40:LR_CymbalG.wav
448,192,72255,1,0,0:0:0:0:
448,192,72405,128,0,72555:0:0:0:0:
64,192,72555,1,2,0:0:0:0:
320,192,72555,128,0,72705:0:0:0:0:
64,192,72705,128,0,72855:0:0:0:0:
192,192,72855,1,8,0:0:0:0:
320,192,72855,1,0,0:0:0:40:LR_CymbalG.wav
448,192,72855,128,0,73005:0:0:0:0:
192,192,73005,128,0,73155:0:0:0:0:
64,192,73155,1,2,0:0:0:0:
320,192,73155,1,0,0:0:0:0:
320,192,73305,1,0,0:0:0:0:
448,192,73305,1,0,0:0:0:0:
64,192,73455,1,8,0:0:0:0:
192,192,73455,1,0,0:0:0:40:LR_CymbalG.wav
448,192,73455,1,0,0:0:0:0:
192,192,73605,1,0,0:0:0:0:
320,192,73605,1,0,0:0:0:0:
64,192,73755,1,2,0:0:0:0:
320,192,73755,1,0,0:0:0:0:
448,192,73755,1,0,0:0:0:0:
64,192,74055,1,8,0:0:0:0:
192,192,74055,1,0,0:0:0:40:LR_CymbalG.wav
448,192,74055,1,0,0:0:0:0:
64,192,74355,1,2,0:0:0:0:
320,192,74355,1,0,0:0:0:0:
448,192,74355,1,0,0:0:0:0:
64,192,74655,1,8,0:0:0:0:
320,192,74655,1,0,0:0:0:40:LR_CymbalG.wav
448,192,74655,1,0,0:0:0:0:
192,192,74730,1,0,0:0:0:0:
64,192,74805,1,0,0:0:0:0:
320,192,74880,1,0,0:0:0:0:
192,192,74955,1,0,0:0:0:40:LR_CymbalG.wav
448,192,74955,1,0,0:0:0:0:
64,192,75030,1,0,0:0:0:0:
320,192,75105,1,0,0:0:0:0:
192,192,75180,1,0,0:0:0:0:
448,192,75255,1,0,0:0:0:0:
64,192,75330,1,0,0:0:0:0:
320,192,75405,1,0,0:0:0:0:
448,192,75480,1,0,0:0:0:0:
64,192,75555,1,0,0:0:0:40:LR_CymbalG.wav
192,192,75555,1,0,0:0:0:0:
320,192,75630,1,0,0:0:0:0:
192,192,75705,1,0,0:0:0:0:
448,192,75780,1,0,0:0:0:0:
64,192,75855,1,0,0:0:0:0:
192,192,75930,1,0,0:0:0:0:
320,192,76005,1,0,0:0:0:0:
64,192,76080,1,0,0:0:0:0:
320,192,76155,1,0,0:0:0:40:LR_CymbalG.wav
448,192,76155,1,0,0:0:0:0:
192,192,76230,1,0,0:0:0:0:
448,192,76305,1,0,0:0:0:0:
320,192,76380,1,0,0:0:0:0:
64,192,76455,1,0,0:0:0:0:
192,192,76530,1,0,0:0:0:0:
320,192,76605,1,0,0:0:0:0:
192,192,76680,1,0,0:0:0:0:
64,192,76755,1,0,0:0:0:40:LR_CymbalG.wav
448,192,76755,1,0,0:0:0:0:
320,192,76830,1,0,0:0:0:0:
192,192,76905,1,0,0:0:0:0:
64,192,76980,1,0,0:0:0:0:
320,192,77055,1,0,0:0:0:40:LR_CymbalG.wav
448,192,77055,1,0,0:0:0:0:
192,192,77130,1,0,0:0:0:0:
64,192,77205,1,0,0:0:0:0:
320,192,77280,1,0,0:0:0:0:
64,192,77355,1,8,0:0:0:0:
192,192,77355,1,4,0:0:0:0:
448,192,77355,1,0,0:0:0:0:
64,192,77655,1,8,0:0:0:0:
192,192,77655,1,4,0:0:0:0:
320,192,77655,1,0,0:0:0:0:
64,192,77955,128,8,78105:0:0:0:0:
448,192,77955,128,4,78105:0:0:0:0:
192,192,78105,128,0,78255:0:0:0:0:
320,192,78105,128,0,78255:0:0:0:0:
64,192,78255,1,8,0:0:0:0:
448,192,78255,1,4,0:0:0:0:
64,192,78555,1,8,0:0:0:0:
320,192,78555,1,4,0:0:0:0:
448,192,78555,1,0,0:0:0:0:
192,192,78705,1,0,0:0:0:0:
320,192,78705,1,0,0:0:0:0:
64,192,78855,1,8,0:0:0:0:
192,192,78855,1,4,0:0:0:0:
448,192,78855,1,0,0:0:0:0:
320,192,79005,1,0,0:0:0:0:
448,192,79005,1,0,0:0:0:0:
64,192,79155,128,8,79455:0:0:0:0:
192,192,79155,128,4,79455:0:0:0:0:
320,192,79455,1,8,0:0:0:0:
448,192,79455,1,4,0:0:0:0:
64,192,79755,1,8,0:0:0:0:
320,192,79755,1,4,0:0:0:0:
448,192,79755,1,0,0:0:0:0:
192,192,79905,1,0,0:0:0:0:
448,192,79905,1,0,0:0:0:0:
64,192,80055,1,4,0:0:0:0:
192,192,80055,1,8,0:0:0:0:
320,192,80055,1,0,0:0:0:0:
64,192,80205,1,0,0:0:0:0:
448,192,80205,1,0,0:0:0:0:
192,192,80355,1,4,0:0:0:0:
320,192,80355,1,8,0:0:0:0:
448,192,80355,1,0,0:0:0:0:
64,192,80505,1,0,0:0:0:0:
320,192,80505,1,0,0:0:0:0:
64,192,80655,1,4,0:0:0:0:
192,192,80655,1,8,0:0:0:0:
448,192,80655,1,0,0:0:0:0:
192,192,80805,1,0,0:0:0:0:
320,192,80805,1,0,0:0:0:0:
64,192,80955,1,4,0:0:0:0:
320,192,80955,1,8,0:0:0:0:
448,192,80955,1,0,0:0:0:0:
192,192,81105,1,0,0:0:0:0:
448,192,81105,1,0,0:0:0:0:
64,192,81255,1,4,0:0:0:0:
192,192,81255,1,8,0:0:0:0:
320,192,81255,1,0,0:0:0:0:
320,192,81405,1,0,0:0:0:0:
448,192,81405,1,0,0:0:0:0:
64,192,81555,128,0,81705:0:0:0:0:
192,192,81555,128,0,81705:0:0:0:0:
320,192,81555,128,0,81705:0:0:0:0:
192,192,81855,128,0,82005:0:0:0:0:
320,192,81855,128,0,82005:0:0:0:0:
448,192,81855,128,0,82005:0:0:0:0:
64,192,82155,1,8,0:0:0:0:
192,192,82155,1,4,0:0:0:0:
448,192,82155,1,0,0:0:0:0:
64,192,82455,1,8,0:0:0:0:
320,192,82455,1,4,0:0:0:0:
448,192,82455,1,0,0:0:0:0:
64,192,82755,128,8,82905:0:0:0:0:
320,192,82755,128,4,82905:0:0:0:0:
192,192,82905,128,0,83055:0:0:0:0:
448,192,82905,128,0,83055:0:0:0:0:
64,192,83055,1,8,0:0:0:0:
320,192,83055,1,4,0:0:0:0:
64,192,83355,1,8,0:0:0:0:
320,192,83355,1,4,0:0:0:0:
448,192,83355,1,0,0:0:0:0:
192,192,83505,1,0,0:0:0:0:
320,192,83505,1,0,0:0:0:0:
64,192,83655,1,8,0:0:0:0:
192,192,83655,1,4,0:0:0:0:
448,192,83655,1,0,0:0:0:0:
320,192,83805,1,0,0:0:0:0:
448,192,83805,1,0,0:0:0:0:
64,192,83955,128,8,84255:0:0:0:0:
192,192,83955,128,4,84255:0:0:0:0:
320,192,84255,1,8,0:0:0:0:
448,192,84255,1,4,0:0:0:0:
64,192,84555,1,2,0:0:0:0:
320,192,84555,1,0,0:0:0:70:LR_CymbalG.wav
192,192,84705,1,2,0:0:0:0:
64,192,84855,128,2,85005:0:0:0:0:
320,192,84855,128,0,85005:0:0:0:0:
192,192,85005,1,2,0:0:0:0:
448,192,85005,1,0,0:0:0:70:LR_CymbalG.wav
320,192,85155,1,2,0:0:0:0:
192,192,85305,128,2,85455:0:0:0:0:
448,192,85305,128,0,85455:0:0:0:0:
64,192,85455,1,2,0:0:0:0:
320,192,85455,1,0,0:0:0:70:LR_CymbalG.wav
64,192,85605,1,0,0:0:0:0:
320,192,85605,1,0,0:0:0:0:
64,192,85905,1,2,0:0:0:0:
192,192,85905,1,0,0:0:0:0:
320,192,86055,1,2,0:0:0:0:
448,192,86055,1,0,0:0:0:0:
64,192,86205,1,2,0:0:0:0:
192,192,86205,1,0,0:0:0:0:
64,192,86355,1,2,0:0:0:0:
320,192,86355,1,0,0:0:0:40:LR_CymbalG.wav
320,192,86505,1,2,0:0:0:0:
448,192,86505,1,0,0:0:0:0:
64,192,86655,1,2,0:0:0:0:
192,192,86655,1,0,0:0:0:0:
64,192,86805,128,2,87930:0:0:0:0:
192,192,86805,128,0,88005:0:0:0:70:LR_CymbalG.wav
320,192,86805,128,0,88080:0:0:0:0:
448,192,86805,128,0,88155:0:0:0:0:
