osu file format v14

[General]
AudioFilename: audio.mp3
AudioLeadIn: 0
PreviewTime: 255
Countdown: 0
SampleSet: Soft
StackLeniency: 0.7
Mode: 3
LetterboxInBreaks: 0
SpecialStyle: 0
WidescreenStoryboard: 1

[Editor]
Bookmarks: 200,5000,12200,14600,24200,33800
DistanceSpacing: 0.8
BeatDivisor: 4
GridSize: 8
TimelineZoom: 1.2

[Metadata]
Title:Hyadain's Jojo Yujo (TV Size)
TitleUnicode:ヒャダインのじょーじょーゆーじょー (TV Size)
Artist:Hyadain
ArtistUnicode:ヒャダイン
Creator:PokeSky
Version:DH's Easy
Source:日常
Tags:dudehacker Nichijou My Ordinary Life arawi keiichi japanese anime op opening Joujou Yuujou
BeatmapID:1850398
BeatmapSetID:855946

[Difficulty]
HPDrainRate:7
CircleSize:4
OverallDifficulty:7
ApproachRate:5
SliderMultiplier:1.4
SliderTickRate:1

[Events]
//Background and Video events
Video,30,"video.avi" F,0,30,1030,0,1 F,0,30,1030,0,1 F,0,30,1030,0,1 F,0,88900,89900,1,0 F,0,88900,89900,1,0 F,0,88900,89900,1,0
0,0,"37798_nichijou.jpg",0,0
//Break Periods
//Storyboard Layer 0 (Background)
//Storyboard Layer 1 (Fail)
//Storyboard Layer 2 (Pass)
//Storyboard Layer 3 (Foreground)
//Storyboard Layer 4 (Overlay)
//Storyboard Sound Samples
Sample,2955,0,"LR_CymbalG.wav",70
Sample,3405,0,"LR_CymbalG.wav",70
Sample,3855,0,"LR_CymbalG.wav",70
Sample,10155,0,"LR_CymbalG.wav",30
Sample,10755,0,"LR_CymbalG.wav",30
Sample,19755,0,"LR_CymbalG.wav",30
Sample,20355,0,"LR_CymbalG.wav",30
Sample,20805,0,"LR_CymbalG.wav",30
Sample,24255,0,"bell2.wav",70
Sample,29355,0,"LR_CymbalG.wav",30
Sample,29955,0,"LR_CymbalG.wav",30
Sample,30405,0,"LR_CymbalG.wav",30
Sample,56355,0,"bell.wav",70
Sample,56505,0,"bell.wav",70
Sample,56655,0,"bell.wav",70
Sample,56805,0,"bell.wav",70
Sample,56955,0,"LR_CymbalG.wav",40
Sample,59355,0,"LR_CymbalG.wav",40
Sample,61755,0,"LR_CymbalG.wav",40
Sample,64155,0,"LR_CymbalG.wav",40
Sample,65355,0,"LR_CymbalG.wav",40
Sample,66555,0,"LR_CymbalG.wav",40
Sample,68955,0,"LR_CymbalG.wav",40
Sample,71055,0,"LR_CymbalG.wav",40
Sample,71655,0,"LR_CymbalG.wav",40
Sample,72255,0,"LR_CymbalG.wav",40
Sample,72855,0,"LR_CymbalG.wav",40
Sample,73455,0,"LR_CymbalG.wav",40
Sample,74055,0,"LR_CymbalG.wav",40
Sample,74655,0,"LR_CymbalG.wav",40
Sample,84555,0,"LR_CymbalG.wav",70
Sample,85005,0,"LR_CymbalG.wav",70
Sample,85455,0,"LR_CymbalG.wav",70
Sample,86355,0,"LR_CymbalG.wav",40
Sample,86805,0,"LR_CymbalG.wav",70

[TimingPoints]
555,300,4,2,1,100,1,0
56955,-100,4,2,1,100,0,1
74655,-100,4,2,1,100,0,0
77355,-100,4,2,1,100,0,1
88155,-100,4,2,1,100,0,0

[HitObjects]
320,192,555,5,12,0:0:0:0:
64,192,855,1,12,0:0:0:0:
320,192,1155,1,12,0:0:0:0:
64,192,1455,1,12,0:0:0:0:
192,192,1755,1,12,0:0:0:0:
448,192,1905,1,0,0:0:0:0:
192,192,2055,1,12,0:0:0:0:
448,192,2205,1,0,0:0:0:0:
320,192,2355,1,12,0:0:0:0:
64,192,2655,1,12,0:0:0:0:
448,192,2955,128,8,3405:0:0:0:0:
192,192,3405,128,8,3855:0:0:0:0:
320,192,3855,128,8,4305:0:0:0:0:
64,192,4305,128,0,5355:0:0:0:70:LR_Chm Soft Normal.wav
448,192,5355,128,2,5655:0:0:0:0:
320,192,5955,1,2,0:0:0:0:
192,192,6105,1,0,0:0:0:0:
64,192,6405,1,2,0:0:0:0:
448,192,6705,1,2,0:0:0:0:
448,192,7005,1,2,0:0:0:0:
320,192,7305,1,0,0:0:0:0:
192,192,7455,1,8,0:0:0:0:
64,192,7605,1,0,0:0:0:0:
448,192,7755,128,2,8055:0:0:0:0:
320,192,8355,1,2,0:0:0:0:
192,192,8505,1,0,0:0:0:0:
64,192,8805,128,2,9105:0:0:0:0:
448,192,9105,128,2,9405:0:0:0:0:
192,192,9405,128,2,9705:0:0:0:0:
64,192,9705,1,0,0:0:0:0:
320,192,9855,1,8,0:0:0:0:
192,192,10005,1,0,0:0:0:0:
448,192,10155,128,2,10455:0:0:0:0:
64,192,10755,128,2,11055:0:0:0:0:
320,192,11205,1,2,0:0:0:0:
192,192,11505,1,2,0:0:0:0:
448,192,11805,1,2,0:0:0:0:
320,192,11955,1,2,0:0:0:0:
64,192,12255,1,8,0:0:0:0:
192,192,12555,1,0,0:0:0:70:LR_Kick Bass strong fast.wav
448,192,12855,1,0,0:0:0:70:LR_Clap Drum hit.wav
192,192,13155,1,0,0:0:0:70:LR_Kick Bass strong fast.wav
192,192,13305,1,0,0:0:0:70:LR_Kick Bass strong fast.wav
448,192,13455,1,0,0:0:0:70:LR_Clap Drum hit.wav
320,192,13605,1,0,0:0:0:70:LR_Kick Bass strong fast.wav
64,192,13905,1,0,0:0:0:70:bell.wav
192,192,14055,1,0,0:0:0:70:bell.wav
320,192,14205,1,0,0:0:0:70:bell.wav
448,192,14355,1,0,0:0:0:70:bell.wav
64,192,14655,1,8,0:0:0:0:
192,192,14655,1,0,0:0:0:70:LR_Chm High Long.wav
448,192,14955,128,2,15255:0:0:0:0:
192,192,15255,1,8,0:0:0:0:
320,192,15555,1,2,0:0:0:0:
64,192,15855,1,8,0:0:0:0:
448,192,16155,1,0,0:0:0:0:
64,192,16455,1,8,0:0:0:0:
320,192,16755,1,2,0:0:0:0:
192,192,17055,1,8,0:0:0:0:
64,192,17355,128,2,17655:0:0:0:0:
448,192,17655,1,8,0:0:0:0:
192,192,17955,1,2,0:0:0:0:
320,192,18255,1,8,0:0:0:0:
64,192,18555,1,0,0:0:0:0:
448,192,18855,1,8,0:0:0:0:
320,192,19155,1,2,0:0:0:0:
192,192,19455,1,8,0:0:0:0:
64,192,19755,128,2,20355:0:0:0:0:
320,192,20355,128,2,20805:0:0:0:0:
192,192,20805,128,2,21405:0:0:0:0:
448,192,21405,1,2,0:0:0:0:
64,192,21705,1,0,0:0:0:0:
448,192,21855,1,8,0:0:0:0:
192,192,22005,1,0,0:0:0:0:
320,192,22155,1,2,0:0:0:0:
64,192,22455,1,8,0:0:0:0:
448,192,22605,1,2,0:0:0:0:
192,192,22905,1,2,0:0:0:0:
64,192,23055,1,8,0:0:0:0:
320,192,23205,1,2,0:0:0:0:
64,192,23505,128,0,24555:0:0:0:70:bell2.wav
320,192,24255,1,8,0:0:0:0:
448,192,24555,128,2,24855:0:0:0:0:
192,192,24855,1,8,0:0:0:0:
320,192,25155,1,2,0:0:0:0:
64,192,25455,1,8,0:0:0:0:
448,192,25755,1,0,0:0:0:0:
192,192,26055,1,8,0:0:0:0:
64,192,26355,1,2,0:0:0:0:
448,192,26655,1,8,0:0:0:0:
320,192,26955,128,2,27255:0:0:0:0:
64,192,27255,1,8,0:0:0:0:
448,192,27555,1,2,0:0:0:0:
192,192,27855,1,8,0:0:0:0:
320,192,28155,1,0,0:0:0:0:
64,192,28455,1,8,0:0:0:0:
448,192,28755,1,2,0:0:0:0:
192,192,29055,1,8,0:0:0:0:
448,192,29355,128,2,29955:0:0:0:0:
192,192,29955,128,2,30405:0:0:0:0:
64,192,30405,128,2,31005:0:0:0:0:
320,192,31005,1,2,0:0:0:0:
192,192,31305,1,0,0:0:0:0:
320,192,31455,1,8,0:0:0:0:
448,192,31605,1,0,0:0:0:0:
64,192,31755,1,2,0:0:0:0:
64,192,32055,1,8,0:0:0:0:
192,192,32355,1,2,0:0:0:0:
448,192,32505,1,0,0:0:0:0:
64,192,32655,1,8,0:0:0:0:
320,192,32805,1,6,0:0:0:0:
192,192,33105,1,6,0:0:0:0:
192,192,33405,1,6,0:0:0:0:
320,192,33555,1,2,0:0:0:0:
448,192,33855,1,8,0:0:0:0:
64,192,34155,1,2,0:0:0:0:
320,192,34455,1,2,0:0:0:0:
192,192,34755,1,2,0:0:0:0:
448,192,35055,1,2,0:0:0:0:
64,192,35355,1,2,0:0:0:0:
320,192,35655,1,2,0:0:0:0:
192,192,35955,1,2,0:0:0:0:
448,192,36255,1,2,0:0:0:0:
64,192,36555,1,2,0:0:0:0:
320,192,36855,1,2,0:0:0:0:
192,192,37155,1,2,0:0:0:0:
448,192,37455,1,2,0:0:0:0:
64,192,37755,1,2,0:0:0:0:
320,192,38055,1,2,0:0:0:0:
192,192,38355,1,2,0:0:0:0:
448,192,38655,1,2,0:0:0:0:
64,192,38955,1,2,0:0:0:0:
320,192,39105,1,0,0:0:0:70:LR_Clap Fast Low.wav
192,192,39405,1,0,0:0:0:70:LR_Clap Fast Low.wav
320,192,39705,1,0,0:0:0:70:LR_Clap Fast Low.wav
192,192,40005,1,0,0:0:0:70:LR_Clap Fast Low.wav
448,192,40305,1,0,0:0:0:70:LR_Clap Fast Low.wav
64,192,40605,1,0,0:0:0:70:LR_Clap Fast Low.wav
448,192,40905,1,0,0:0:0:70:LR_Clap Fast Low.wav
64,192,41205,1,0,0:0:0:70:LR_Clap Fast Low.wav
320,192,41505,1,0,0:0:0:70:LR_Clap Fast Low.wav
192,192,41805,1,0,0:0:0:70:LR_Clap Fast Low.wav
320,192,42105,1,0,0:0:0:70:LR_Clap Fast Low.wav
192,192,42405,1,0,0:0:0:70:LR_Clap Fast Low.wav
192,192,43455,1,0,0:0:0:70:LR_Clap Long.wav
320,192,43455,1,0,0:0:0:0:
64,192,43755,1,0,0:0:0:30:LR_Drum Hit Clap Sn.wav
448,192,43755,1,0,0:0:0:40:LR_CymbalG.wav
320,192,44055,1,0,0:0:0:30:LR_Drum Hit Clap Sn.wav
192,192,44355,1,0,0:0:0:30:LR_Drum Hit Clap Sn.wav
64,192,44655,1,0,0:0:0:30:LR_Drum Hit Clap Sn.wav
448,192,44955,1,0,0:0:0:30:LR_Drum Hit Clap Sn.wav
320,192,45255,1,0,0:0:0:30:LR_Drum Hit Clap Sn.wav
192,192,45555,1,0,0:0:0:30:LR_Drum Hit Clap Sn.wav
64,192,45855,1,0,0:0:0:30:LR_Drum Hit Clap Sn.wav
192,192,46155,1,0,0:0:0:30:LR_Drum Hit Clap Sn.wav
448,192,46155,1,0,0:0:0:40:LR_CymbalG.wav
320,192,46455,1,0,0:0:0:30:LR_Drum Hit Clap Sn.wav
192,192,46755,1,0,0:0:0:30:LR_Drum Hit Clap Sn.wav
64,192,47055,1,0,0:0:0:30:LR_Drum Hit Clap Sn.wav
448,192,47355,1,0,0:0:0:30:LR_Drum Hit Clap Sn.wav
320,192,47655,1,0,0:0:0:30:LR_Drum Hit Clap Sn.wav
192,192,47955,1,0,0:0:0:30:LR_Drum Hit Clap Sn.wav
64,192,48255,1,0,0:0:0:30:LR_Drum Hit Clap Sn.wav
192,192,48555,1,0,0:0:0:30:LR_Drum Hit Clap Sn.wav
320,192,48555,1,0,0:0:0:40:LR_CymbalG.wav
448,192,48855,1,0,0:0:0:30:LR_Drum Hit Clap Sn.wav
320,192,49155,1,0,0:0:0:30:LR_Drum Hit Clap Sn.wav
192,192,49455,1,0,0:0:0:30:LR_Drum Hit Clap Sn.wav
64,192,49755,128,0,50955:0:0:0:30:LR_Drum Hit Clap Sn.wav
448,192,50955,1,0,0:0:0:70:LR_Tom Drop.wav
192,192,51555,1,0,0:0:0:70:LR_Tom Hit 2.wav
448,192,52155,1,0,0:0:0:70:LR_Tom Drop.wav
192,192,52755,1,0,0:0:0:70:LR_Tom Hit 2.wav
192,192,53355,1,0,0:0:0:70:LR_Tom Drop.wav
320,192,53555,1,0,0:0:0:70:LR_Tom Drop.wav
448,192,53755,1,0,0:0:0:70:LR_Tom Drop.wav
192,192,53955,1,0,0:0:0:70:LR_Tom Drop.wav
320,192,54155,1,0,0:0:0:70:LR_Tom Drop.wav
448,192,54355,1,0,0:0:0:70:LR_Tom Drop.wav
64,192,54555,128,0,55755:0:0:0:70:LR_Tom Drop.wav
448,192,55755,128,0,56355:0:0:0:70:bell.wav
64,192,56355,1,2,0:0:0:0:
192,192,56505,1,2,0:0:0:0:
320,192,56655,1,2,0:0:0:0:
448,192,56805,1,2,0:0:0:0:
64,192,56955,128,2,57255:0:0:0:0:
320,192,57255,1,2,0:0:0:0:
64,192,57555,1,2,0:0:0:0:
448,192,57855,1,2,0:0:0:0:
192,192,58155,1,2,0:0:0:0:
320,192,58455,1,2,0:0:0:0:
64,192,58755,1,2,0:0:0:0:
448,192,59055,1,2,0:0:0:0:
320,192,59355,128,2,59655:0:0:0:0:
64,192,59655,1,2,0:0:0:0:
448,192,59955,1,2,0:0:0:0:
192,192,60255,1,2,0:0:0:0:
320,192,60555,1,2,0:0:0:0:
64,192,60855,1,2,0:0:0:0:
448,192,61155,1,2,0:0:0:0:
320,192,61455,1,2,0:0:0:0:
64,192,61755,128,2,62055:0:0:0:0:
448,192,62055,1,2,0:0:0:0:
192,192,62355,1,2,0:0:0:0:
320,192,62655,1,2,0:0:0:0:
64,192,62955,1,2,0:0:0:0:
448,192,63255,1,2,0:0:0:0:
192,192,63555,1,2,0:0:0:0:
320,192,63855,1,2,0:0:0:0:
448,192,64155,128,2,64455:0:0:0:0:
64,192,64455,1,2,0:0:0:0:
320,192,64755,1,2,0:0:0:0:
192,192,65055,128,2,65355:0:0:0:0:
448,192,65355,128,2,65805:0:0:0:0:
64,192,65805,128,0,66255:0:0:0:70:LR_Chm Soft Normal.wav
320,192,66255,1,0,0:0:0:70:LR_Chm Soft Normal.wav
192,192,66555,1,2,0:0:0:0:
448,192,66855,1,2,0:0:0:0:
192,192,67155,1,2,0:0:0:0:
320,192,67455,1,2,0:0:0:0:
64,192,67755,1,2,0:0:0:0:
448,192,68055,1,2,0:0:0:0:
64,192,68355,1,2,0:0:0:0:
320,192,68655,1,2,0:0:0:0:
64,192,68955,128,2,69255:0:0:0:0:
448,192,69255,1,2,0:0:0:0:
192,192,69555,1,2,0:0:0:0:
448,192,69855,1,2,0:0:0:0:
320,192,70155,128,2,70755:0:0:0:0:
192,192,70755,1,2,0:0:0:0:
64,192,71055,128,2,71355:0:0:0:0:
320,192,71355,1,2,0:0:0:0:
448,192,71655,128,8,71955:0:0:0:0:
192,192,71955,1,2,0:0:0:0:
64,192,72255,128,8,72555:0:0:0:0:
320,192,72555,1,2,0:0:0:0:
448,192,72855,128,8,73155:0:0:0:0:
192,192,73155,1,2,0:0:0:0:
64,192,73455,128,8,73755:0:0:0:0:
320,192,73755,1,2,0:0:0:0:
448,192,74055,128,8,74355:0:0:0:0:
192,192,74355,1,2,0:0:0:0:
64,192,74655,128,8,74955:0:0:0:0:
192,192,74955,128,0,75555:0:0:0:40:LR_CymbalG.wav
320,192,75555,128,0,76155:0:0:0:40:LR_CymbalG.wav
448,192,76155,128,0,76755:0:0:0:40:LR_CymbalG.wav
64,192,76755,128,0,77355:0:0:0:40:LR_CymbalG.wav
192,192,77355,1,12,0:0:0:0:
448,192,77655,1,12,0:0:0:0:
192,192,77955,1,12,0:0:0:0:
448,192,78255,1,12,0:0:0:0:
64,192,78555,1,12,0:0:0:0:
320,192,78705,1,0,0:0:0:0:
64,192,78855,1,12,0:0:0:0:
320,192,79005,1,0,0:0:0:0:
448,192,79155,1,12,0:0:0:0:
192,192,79455,1,12,0:0:0:0:
320,192,79755,128,12,80055:0:0:0:0:
64,192,80055,128,12,80355:0:0:0:0:
448,192,80355,128,12,80655:0:0:0:0:
192,192,80655,128,12,80955:0:0:0:0:
64,192,80955,1,12,0:0:0:0:
320,192,81105,1,0,0:0:0:0:
448,192,81255,1,12,0:0:0:0:
192,192,81405,1,0,0:0:0:0:
64,192,81555,128,0,81855:0:0:0:0:
448,192,81855,128,0,82155:0:0:0:0:
192,192,82155,1,12,0:0:0:0:
320,192,82455,1,12,0:0:0:0:
64,192,82755,1,12,0:0:0:0:
448,192,83055,1,12,0:0:0:0:
192,192,83355,1,12,0:0:0:0:
448,192,83505,1,0,0:0:0:0:
192,192,83655,1,12,0:0:0:0:
448,192,83805,1,0,0:0:0:0:
64,192,83955,1,12,0:0:0:0:
320,192,84255,1,12,0:0:0:0:
448,192,84555,128,2,85005:0:0:0:0:
64,192,85005,128,2,85455:0:0:0:0:
320,192,85455,128,2,85905:0:0:0:0:
448,192,85905,1,2,0:0:0:0:
192,192,86055,1,2,0:0:0:0:
64,192,86355,1,2,0:0:0:0:
192,192,86505,1,2,0:0:0:0:
320,192,86655,1,2,0:0:0:0:
448,192,86805,128,2,88155:0:0:0:0:
