osu file format v14

[General]
AudioFilename: audio.mp3
AudioLeadIn: 0
PreviewTime: 55748
Countdown: 0
SampleSet: Normal
StackLeniency: 0.7
Mode: 1
LetterboxInBreaks: 0
WidescreenStoryboard: 0

[Editor]
Bookmarks: 42548,43748,44798,46148,47198,48548,49598,50948,74948,76148
DistanceSpacing: 0.6
BeatDivisor: 4
GridSize: 16
TimelineZoom: 2.499999

[Metadata]
Title:Hyadain's Jojo Yujo (TV Size)
TitleUnicode:ヒャダインのじょーじょーゆーじょー (TV Size)
Artist:Hyadain
ArtistUnicode:ヒャダイン
Creator:Molybdenum
Version:Nichijouni!
Source:日常
Tags:catzertm nichijou hyadains amazing friendship 前山田健一 maeyamada kenichi vocals anime pop japanese second 2nd op opening theme song no joujou yuujou jpop j-pop j male female vocalists multiple duet keiichi arawi あらゐけいいち
BeatmapID:3799642
BeatmapSetID:1849682

[Difficulty]
HPDrainRate:5
CircleSize:2
OverallDifficulty:6
ApproachRate:10
SliderMultiplier:1.4
SliderTickRate:1

[Events]
//Background and Video events
Video,-37,"output.mp4"
0,0,"yuuko__mio_and_mai_from_nichijou_by_matsumayu_dd6ivua.png",0,50
//Break Periods
//Storyboard Layer 0 (Background)
//Storyboard Layer 1 (Fail)
//Storyboard Layer 2 (Pass)
//Storyboard Layer 3 (Foreground)
//Storyboard Layer 4 (Overlay)
//Storyboard Sound Samples

[TimingPoints]
548,300,4,1,0,65,1,0
3098,-102.040816326531,4,1,0,65,0,8
3248,-104.166666666667,4,1,0,65,0,8
3398,-106.382978723404,4,1,0,65,0,8
3548,-108.695652173913,4,1,0,65,0,8
3698,-111.111111111111,4,1,0,65,0,8
3848,-113.636363636364,4,1,0,65,0,8
3998,-116.279069767442,4,1,0,65,0,8
4448,-113.636363636364,4,1,0,65,0,8
4523,-112.359550561798,4,1,0,65,0,8
4598,-111.111111111111,4,1,0,65,0,8
4748,-108.695652173913,4,1,0,65,0,8
4823,-107.52688172043,4,1,0,65,0,8
4898,-106.382978723404,4,1,0,65,0,8
5048,-104.166666666667,4,1,0,65,0,8
5198,-102.040816326531,4,1,0,65,0,8
5348,-100,4,1,0,65,0,8
22410,-102.040816326531,4,1,0,65,0,8
22560,-104.166666666667,4,1,0,65,0,8
22710,-106.382978723404,4,1,0,65,0,8
22860,-108.695652173913,4,1,0,65,0,8
23010,-111.111111111111,4,1,0,65,0,8
23160,-113.636363636364,4,1,0,65,0,8
24510,-100,4,1,0,65,0,8
32910,-101.010101010101,4,1,0,65,0,8
32985,-102.040816326531,4,1,0,65,0,8
33060,-103.092783505155,4,1,0,65,0,8
33135,-104.166666666667,4,1,0,65,0,8
33210,-105.263157894737,4,1,0,65,0,8
33285,-106.382978723404,4,1,0,65,0,8
33360,-107.52688172043,4,1,0,65,0,8
33435,-108.695652173913,4,1,0,65,0,8
33510,-109.89010989011,4,1,0,65,0,8
33585,-111.111111111111,4,1,0,65,0,8
33660,-112.359550561798,4,1,0,65,0,8
33735,-113.636363636364,4,1,0,65,0,8
33810,-114.942528735632,4,1,0,65,0,8
33885,-116.279069767442,4,1,0,65,0,8
33960,-117.647058823529,4,1,0,65,0,8
38910,-116.279069767442,4,1,0,65,0,8
39060,-114.942528735632,4,1,0,65,0,8
39210,-113.636363636364,4,1,0,65,0,8
39285,-112.359550561798,4,1,0,65,0,8
39360,-111.111111111111,4,1,0,65,0,8
39510,-109.89010989011,4,1,0,65,0,8
39660,-108.695652173913,4,1,0,65,0,8
39810,-107.52688172043,4,1,0,65,0,8
39885,-106.382978723404,4,1,0,65,0,8
39960,-105.263157894737,4,1,0,65,0,8
40035,-104.166666666667,4,1,0,65,0,8
40110,-103.092783505155,4,1,0,65,0,8
40260,-102.040816326531,4,1,0,65,0,8
40410,-101.010101010101,4,1,0,65,0,8
40485,-100,4,1,0,65,0,8
40560,-99.009900990099,4,1,0,65,0,8
40710,-98.0392156862745,4,1,0,65,0,8
40860,-97.0873786407767,4,1,0,65,0,8
41010,-96.1538461538461,4,1,0,65,0,8
41085,-95.2380952380952,4,1,0,65,0,8
41160,-94.3396226415094,4,1,0,65,0,8
41310,-93.4579439252336,4,1,0,65,0,8
41460,-92.5925925925926,4,1,0,65,0,8
41610,-91.743119266055,4,1,0,65,0,8
41685,-90.9090909090909,4,1,0,65,0,8
41760,-90.0900900900901,4,1,0,65,0,8
41910,-89.2857142857143,4,1,0,65,0,8
42060,-88.4955752212389,4,1,0,65,0,8
42210,-87.719298245614,4,1,0,65,0,8
42285,-86.9565217391304,4,1,0,65,0,8
42360,-86.2068965517241,4,1,0,65,0,8
42510,-85.4700854700855,4,1,0,65,0,8
43410,-71.4285714285714,4,1,0,65,0,8
43710,-111.111111111111,4,1,0,65,0,8
46110,-71.4285714285714,4,1,0,65,0,8
46185,-111.111111111111,4,1,0,65,0,8
48510,-71.4285714285714,4,1,0,65,0,8
48585,-111.111111111111,4,1,0,65,0,8
50898,-125,4,1,0,65,0,8
51098,-121.951219512195,4,1,0,65,0,8
51298,-119.047619047619,4,1,0,65,0,8
51498,-116.279069767442,4,1,0,65,0,8
51698,-113.636363636364,4,1,0,65,0,8
51898,-111.111111111111,4,1,0,65,0,8
52098,-108.695652173913,4,1,0,65,0,8
52298,-106.382978723404,4,1,0,65,0,8
52498,-104.166666666667,4,1,0,65,0,8
52698,-102.040816326531,4,1,0,65,0,8
52898,-100,4,1,0,65,0,8
53098,-98.0392156862745,4,1,0,65,0,8
53298,-96.1538461538461,4,1,0,65,0,8
53498,-94.3396226415094,4,1,0,65,0,8
53698,-92.5925925925926,4,1,0,65,0,8
53898,-90.9090909090909,4,1,0,65,0,8
54098,-89.2857142857143,4,1,0,65,0,8
54298,-87.719298245614,4,1,0,65,0,8
54498,-86.2068965517241,4,1,0,65,0,8
55710,-89.2857142857143,4,1,0,65,0,8
55860,-92.5925925925926,4,1,0,65,0,8
56010,-96.1538461538461,4,1,0,65,0,8
56160,-100,4,1,0,65,0,8
56310,-96.1538461538461,4,1,0,60,0,8
56460,-92.5925925925926,4,1,0,60,0,8
56610,-89.2857142857143,4,1,0,60,0,8
56760,-86.2068965517241,4,1,0,60,0,8
56910,-83.3333333333333,4,1,0,70,0,8
56948,-83.3333333333333,4,1,0,70,0,9
71348,-83.3333333333333,4,1,0,70,0,8
74948,-84.7457627118644,4,1,0,70,0,8
75098,-86.2068965517241,4,1,0,70,0,8
75248,-87.719298245614,4,1,0,70,0,8
75398,-89.2857142857143,4,1,0,70,0,8
75548,-90.9090909090909,4,1,0,70,0,8
75698,-92.5925925925926,4,1,0,70,0,8
75848,-94.3396226415094,4,1,0,70,0,8
75998,-96.1538461538461,4,1,0,70,0,8
76110,-96.1538461538461,4,1,0,70,0,8
76185,-95.2380952380952,4,1,0,70,0,8
76260,-94.3396226415094,4,1,0,70,0,8
76335,-93.4579439252336,4,1,0,70,0,8
76410,-92.5925925925926,4,1,0,70,0,8
76485,-91.743119266055,4,1,0,70,0,8
76560,-90.9090909090909,4,1,0,70,0,8
76635,-90.0900900900901,4,1,0,70,0,8
76710,-89.2857142857143,4,1,0,70,0,8
76785,-88.4955752212389,4,1,0,70,0,8
76860,-87.719298245614,4,1,0,70,0,8
76935,-86.9565217391304,4,1,0,70,0,8
77010,-86.2068965517241,4,1,0,70,0,8
77085,-85.4700854700855,4,1,0,70,0,8
77160,-84.7457627118644,4,1,0,70,0,8
77235,-84.0336134453781,4,1,0,70,0,8
77310,-83.3333333333333,4,1,0,70,0,8
77348,-82.6446280991736,4,1,0,70,0,9
81510,-58.8235294117647,4,1,0,70,0,9
81548,-58.8235294117647,4,1,0,70,0,8
82110,-83.3333333333333,4,1,0,70,0,8
82148,-83.3333333333333,4,1,0,70,0,9
84548,-90.9090909090909,4,1,0,70,0,8
84698,-92.5925925925926,4,1,0,70,0,8
84848,-94.3396226415094,4,1,0,70,0,8
84998,-96.1538461538461,4,1,0,70,0,8
85148,-98.0392156862745,4,1,0,70,0,8
85298,-100,4,1,0,70,0,8
85448,-102.040816326531,4,1,0,70,0,8
85598,-104.166666666667,4,1,0,70,0,8
85898,-104.166666666667,4,1,0,70,0,9
86048,-102.040816326531,4,1,0,70,0,9
86123,-101.010101010101,4,1,0,70,0,9
86198,-100,4,1,0,70,0,9
86348,-98.0392156862745,4,1,0,70,0,9
86423,-97.0873786407767,4,1,0,70,0,9
86498,-96.1538461538461,4,1,0,70,0,9
86648,-94.3396226415094,4,1,0,70,0,9
86798,-92.5925925925926,4,1,0,70,0,9
87998,-90.9090909090909,4,1,0,70,0,8

[HitObjects]
247,194,248,5,8,0:0:0:0:
247,194,298,1,0,0:0:0:0:
247,194,348,1,0,0:0:0:0:
247,194,398,1,8,0:0:0:0:
247,194,548,1,0,0:0:0:0:
247,194,698,1,0,0:0:0:0:
247,194,848,1,8,0:0:0:0:
247,194,998,1,8,0:0:0:0:
247,194,1148,1,8,0:0:0:0:
247,194,1223,1,8,0:0:0:0:
247,194,1298,1,0,0:0:0:0:
247,194,1448,1,8,0:0:0:0:
247,194,1748,1,8,0:0:0:0:
247,194,1898,1,0,0:0:0:0:
247,194,2048,1,8,0:0:0:0:
247,194,2198,1,0,0:0:0:0:
247,194,2348,1,8,0:0:0:0:
247,194,2423,1,8,0:0:0:0:
247,194,2498,1,8,0:0:0:0:
247,194,2648,1,0,0:0:0:0:
247,194,2948,1,12,0:0:0:0:
247,194,3098,1,0,0:0:0:0:
247,194,3248,1,0,0:0:0:0:
247,194,3398,1,12,0:0:0:0:
247,194,3548,1,0,0:0:0:0:
247,194,3698,1,0,0:0:0:0:
247,194,3848,1,12,0:0:0:0:
247,194,3998,1,0,0:0:0:0:
247,194,4298,1,8,0:0:0:0:
247,194,4448,1,8,0:0:0:0:
247,194,4523,1,8,0:0:0:0:
247,194,4598,1,0,0:0:0:0:
247,194,4748,1,8,0:0:0:0:
247,194,4823,1,8,0:0:0:0:
247,194,4898,1,0,0:0:0:0:
247,194,5048,1,8,0:0:0:0:
247,194,5198,1,8,0:0:0:0:
247,194,5348,1,4,0:0:0:0:
247,194,5648,1,8,0:0:0:0:
247,194,5798,1,8,0:0:0:0:
247,194,5948,1,0,0:0:0:0:
247,194,6023,1,0,0:0:0:0:
247,194,6098,1,0,0:0:0:0:
247,194,6248,1,8,0:0:0:0:
247,194,6398,1,0,0:0:0:0:
247,194,6548,1,0,0:0:0:0:
247,194,6698,1,8,0:0:0:0:
247,194,6848,1,0,0:0:0:0:
247,194,6998,1,8,0:0:0:0:
247,194,7298,1,0,0:0:0:0:
247,194,7448,1,8,0:0:0:0:
247,194,7523,1,8,0:0:0:0:
247,194,7598,1,0,0:0:0:0:
247,194,7748,1,8,0:0:0:0:
247,194,7898,1,0,0:0:0:0:
247,194,8048,1,8,0:0:0:0:
247,194,8198,1,8,0:0:0:0:
247,194,8348,1,0,0:0:0:0:
247,194,8423,1,0,0:0:0:0:
247,194,8498,1,0,0:0:0:0:
247,194,8648,1,8,0:0:0:0:
247,194,8798,1,0,0:0:0:0:
247,194,8948,1,0,0:0:0:0:
247,194,9098,1,8,0:0:0:0:
247,194,9248,1,0,0:0:0:0:
247,194,9398,1,8,0:0:0:0:
247,194,9698,1,0,0:0:0:0:
247,194,9848,1,8,0:0:0:0:
247,194,9923,1,8,0:0:0:0:
247,194,9998,1,8,0:0:0:0:
247,194,10148,1,0,0:0:0:0:
247,194,10298,1,0,0:0:0:0:
247,194,10448,1,8,0:0:0:0:
247,194,10748,1,0,0:0:0:0:
247,194,10898,1,8,0:0:0:0:
247,194,11198,1,0,0:0:0:0:
247,194,11348,1,8,0:0:0:0:
247,194,11498,1,0,0:0:0:0:
247,194,11798,1,0,0:0:0:0:
247,194,11873,1,0,0:0:0:0:
247,194,11948,1,8,0:0:0:0:
247,194,12248,1,8,0:0:0:0:
247,194,12548,1,0,0:0:0:0:
247,194,12848,1,8,0:0:0:0:
247,194,13148,1,0,0:0:0:0:
247,194,13298,1,0,0:0:0:0:
247,194,13448,1,8,0:0:0:0:
247,194,13598,1,0,0:0:0:0:
247,194,13898,1,8,0:0:0:0:
247,194,14048,1,8,0:0:0:0:
247,194,14198,1,0,0:0:0:0:
247,194,14348,1,8,0:0:0:0:
247,194,14498,1,0,0:0:0:0:
247,194,14573,1,0,0:0:0:0:
247,194,14648,1,8,0:0:0:0:
247,194,14948,1,12,0:0:0:0:
247,194,15248,1,8,0:0:0:0:
247,194,15548,1,8,0:0:0:0:
247,194,15623,1,8,0:0:0:0:
247,194,15698,1,0,0:0:0:0:
247,194,15848,1,0,0:0:0:0:
247,194,15998,1,8,0:0:0:0:
247,194,16148,1,0,0:0:0:0:
247,194,16298,1,8,0:0:0:0:
247,194,16448,1,0,0:0:0:0:
247,194,16598,1,8,0:0:0:0:
247,194,16898,1,0,0:0:0:0:
247,194,17048,1,8,0:0:0:0:
247,194,17198,1,0,0:0:0:0:
247,194,17273,1,0,0:0:0:0:
247,194,17348,1,12,0:0:0:0:
247,194,17498,1,0,0:0:0:0:
247,194,17648,1,0,0:0:0:0:
247,194,17948,1,8,0:0:0:0:
247,194,18023,1,8,0:0:0:0:
247,194,18098,1,8,0:0:0:0:
247,194,18248,1,0,0:0:0:0:
247,194,18398,1,8,0:0:0:0:
247,194,18548,1,8,0:0:0:0:
247,194,18698,1,0,0:0:0:0:
247,194,18848,1,8,0:0:0:0:
247,194,18998,1,8,0:0:0:0:
247,194,19298,1,8,0:0:0:0:
247,194,19448,1,8,0:0:0:0:
247,194,19523,1,8,0:0:0:0:
247,194,19598,1,0,0:0:0:0:
247,194,19673,1,0,0:0:0:0:
247,194,19748,1,8,0:0:0:0:
247,194,19898,1,0,0:0:0:0:
247,194,20048,1,0,0:0:0:0:
247,194,20348,1,8,0:0:0:0:
247,194,20498,1,0,0:0:0:0:
247,194,20648,1,0,0:0:0:0:
247,194,20723,1,0,0:0:0:0:
247,194,20798,1,8,0:0:0:0:
247,194,21098,1,0,0:0:0:0:
247,194,21248,1,8,0:0:0:0:
247,194,21398,1,8,0:0:0:0:
247,194,21698,1,0,0:0:0:0:
247,194,21848,1,8,0:0:0:0:
247,194,21998,1,0,0:0:0:0:
247,194,22073,1,0,0:0:0:0:
247,194,22148,1,8,0:0:0:0:
247,194,22298,1,0,0:0:0:0:
247,194,22448,1,8,0:0:0:0:
247,194,22598,1,8,0:0:0:0:
247,194,22748,1,0,0:0:0:0:
247,194,22898,1,8,0:0:0:0:
247,194,23048,1,0,0:0:0:0:
247,194,23198,1,8,0:0:0:0:
247,194,23498,1,8,0:0:0:0:
247,194,23648,1,8,0:0:0:0:
247,194,23798,1,8,0:0:0:0:
247,194,23948,1,8,0:0:0:0:
247,194,24098,1,8,0:0:0:0:
247,194,24248,1,8,0:0:0:0:
247,194,24398,1,8,0:0:0:0:
247,194,24548,1,4,0:0:0:0:
247,194,24848,1,8,0:0:0:0:
247,194,25148,1,8,0:0:0:0:
247,194,25223,1,8,0:0:0:0:
247,194,25298,1,0,0:0:0:0:
247,194,25448,1,8,0:0:0:0:
247,194,25598,1,8,0:0:0:0:
247,194,25748,1,0,0:0:0:0:
247,194,25898,1,8,0:0:0:0:
247,194,26048,1,8,0:0:0:0:
247,194,26198,1,0,0:0:0:0:
247,194,26498,1,8,0:0:0:0:
247,194,26648,1,8,0:0:0:0:
247,194,26798,1,0,0:0:0:0:
247,194,26873,1,0,0:0:0:0:
247,194,26948,1,12,0:0:0:0:
247,194,27098,1,0,0:0:0:0:
247,194,27248,1,8,0:0:0:0:
247,194,27548,1,8,0:0:0:0:
247,194,27623,1,8,0:0:0:0:
247,194,27698,1,8,0:0:0:0:
247,194,27848,1,0,0:0:0:0:
247,194,27998,1,8,0:0:0:0:
247,194,28148,1,0,0:0:0:0:
247,194,28298,1,8,0:0:0:0:
247,194,28448,1,0,0:0:0:0:
247,194,28598,1,8,0:0:0:0:
247,194,28898,1,0,0:0:0:0:
247,194,29048,1,8,0:0:0:0:
247,194,29123,1,8,0:0:0:0:
247,194,29198,1,0,0:0:0:0:
247,194,29273,1,0,0:0:0:0:
247,194,29348,1,8,0:0:0:0:
247,194,29498,1,0,0:0:0:0:
247,194,29648,1,0,0:0:0:0:
247,194,29948,1,8,0:0:0:0:
247,194,30098,1,0,0:0:0:0:
247,194,30248,1,0,0:0:0:0:
247,194,30323,1,0,0:0:0:0:
247,194,30398,1,8,0:0:0:0:
247,194,30698,1,0,0:0:0:0:
247,194,30848,1,8,0:0:0:0:
247,194,30998,1,0,0:0:0:0:
247,194,31148,1,8,0:0:0:0:
247,194,31298,1,8,0:0:0:0:
247,194,31373,1,8,0:0:0:0:
247,194,31448,1,0,0:0:0:0:
247,194,31598,1,8,0:0:0:0:
247,194,31748,1,0,0:0:0:0:
247,194,31823,1,0,0:0:0:0:
247,194,31898,1,8,0:0:0:0:
247,194,32048,1,8,0:0:0:0:
247,194,32348,1,8,0:0:0:0:
247,194,32498,1,0,0:0:0:0:
247,194,32648,1,8,0:0:0:0:
247,194,32798,1,8,0:0:0:0:
247,194,32948,1,0,0:0:0:0:
247,194,33023,1,0,0:0:0:0:
247,194,33098,1,8,0:0:0:0:
247,194,33173,1,0,0:0:0:0:
247,194,33248,1,0,0:0:0:0:
247,194,33323,1,0,0:0:0:0:
247,194,33398,1,8,0:0:0:0:
247,194,33473,1,8,0:0:0:0:
247,194,33548,1,0,0:0:0:0:
247,194,33623,1,0,0:0:0:0:
247,194,33698,1,8,0:0:0:0:
247,194,33773,1,8,0:0:0:0:
247,194,33848,1,8,0:0:0:0:
247,194,33923,1,8,0:0:0:0:
247,194,33998,1,0,0:0:0:0:
247,194,34148,1,8,0:0:0:0:
247,194,34298,1,8,0:0:0:0:
247,194,34448,1,8,0:0:0:0:
247,194,34598,1,0,0:0:0:0:
247,194,34748,1,8,0:0:0:0:
247,194,34898,1,8,0:0:0:0:
247,194,35048,1,8,0:0:0:0:
247,194,35198,1,0,0:0:0:0:
247,194,35348,1,8,0:0:0:0:
247,194,35498,1,0,0:0:0:0:
247,194,35648,1,8,0:0:0:0:
247,194,35798,1,0,0:0:0:0:
247,194,35948,1,8,0:0:0:0:
247,194,36098,1,8,0:0:0:0:
247,194,36248,1,8,0:0:0:0:
247,194,36398,1,0,0:0:0:0:
247,194,36548,1,0,0:0:0:0:
247,194,36698,1,8,0:0:0:0:
247,194,36848,1,0,0:0:0:0:
247,194,36998,1,8,0:0:0:0:
247,194,37148,1,8,0:0:0:0:
247,194,37298,1,8,0:0:0:0:
247,194,37448,1,0,0:0:0:0:
247,194,37598,1,0,0:0:0:0:
247,194,37748,1,8,0:0:0:0:
247,194,37898,1,0,0:0:0:0:
247,194,38048,1,8,0:0:0:0:
247,194,38198,1,0,0:0:0:0:
247,194,38348,1,8,0:0:0:0:
247,194,38498,1,0,0:0:0:0:
247,194,38648,1,8,0:0:0:0:
247,194,38723,1,8,0:0:0:0:
247,194,38798,1,8,0:0:0:0:
247,194,38948,1,0,0:0:0:0:
247,194,39098,1,8,0:0:0:0:
247,194,39248,1,0,0:0:0:0:
247,194,39323,1,0,0:0:0:0:
247,194,39398,1,8,0:0:0:0:
247,194,39548,1,0,0:0:0:0:
247,194,39698,1,8,0:0:0:0:
247,194,39848,1,0,0:0:0:0:
247,194,39923,1,0,0:0:0:0:
247,194,39998,1,8,0:0:0:0:
247,194,40073,1,8,0:0:0:0:
247,194,40148,1,0,0:0:0:0:
247,194,40298,1,8,0:0:0:0:
247,194,40448,1,0,0:0:0:0:
247,194,40523,1,0,0:0:0:0:
247,194,40598,1,8,0:0:0:0:
247,194,40748,1,0,0:0:0:0:
247,194,40898,1,8,0:0:0:0:
247,194,41048,1,0,0:0:0:0:
247,194,41123,1,0,0:0:0:0:
247,194,41198,1,8,0:0:0:0:
247,194,41348,1,0,0:0:0:0:
247,194,41498,1,8,0:0:0:0:
247,194,41648,1,0,0:0:0:0:
247,194,41723,1,0,0:0:0:0:
247,194,41798,1,8,0:0:0:0:
247,194,41948,1,0,0:0:0:0:
247,194,42098,1,8,0:0:0:0:
247,194,42248,1,0,0:0:0:0:
247,194,42323,1,0,0:0:0:0:
247,194,42398,1,8,0:0:0:0:
247,194,42548,1,0,0:0:0:0:
247,194,42698,1,0,0:0:0:0:
247,194,42848,1,8,0:0:0:0:
247,194,43148,1,0,0:0:0:0:
247,194,43448,1,12,0:0:0:0:
247,194,43748,1,4,0:0:0:0:
247,194,44048,1,8,0:0:0:0:
247,194,44348,1,0,0:0:0:0:
247,194,44498,1,8,0:0:0:0:
247,194,44798,1,8,0:0:0:0:
247,194,45098,1,8,0:0:0:0:
247,194,45398,1,8,0:0:0:0:
247,194,45548,1,8,0:0:0:0:
247,194,45698,1,0,0:0:0:0:
247,194,45848,1,8,0:0:0:0:
247,194,45998,1,0,0:0:0:0:
247,194,46148,1,12,0:0:0:0:
247,194,46448,1,0,0:0:0:0:
247,194,46598,1,0,0:0:0:0:
247,194,46748,1,8,0:0:0:0:
247,194,46898,1,8,0:0:0:0:
247,194,47198,1,0,0:0:0:0:
247,194,47498,1,8,0:0:0:0:
247,194,47798,1,8,0:0:0:0:
247,194,47948,1,8,0:0:0:0:
247,194,48098,1,0,0:0:0:0:
247,194,48248,1,8,0:0:0:0:
247,194,48398,1,0,0:0:0:0:
247,194,48548,1,12,0:0:0:0:
247,194,48848,1,8,0:0:0:0:
247,194,48998,1,8,0:0:0:0:
247,194,49148,1,0,0:0:0:0:
247,194,49298,1,8,0:0:0:0:
247,194,49598,1,8,0:0:0:0:
247,194,49898,1,8,0:0:0:0:
247,194,50048,1,0,0:0:0:0:
247,194,50198,1,8,0:0:0:0:
247,194,50498,1,0,0:0:0:0:
247,194,50648,1,8,0:0:0:0:
247,194,50948,1,4,0:0:0:0:
247,194,51148,1,8,0:0:0:0:
247,194,51348,1,8,0:0:0:0:
247,194,51548,1,4,0:0:0:0:
247,194,51748,1,8,0:0:0:0:
247,194,51948,1,8,0:0:0:0:
247,194,52148,1,12,0:0:0:0:
247,194,52348,1,0,0:0:0:0:
247,194,52548,1,0,0:0:0:0:
247,194,52748,1,12,0:0:0:0:
247,194,52948,1,0,0:0:0:0:
247,194,53148,1,0,0:0:0:0:
247,194,53348,1,12,0:0:0:0:
247,194,53548,1,0,0:0:0:0:
247,194,53748,1,8,0:0:0:0:
247,194,53948,1,12,0:0:0:0:
247,194,54148,1,0,0:0:0:0:
247,194,54348,1,8,0:0:0:0:
94,177,54548,2,4,L|93:120,14,40.6000012390137
247,194,55748,1,8,0:0:0:0:
247,194,55898,1,8,0:0:0:0:
247,194,56048,1,8,0:0:0:0:
247,194,56198,1,8,0:0:0:0:
247,194,56348,1,4,0:0:0:0:
247,194,56498,1,4,0:0:0:0:
247,194,56648,1,4,0:0:0:0:
247,194,56798,1,4,0:0:0:0:
247,194,56948,1,8,0:0:0:0:
247,194,57023,1,8,0:0:0:0:
247,194,57098,1,8,0:0:0:0:
247,194,57173,1,8,0:0:0:0:
247,194,57248,1,0,0:0:0:0:
247,194,57323,1,0,0:0:0:0:
247,194,57398,1,8,0:0:0:0:
247,194,57473,1,0,0:0:0:0:
247,194,57548,1,8,0:0:0:0:
247,194,57698,1,0,0:0:0:0:
247,194,57773,1,0,0:0:0:0:
247,194,57848,1,8,0:0:0:0:
247,194,57998,1,0,0:0:0:0:
247,194,58148,1,8,0:0:0:0:
247,194,58223,1,8,0:0:0:0:
247,194,58298,1,0,0:0:0:0:
247,194,58373,1,0,0:0:0:0:
247,194,58448,1,8,0:0:0:0:
247,194,58598,1,0,0:0:0:0:
247,194,58748,1,8,0:0:0:0:
247,194,58823,1,8,0:0:0:0:
247,194,58898,1,8,0:0:0:0:
247,194,58973,1,8,0:0:0:0:
247,194,59048,1,0,0:0:0:0:
247,194,59198,1,0,0:0:0:0:
247,194,59348,1,8,0:0:0:0:
247,194,59423,1,0,0:0:0:0:
247,194,59498,1,0,0:0:0:0:
247,194,59573,1,0,0:0:0:0:
247,194,59648,1,8,0:0:0:0:
247,194,59723,1,8,0:0:0:0:
247,194,59798,1,0,0:0:0:0:
247,194,59873,1,0,0:0:0:0:
247,194,59948,1,8,0:0:0:0:
247,194,60098,1,0,0:0:0:0:
247,194,60173,1,0,0:0:0:0:
247,194,60248,1,8,0:0:0:0:
247,194,60398,1,8,0:0:0:0:
247,194,60548,1,8,0:0:0:0:
247,194,60623,1,0,0:0:0:0:
247,194,60698,1,8,0:0:0:0:
247,194,60773,1,0,0:0:0:0:
247,194,60848,1,8,0:0:0:0:
247,194,60923,1,8,0:0:0:0:
247,194,60998,1,8,0:0:0:0:
247,194,61073,1,8,0:0:0:0:
247,194,61148,1,0,0:0:0:0:
247,194,61223,1,0,0:0:0:0:
247,194,61298,1,0,0:0:0:0:
247,194,61373,1,0,0:0:0:0:
247,194,61448,1,8,0:0:0:0:
247,194,61748,1,8,0:0:0:0:
247,194,61823,1,8,0:0:0:0:
247,194,61898,1,8,0:0:0:0:
247,194,61973,1,8,0:0:0:0:
247,194,62048,1,0,0:0:0:0:
247,194,62123,1,0,0:0:0:0:
247,194,62198,1,8,0:0:0:0:
247,194,62273,1,0,0:0:0:0:
247,194,62348,1,8,0:0:0:0:
247,194,62498,1,8,0:0:0:0:
247,194,62573,1,8,0:0:0:0:
247,194,62648,1,0,0:0:0:0:
247,194,62798,1,8,0:0:0:0:
247,194,62948,1,8,0:0:0:0:
247,194,63023,1,0,0:0:0:0:
247,194,63098,1,0,0:0:0:0:
247,194,63173,1,0,0:0:0:0:
247,194,63248,1,8,0:0:0:0:
247,194,63398,1,0,0:0:0:0:
247,194,63548,1,8,0:0:0:0:
247,194,63623,1,8,0:0:0:0:
247,194,63698,1,8,0:0:0:0:
247,194,63773,1,8,0:0:0:0:
247,194,63848,1,0,0:0:0:0:
247,194,63998,1,8,0:0:0:0:
247,194,64148,1,0,0:0:0:0:
247,194,64223,1,0,0:0:0:0:
247,194,64298,1,0,0:0:0:0:
247,194,64448,1,8,0:0:0:0:
247,194,64523,1,8,0:0:0:0:
247,194,64598,1,8,0:0:0:0:
247,194,64748,1,8,0:0:0:0:
247,194,64898,1,0,0:0:0:0:
247,194,65048,1,8,0:0:0:0:
247,194,65198,1,0,0:0:0:0:
247,194,65273,1,0,0:0:0:0:
247,194,65348,1,12,0:0:0:0:
247,194,65498,1,8,0:0:0:0:
247,194,65573,1,8,0:0:0:0:
247,194,65648,1,0,0:0:0:0:
247,194,65723,1,0,0:0:0:0:
247,194,65798,1,0,0:0:0:0:
247,194,65873,1,0,0:0:0:0:
247,194,65948,1,8,0:0:0:0:
247,194,66023,1,8,0:0:0:0:
247,194,66098,1,8,0:0:0:0:
247,194,66173,1,8,0:0:0:0:
247,194,66248,1,0,0:0:0:0:
247,194,66323,1,0,0:0:0:0:
247,194,66398,1,8,0:0:0:0:
247,194,66548,1,8,0:0:0:0:
247,194,66623,1,8,0:0:0:0:
247,194,66698,1,8,0:0:0:0:
247,194,66773,1,8,0:0:0:0:
247,194,66848,1,0,0:0:0:0:
247,194,66923,1,0,0:0:0:0:
247,194,66998,1,8,0:0:0:0:
247,194,67073,1,0,0:0:0:0:
247,194,67148,1,8,0:0:0:0:
247,194,67298,1,0,0:0:0:0:
247,194,67373,1,0,0:0:0:0:
247,194,67448,1,8,0:0:0:0:
247,194,67598,1,0,0:0:0:0:
247,194,67748,1,8,0:0:0:0:
247,194,67823,1,8,0:0:0:0:
247,194,67898,1,0,0:0:0:0:
247,194,67973,1,0,0:0:0:0:
247,194,68048,1,8,0:0:0:0:
247,194,68198,1,0,0:0:0:0:
247,194,68348,1,8,0:0:0:0:
247,194,68423,1,8,0:0:0:0:
247,194,68498,1,8,0:0:0:0:
247,194,68573,1,8,0:0:0:0:
247,194,68648,1,0,0:0:0:0:
247,194,68798,1,0,0:0:0:0:
247,194,68948,1,8,0:0:0:0:
247,194,69023,1,0,0:0:0:0:
247,194,69098,1,0,0:0:0:0:
247,194,69173,1,0,0:0:0:0:
247,194,69248,1,8,0:0:0:0:
247,194,69323,1,8,0:0:0:0:
247,194,69398,1,0,0:0:0:0:
247,194,69473,1,0,0:0:0:0:
247,194,69548,1,8,0:0:0:0:
247,194,69698,1,8,0:0:0:0:
247,194,69773,1,8,0:0:0:0:
247,194,69848,1,8,0:0:0:0:
247,194,69998,1,0,0:0:0:0:
247,194,70148,1,8,0:0:0:0:
247,194,70223,1,8,0:0:0:0:
247,194,70298,1,8,0:0:0:0:
247,194,70373,1,8,0:0:0:0:
247,194,70448,1,0,0:0:0:0:
247,194,70523,1,0,0:0:0:0:
247,194,70598,1,8,0:0:0:0:
247,194,70748,1,0,0:0:0:0:
247,194,70898,1,0,0:0:0:0:
247,194,71048,1,8,0:0:0:0:
247,194,71348,1,8,0:0:0:0:
247,194,71498,1,0,0:0:0:0:
247,194,71648,1,12,0:0:0:0:
247,194,71798,1,0,0:0:0:0:
247,194,71873,1,0,0:0:0:0:
247,194,71948,1,8,0:0:0:0:
247,194,72098,1,0,0:0:0:0:
247,194,72248,1,12,0:0:0:0:
247,194,72398,1,0,0:0:0:0:
247,194,72473,1,0,0:0:0:0:
247,194,72548,1,8,0:0:0:0:
247,194,72623,1,8,0:0:0:0:
247,194,72698,1,0,0:0:0:0:
247,194,72773,1,0,0:0:0:0:
247,194,72848,1,12,0:0:0:0:
247,194,72998,1,0,0:0:0:0:
247,194,73073,1,0,0:0:0:0:
247,194,73148,1,0,0:0:0:0:
247,194,73298,1,8,0:0:0:0:
247,194,73448,1,12,0:0:0:0:
247,194,73598,1,0,0:0:0:0:
247,194,73748,1,8,0:0:0:0:
247,194,73823,1,8,0:0:0:0:
247,194,73898,1,0,0:0:0:0:
247,194,73973,1,0,0:0:0:0:
247,194,74048,1,8,0:0:0:0:
247,194,74123,1,0,0:0:0:0:
247,194,74198,1,8,0:0:0:0:
247,194,74273,1,8,0:0:0:0:
247,194,74348,1,0,0:0:0:0:
247,194,74423,1,0,0:0:0:0:
247,194,74498,1,8,0:0:0:0:
247,194,74573,1,8,0:0:0:0:
247,194,74648,1,8,0:0:0:0:
247,194,74798,1,0,0:0:0:0:
247,194,74948,1,8,0:0:0:0:
247,194,75098,1,8,0:0:0:0:
247,194,75248,1,0,0:0:0:0:
247,194,75398,1,0,0:0:0:0:
247,194,75548,1,8,0:0:0:0:
247,194,75698,1,8,0:0:0:0:
247,194,75848,1,0,0:0:0:0:
247,194,75998,1,0,0:0:0:0:
247,194,76148,1,8,0:0:0:0:
247,194,76223,1,8,0:0:0:0:
247,194,76298,1,8,0:0:0:0:
247,194,76373,1,8,0:0:0:0:
247,194,76448,1,0,0:0:0:0:
247,194,76523,1,0,0:0:0:0:
247,194,76598,1,0,0:0:0:0:
247,194,76673,1,0,0:0:0:0:
247,194,76748,1,8,0:0:0:0:
247,194,76823,1,8,0:0:0:0:
247,194,76898,1,0,0:0:0:0:
247,194,76973,1,0,0:0:0:0:
247,194,77048,1,8,0:0:0:0:
247,194,77123,1,8,0:0:0:0:
247,194,77198,1,0,0:0:0:0:
247,194,77273,1,0,0:0:0:0:
247,194,77348,1,8,0:0:0:0:
247,194,77648,1,8,0:0:0:0:
247,194,77948,1,0,0:0:0:0:
247,194,78023,1,0,0:0:0:0:
247,194,78098,1,8,0:0:0:0:
247,194,78248,1,8,0:0:0:0:
247,194,78548,1,8,0:0:0:0:
247,194,78698,1,0,0:0:0:0:
247,194,78848,1,8,0:0:0:0:
247,194,78998,1,0,0:0:0:0:
247,194,79073,1,0,0:0:0:0:
247,194,79148,1,8,0:0:0:0:
247,194,79448,1,0,0:0:0:0:
247,194,79748,1,8,0:0:0:0:
247,194,79898,1,8,0:0:0:0:
247,194,80048,1,0,0:0:0:0:
247,194,80123,1,0,0:0:0:0:
247,194,80198,1,8,0:0:0:0:
247,194,80348,1,8,0:0:0:0:
247,194,80498,1,0,0:0:0:0:
247,194,80648,1,8,0:0:0:0:
247,194,80798,1,0,0:0:0:0:
247,194,80948,1,8,0:0:0:0:
247,194,81023,1,8,0:0:0:0:
247,194,81098,1,8,0:0:0:0:
247,194,81248,1,0,0:0:0:0:
247,194,81398,1,0,0:0:0:0:
247,194,81548,1,12,0:0:0:0:
247,194,81848,1,12,0:0:0:0:
247,194,82148,1,8,0:0:0:0:
247,194,82448,1,8,0:0:0:0:
247,194,82748,1,8,0:0:0:0:
247,194,82823,1,8,0:0:0:0:
247,194,82898,1,0,0:0:0:0:
247,194,83048,1,8,0:0:0:0:
247,194,83348,1,8,0:0:0:0:
247,194,83498,1,0,0:0:0:0:
247,194,83648,1,8,0:0:0:0:
247,194,83798,1,0,0:0:0:0:
247,194,83948,1,8,0:0:0:0:
247,194,84023,1,8,0:0:0:0:
247,194,84098,1,0,0:0:0:0:
247,194,84248,1,8,0:0:0:0:
247,194,84548,1,12,0:0:0:0:
247,194,84698,1,0,0:0:0:0:
247,194,84848,1,0,0:0:0:0:
247,194,84998,1,12,0:0:0:0:
247,194,85148,1,0,0:0:0:0:
247,194,85298,1,0,0:0:0:0:
247,194,85448,1,12,0:0:0:0:
247,194,85598,1,0,0:0:0:0:
247,194,85898,1,0,0:0:0:0:
247,194,86048,1,8,0:0:0:0:
247,194,86123,1,8,0:0:0:0:
247,194,86198,1,0,0:0:0:0:
247,194,86348,1,8,0:0:0:0:
247,194,86423,1,8,0:0:0:0:
247,194,86498,1,0,0:0:0:0:
247,194,86648,1,8,0:0:0:0:
256,192,86798,12,0,87998,0:0:0:0:
