osu file format v14

[General]
AudioFilename: audio.mp3
AudioLeadIn: 0
PreviewTime: 55748
Countdown: 0
SampleSet: Normal
StackLeniency: 0.7
Mode: 1
LetterboxInBreaks: 0
WidescreenStoryboard: 1

[Editor]
Bookmarks: 56948,66548
DistanceSpacing: 0.6
BeatDivisor: 8
GridSize: 16
TimelineZoom: 1.8

[Metadata]
Title:Hyadain's Jojo Yujo (TV Size)
TitleUnicode:ヒャダインのじょーじょーゆーじょー (TV Size)
Artist:Hyadain
ArtistUnicode:ヒャダイン
Creator:Molybdenum
Version:Muzukashii!
Source:日常
Tags:catzertm nichijou hyadains amazing friendship 前山田健一 maeyamada kenichi vocals anime pop japanese second 2nd op opening theme song no joujou yuujou jpop j-pop j male female vocalists multiple duet keiichi arawi あらゐけいいち
BeatmapID:3799640
BeatmapSetID:1849682

[Difficulty]
HPDrainRate:6
CircleSize:2
OverallDifficulty:5
ApproachRate:10
SliderMultiplier:1.4
SliderTickRate:1

[Events]
//Background and Video events
Video,-37,"output.mp4"
0,0,"shinonome_nano_from_nichijou_by_matsumayu_dcxnbpl.png",0,75
//Break Periods
//Storyboard Layer 0 (Background)
//Storyboard Layer 1 (Fail)
//Storyboard Layer 2 (Pass)
//Storyboard Layer 3 (Foreground)
//Storyboard Layer 4 (Overlay)
//Storyboard Sound Samples

[TimingPoints]
548,300,4,1,0,65,1,0
22410,-101.010101010101,4,1,0,65,0,8
22560,-102.040816326531,4,1,0,65,0,8
22860,-103.092783505155,4,1,0,65,0,8
23010,-104.166666666667,4,1,0,65,0,8
23160,-105.263157894737,4,1,0,65,0,8
24510,-100,4,1,0,65,0,8
43410,-125,4,1,0,60,0,8
50914,-121.951219512195,4,1,0,60,0,8
51514,-119.047619047619,4,1,0,60,0,8
52114,-116.279069767442,4,1,0,60,0,8
55710,-102.040816326531,4,1,0,60,0,8
56310,-98.0392156862745,4,1,0,60,0,8
56460,-96.1538461538461,4,1,0,60,0,8
56610,-94.3396226415094,4,1,0,60,0,8
56760,-92.5925925925926,4,1,0,60,0,8
56910,-90.9090909090909,4,1,0,70,0,8
56948,-90.9090909090909,4,1,0,70,0,9
71348,-90.9090909090909,4,1,0,70,0,8
74760,-94.3396226415094,4,1,0,70,0,8
74910,-98.0392156862745,4,1,0,70,0,8
77010,-96.1538461538461,4,1,0,70,0,8
77085,-94.3396226415094,4,1,0,70,0,8
77160,-92.5925925925926,4,1,0,70,0,8
77235,-90.9090909090909,4,1,0,70,0,8
77310,-89.2857142857143,4,1,0,70,0,8
77348,-89.2857142857143,4,1,0,70,0,9
81548,-89.2857142857143,4,1,0,70,0,8
82148,-89.2857142857143,4,1,0,70,0,9
84548,-89.2857142857143,4,1,0,70,0,8
85898,-89.2857142857143,4,1,0,70,0,9
87998,-89.2857142857143,4,1,0,70,0,8

[HitObjects]
247,194,248,5,8,0:0:0:0:
247,194,323,1,8,0:0:0:0:
247,194,398,1,8,0:0:0:0:
247,194,548,1,0,0:0:0:0:
247,194,848,1,8,0:0:0:0:
247,194,1148,1,8,0:0:0:0:
247,194,1298,1,0,0:0:0:0:
247,194,1448,1,8,0:0:0:0:
247,194,1748,1,8,0:0:0:0:
247,194,1898,1,8,0:0:0:0:
247,194,2048,1,0,0:0:0:0:
247,194,2198,1,0,0:0:0:0:
247,194,2348,1,8,0:0:0:0:
247,194,2648,1,0,0:0:0:0:
247,194,2948,1,12,0:0:0:0:
247,194,3398,1,12,0:0:0:0:
247,194,3848,1,12,0:0:0:0:
247,194,4298,1,8,0:0:0:0:
247,194,4448,1,8,0:0:0:0:
247,194,4598,1,8,0:0:0:0:
247,194,4748,1,8,0:0:0:0:
247,194,4898,1,8,0:0:0:0:
247,194,5048,1,8,0:0:0:0:
247,194,5198,1,8,0:0:0:0:
247,194,5348,1,0,0:0:0:0:
247,194,5648,1,8,0:0:0:0:
247,194,5948,1,0,0:0:0:0:
247,194,6098,1,0,0:0:0:0:
247,194,6248,1,8,0:0:0:0:
247,194,6398,1,0,0:0:0:0:
247,194,6698,1,8,0:0:0:0:
247,194,6998,1,8,0:0:0:0:
247,194,7298,1,0,0:0:0:0:
247,194,7448,1,8,0:0:0:0:
247,194,7598,1,0,0:0:0:0:
247,194,7748,1,8,0:0:0:0:
247,194,8348,1,8,0:0:0:0:
247,194,8498,1,0,0:0:0:0:
247,194,8648,1,8,0:0:0:0:
247,194,8798,1,8,0:0:0:0:
247,194,9098,1,8,0:0:0:0:
247,194,9398,1,0,0:0:0:0:
247,194,9698,1,0,0:0:0:0:
247,194,9848,1,8,0:0:0:0:
247,194,9923,1,8,0:0:0:0:
247,194,9998,1,8,0:0:0:0:
247,194,10148,1,0,0:0:0:0:
247,194,10448,1,8,0:0:0:0:
247,194,10748,1,8,0:0:0:0:
247,194,10898,1,8,0:0:0:0:
247,194,11198,1,0,0:0:0:0:
247,194,11498,1,0,0:0:0:0:
247,194,11798,1,0,0:0:0:0:
247,194,11948,1,8,0:0:0:0:
247,194,12248,1,8,0:0:0:0:
247,194,12548,1,0,0:0:0:0:
247,194,12848,1,8,0:0:0:0:
247,194,13448,1,8,0:0:0:0:
247,194,13898,1,0,0:0:0:0:
247,194,14048,1,0,0:0:0:0:
247,194,14198,1,8,0:0:0:0:
247,194,14348,1,8,0:0:0:0:
247,194,14648,1,0,0:0:0:0:
247,194,14948,1,12,0:0:0:0:
247,194,15248,1,8,0:0:0:0:
247,194,15548,1,8,0:0:0:0:
247,194,15698,1,0,0:0:0:0:
247,194,15998,1,8,0:0:0:0:
247,194,16298,1,0,0:0:0:0:
247,194,16598,1,8,0:0:0:0:
247,194,17048,1,8,0:0:0:0:
247,194,17198,1,0,0:0:0:0:
247,194,17348,1,12,0:0:0:0:
247,194,17648,1,8,0:0:0:0:
247,194,17948,1,8,0:0:0:0:
247,194,18098,1,0,0:0:0:0:
247,194,18398,1,0,0:0:0:0:
247,194,18698,1,8,0:0:0:0:
247,194,18998,1,8,0:0:0:0:
247,194,19448,1,0,0:0:0:0:
247,194,19598,1,0,0:0:0:0:
247,194,19748,1,8,0:0:0:0:
247,194,20048,1,0,0:0:0:0:
247,194,20348,1,8,0:0:0:0:
247,194,20498,1,8,0:0:0:0:
247,194,20648,1,0,0:0:0:0:
247,194,20798,1,0,0:0:0:0:
247,194,21398,1,0,0:0:0:0:
247,194,21698,1,0,0:0:0:0:
247,194,21848,1,0,0:0:0:0:
247,194,21998,1,8,0:0:0:0:
247,194,22148,1,0,0:0:0:0:
247,194,22448,1,0,0:0:0:0:
247,194,22598,1,8,0:0:0:0:
247,194,22898,1,8,0:0:0:0:
247,194,23048,1,0,0:0:0:0:
247,194,23198,1,8,0:0:0:0:
247,194,23498,1,8,0:0:0:0:
247,194,23648,1,8,0:0:0:0:
247,194,23798,1,8,0:0:0:0:
247,194,23948,1,8,0:0:0:0:
247,194,24098,1,8,0:0:0:0:
247,194,24248,1,8,0:0:0:0:
247,194,24398,1,8,0:0:0:0:
247,194,24548,1,4,0:0:0:0:
247,194,24848,1,8,0:0:0:0:
247,194,25148,1,8,0:0:0:0:
247,194,25298,1,0,0:0:0:0:
247,194,25598,1,8,0:0:0:0:
247,194,25898,1,0,0:0:0:0:
247,194,26198,1,8,0:0:0:0:
247,194,26648,1,8,0:0:0:0:
247,194,26798,1,0,0:0:0:0:
247,194,26948,1,12,0:0:0:0:
247,194,27248,1,0,0:0:0:0:
247,194,27548,1,0,0:0:0:0:
247,194,27698,1,0,0:0:0:0:
247,194,27848,1,8,0:0:0:0:
247,194,27998,1,8,0:0:0:0:
247,194,28298,1,8,0:0:0:0:
247,194,28598,1,0,0:0:0:0:
247,194,29048,1,0,0:0:0:0:
247,194,29198,1,0,0:0:0:0:
247,194,29348,1,8,0:0:0:0:
247,194,29648,1,0,0:0:0:0:
247,194,29948,1,8,0:0:0:0:
247,194,30098,1,0,0:0:0:0:
247,194,30248,1,8,0:0:0:0:
247,194,30398,1,8,0:0:0:0:
247,194,30998,1,0,0:0:0:0:
247,194,31298,1,0,0:0:0:0:
247,194,31448,1,0,0:0:0:0:
247,194,31598,1,0,0:0:0:0:
247,194,31748,1,8,0:0:0:0:
247,194,32048,1,8,0:0:0:0:
247,194,32348,1,8,0:0:0:0:
247,194,32498,1,8,0:0:0:0:
247,194,32648,1,8,0:0:0:0:
247,194,32798,1,0,0:0:0:0:
247,194,33698,1,0,0:0:0:0:
247,194,33848,1,8,0:0:0:0:
247,194,33998,1,0,0:0:0:0:
247,194,34148,1,8,0:0:0:0:
247,194,34448,1,8,0:0:0:0:
247,194,34748,1,8,0:0:0:0:
247,194,34898,1,0,0:0:0:0:
247,194,35048,1,8,0:0:0:0:
247,194,35348,1,0,0:0:0:0:
247,194,35498,1,8,0:0:0:0:
247,194,35648,1,0,0:0:0:0:
247,194,35948,1,8,0:0:0:0:
247,194,36098,1,0,0:0:0:0:
247,194,36248,1,8,0:0:0:0:
247,194,36398,1,8,0:0:0:0:
247,194,36548,1,0,0:0:0:0:
247,194,36698,1,8,0:0:0:0:
247,194,36998,1,8,0:0:0:0:
247,194,37298,1,8,0:0:0:0:
247,194,37448,1,0,0:0:0:0:
247,194,37598,1,0,0:0:0:0:
247,194,37748,1,8,0:0:0:0:
247,194,38048,1,8,0:0:0:0:
247,194,38348,1,0,0:0:0:0:
247,194,38498,1,8,0:0:0:0:
247,194,38648,1,8,0:0:0:0:
247,194,38798,1,0,0:0:0:0:
247,194,38948,1,8,0:0:0:0:
247,194,39098,1,8,0:0:0:0:
247,194,39398,1,8,0:0:0:0:
247,194,39698,1,8,0:0:0:0:
247,194,39998,1,8,0:0:0:0:
247,194,40073,1,8,0:0:0:0:
247,194,40148,1,8,0:0:0:0:
247,194,40298,1,8,0:0:0:0:
247,194,40448,1,0,0:0:0:0:
247,194,40598,1,8,0:0:0:0:
247,194,40748,1,0,0:0:0:0:
247,194,40898,1,8,0:0:0:0:
247,194,41198,1,8,0:0:0:0:
247,194,41348,1,0,0:0:0:0:
247,194,41498,1,8,0:0:0:0:
247,194,41648,1,0,0:0:0:0:
247,194,41798,1,8,0:0:0:0:
247,194,42098,1,8,0:0:0:0:
247,194,42248,1,0,0:0:0:0:
247,194,42398,1,8,0:0:0:0:
247,194,43448,1,12,0:0:0:0:
247,194,43748,1,4,0:0:0:0:
247,194,44048,1,8,0:0:0:0:
247,194,44348,1,0,0:0:0:0:
247,194,44498,1,8,0:0:0:0:
247,194,44798,1,8,0:0:0:0:
247,194,45098,1,8,0:0:0:0:
247,194,45398,1,0,0:0:0:0:
247,194,45698,1,8,0:0:0:0:
247,194,45848,1,0,0:0:0:0:
247,194,46148,1,12,0:0:0:0:
247,194,46448,1,0,0:0:0:0:
247,194,46598,1,0,0:0:0:0:
247,194,46748,1,8,0:0:0:0:
247,194,46898,1,0,0:0:0:0:
247,194,47198,1,8,0:0:0:0:
247,194,47498,1,8,0:0:0:0:
247,194,47798,1,0,0:0:0:0:
247,194,48098,1,8,0:0:0:0:
247,194,48248,1,0,0:0:0:0:
247,194,48548,1,12,0:0:0:0:
247,194,48848,1,0,0:0:0:0:
247,194,48998,1,0,0:0:0:0:
247,194,49148,1,8,0:0:0:0:
247,194,49298,1,8,0:0:0:0:
247,194,49598,1,8,0:0:0:0:
247,194,49898,1,8,0:0:0:0:
247,194,50048,1,0,0:0:0:0:
247,194,50198,1,8,0:0:0:0:
247,194,50498,1,0,0:0:0:0:
247,194,50648,1,8,0:0:0:0:
247,194,50948,1,4,0:0:0:0:
247,194,51548,1,4,0:0:0:0:
247,194,52148,1,4,0:0:0:0:
247,194,52748,1,4,0:0:0:0:
247,194,53348,1,4,0:0:0:0:
247,194,53548,1,8,0:0:0:0:
247,194,53748,1,8,0:0:0:0:
247,194,53948,1,4,0:0:0:0:
247,194,54148,1,8,0:0:0:0:
247,194,54348,1,8,0:0:0:0:
247,194,54548,1,4,0:0:0:0:
256,192,54698,12,0,55598,0:0:0:0:
247,194,55748,5,8,0:0:0:0:
247,194,56048,1,8,0:0:0:0:
247,194,56348,1,4,0:0:0:0:
247,194,56498,1,4,0:0:0:0:
247,194,56648,1,4,0:0:0:0:
247,194,56798,1,4,0:0:0:0:
247,194,56948,1,8,0:0:0:0:
247,194,57023,1,8,0:0:0:0:
247,194,57098,1,8,0:0:0:0:
247,194,57248,1,8,0:0:0:0:
247,194,57398,1,0,0:0:0:0:
247,194,57548,1,8,0:0:0:0:
247,194,58148,1,8,0:0:0:0:
247,194,58298,1,0,0:0:0:0:
247,194,58448,1,8,0:0:0:0:
247,194,58598,1,0,0:0:0:0:
247,194,58748,1,8,0:0:0:0:
247,194,59048,1,0,0:0:0:0:
247,194,59198,1,0,0:0:0:0:
247,194,59348,1,8,0:0:0:0:
247,194,59648,1,8,0:0:0:0:
247,194,59798,1,0,0:0:0:0:
247,194,59948,1,8,0:0:0:0:
247,194,60248,1,8,0:0:0:0:
247,194,60398,1,8,0:0:0:0:
247,194,60548,1,0,0:0:0:0:
247,194,60698,1,0,0:0:0:0:
247,194,60848,1,8,0:0:0:0:
247,194,60923,1,8,0:0:0:0:
247,194,60998,1,8,0:0:0:0:
247,194,61148,1,8,0:0:0:0:
247,194,61448,1,0,0:0:0:0:
247,194,61748,1,8,0:0:0:0:
247,194,61823,1,8,0:0:0:0:
247,194,61898,1,8,0:0:0:0:
247,194,62048,1,0,0:0:0:0:
247,194,62198,1,8,0:0:0:0:
247,194,62348,1,0,0:0:0:0:
247,194,62948,1,8,0:0:0:0:
247,194,63098,1,0,0:0:0:0:
247,194,63248,1,8,0:0:0:0:
247,194,63398,1,0,0:0:0:0:
247,194,63548,1,8,0:0:0:0:
247,194,63848,1,8,0:0:0:0:
247,194,63998,1,8,0:0:0:0:
247,194,64148,1,0,0:0:0:0:
247,194,64223,1,0,0:0:0:0:
247,194,64298,1,0,0:0:0:0:
247,194,64448,1,8,0:0:0:0:
247,194,64748,1,8,0:0:0:0:
247,194,65048,1,0,0:0:0:0:
247,194,65498,1,8,0:0:0:0:
247,194,65648,1,0,0:0:0:0:
247,194,65798,1,0,0:0:0:0:
247,194,65948,1,8,0:0:0:0:
247,194,66098,1,8,0:0:0:0:
247,194,66248,1,8,0:0:0:0:
247,194,66398,1,8,0:0:0:0:
247,194,66548,1,0,0:0:0:0:
247,194,66848,1,8,0:0:0:0:
247,194,66998,1,0,0:0:0:0:
247,194,67148,1,8,0:0:0:0:
247,194,67448,1,0,0:0:0:0:
247,194,67748,1,8,0:0:0:0:
247,194,67898,1,8,0:0:0:0:
247,194,68048,1,0,0:0:0:0:
247,194,68198,1,0,0:0:0:0:
247,194,68348,1,8,0:0:0:0:
247,194,68648,1,8,0:0:0:0:
247,194,68798,1,0,0:0:0:0:
247,194,68948,1,8,0:0:0:0:
247,194,69248,1,0,0:0:0:0:
247,194,69398,1,8,0:0:0:0:
247,194,69548,1,0,0:0:0:0:
247,194,69848,1,8,0:0:0:0:
247,194,70148,1,8,0:0:0:0:
247,194,70223,1,8,0:0:0:0:
247,194,70298,1,8,0:0:0:0:
247,194,70448,1,8,0:0:0:0:
247,194,70598,1,0,0:0:0:0:
247,194,70748,1,8,0:0:0:0:
247,194,71048,1,0,0:0:0:0:
247,194,71348,1,0,0:0:0:0:
247,194,71648,1,12,0:0:0:0:
247,194,72248,1,12,0:0:0:0:
247,194,72848,1,12,0:0:0:0:
247,194,73448,1,12,0:0:0:0:
247,194,73748,1,0,0:0:0:0:
247,194,73823,1,0,0:0:0:0:
247,194,73898,1,0,0:0:0:0:
247,194,74048,1,8,0:0:0:0:
247,194,74198,1,0,0:0:0:0:
247,194,74348,1,8,0:0:0:0:
247,194,74423,1,8,0:0:0:0:
247,194,74498,1,8,0:0:0:0:
247,194,74648,1,0,0:0:0:0:
247,194,74948,1,8,0:0:0:0:
247,194,75548,1,0,0:0:0:0:
247,194,76148,1,8,0:0:0:0:
247,194,76223,1,8,0:0:0:0:
247,194,76298,1,8,0:0:0:0:
247,194,76448,1,0,0:0:0:0:
247,194,76598,1,8,0:0:0:0:
247,194,76748,1,0,0:0:0:0:
247,194,76823,1,0,0:0:0:0:
247,194,76898,1,0,0:0:0:0:
247,194,77048,1,8,0:0:0:0:
247,194,77198,1,8,0:0:0:0:
247,194,77348,1,0,0:0:0:0:
247,194,77648,1,8,0:0:0:0:
247,194,77948,1,0,0:0:0:0:
247,194,78248,1,8,0:0:0:0:
247,194,78548,1,8,0:0:0:0:
247,194,78698,1,0,0:0:0:0:
247,194,78848,1,8,0:0:0:0:
247,194,78998,1,0,0:0:0:0:
247,194,79148,1,8,0:0:0:0:
247,194,79448,1,0,0:0:0:0:
247,194,79748,1,8,0:0:0:0:
247,194,79898,1,8,0:0:0:0:
247,194,80048,1,0,0:0:0:0:
247,194,80198,1,0,0:0:0:0:
247,194,80348,1,8,0:0:0:0:
247,194,80498,1,0,0:0:0:0:
247,194,80648,1,8,0:0:0:0:
247,194,80798,1,0,0:0:0:0:
247,194,80948,1,8,0:0:0:0:
247,194,81098,1,8,0:0:0:0:
247,194,81248,1,0,0:0:0:0:
247,194,81398,1,0,0:0:0:0:
247,194,81548,1,8,0:0:0:0:
247,194,82148,1,8,0:0:0:0:
247,194,82448,1,8,0:0:0:0:
247,194,82748,1,8,0:0:0:0:
247,194,82898,1,0,0:0:0:0:
247,194,83048,1,8,0:0:0:0:
247,194,83348,1,8,0:0:0:0:
247,194,83498,1,8,0:0:0:0:
247,194,83648,1,0,0:0:0:0:
247,194,83798,1,0,0:0:0:0:
247,194,83948,1,8,0:0:0:0:
247,194,84248,1,0,0:0:0:0:
247,194,84548,1,8,0:0:0:0:
247,194,84998,1,8,0:0:0:0:
247,194,85448,1,8,0:0:0:0:
247,194,85898,1,8,0:0:0:0:
247,194,86048,1,8,0:0:0:0:
247,194,86198,1,8,0:0:0:0:
247,194,86348,1,8,0:0:0:0:
247,194,86498,1,8,0:0:0:0:
247,194,86648,1,0,0:0:0:0:
256,192,86798,12,0,87998,0:0:0:0:
