osu file format v14

[General]
AudioFilename: audio.mp3
AudioLeadIn: 0
PreviewTime: 55748
Countdown: 0
SampleSet: Normal
StackLeniency: 0.7
Mode: 1
LetterboxInBreaks: 0
WidescreenStoryboard: 1

[Editor]
DistanceSpacing: 0.6
BeatDivisor: 4
GridSize: 16
TimelineZoom: 1.8

[Metadata]
Title:Hyadain's Jojo Yujo (TV Size)
TitleUnicode:ヒャダインのじょーじょーゆーじょー (TV Size)
Artist:Hyadain
ArtistUnicode:ヒャダイン
Creator:Molybdenum
Version:Futsuu!
Source:日常
Tags:catzertm nichijou hyadains amazing friendship 前山田健一 maeyamada kenichi vocals anime pop japanese second 2nd op opening theme song no joujou yuujou jpop j-pop j male female vocalists multiple duet keiichi arawi あらゐけいいち
BeatmapID:3799639
BeatmapSetID:1849682

[Difficulty]
HPDrainRate:7
CircleSize:2
OverallDifficulty:4
ApproachRate:10
SliderMultiplier:1.4
SliderTickRate:1

[Events]
//Background and Video events
Video,-37,"output.mp4"
0,0,"hasake_shinonome_from_nichijou_by_matsumayu_dbl5saz.png",0,40
//Break Periods
//Storyboard Layer 0 (Background)
//Storyboard Layer 1 (Fail)
//Storyboard Layer 2 (Pass)
//Storyboard Layer 3 (Foreground)
//Storyboard Layer 4 (Overlay)
//Storyboard Sound Samples

[TimingPoints]
548,300,4,1,0,65,1,0
548,-111.111111111111,4,1,0,65,0,8
44010,-125,4,1,0,60,0,8
50910,-111.111111111111,4,1,0,60,0,8
53310,-100,4,1,0,60,0,8
56948,-100,4,1,0,70,0,9
71348,-100,4,1,0,70,0,8
77348,-100,4,1,0,70,0,9
81548,-100,4,1,0,70,0,8
82148,-100,4,1,0,70,0,9
84548,-100,4,1,0,70,0,8
85898,-100,4,1,0,70,0,9
87998,-100,4,1,0,70,0,8

[HitObjects]
247,194,548,5,8,0:0:0:0:
247,194,848,1,8,0:0:0:0:
247,194,1148,1,0,0:0:0:0:
247,194,1298,1,0,0:0:0:0:
247,194,1448,1,8,0:0:0:0:
247,194,1748,1,8,0:0:0:0:
247,194,1898,1,8,0:0:0:0:
247,194,2048,1,8,0:0:0:0:
247,194,2198,1,0,0:0:0:0:
247,194,2348,1,8,0:0:0:0:
247,194,2648,1,0,0:0:0:0:
256,192,2948,12,0,3998,0:0:0:0:
247,194,4298,5,8,0:0:0:0:
247,194,4448,1,8,0:0:0:0:
247,194,4748,1,8,0:0:0:0:
247,194,5048,1,8,0:0:0:0:
247,194,5198,1,0,0:0:0:0:
247,194,5348,1,8,0:0:0:0:
247,194,5948,1,8,0:0:0:0:
247,194,6398,1,8,0:0:0:0:
247,194,6698,1,0,0:0:0:0:
247,194,6998,1,8,0:0:0:0:
247,194,7448,1,8,0:0:0:0:
247,194,7598,1,0,0:0:0:0:
247,194,7748,1,8,0:0:0:0:
247,194,8348,1,8,0:0:0:0:
247,194,8498,1,8,0:0:0:0:
247,194,8798,1,0,0:0:0:0:
247,194,9098,1,0,0:0:0:0:
247,194,9398,1,8,0:0:0:0:
247,194,9848,1,0,0:0:0:0:
247,194,9998,1,0,0:0:0:0:
247,194,10148,1,8,0:0:0:0:
247,194,10748,1,8,0:0:0:0:
247,194,11198,1,8,0:0:0:0:
247,194,11498,1,0,0:0:0:0:
247,194,11798,1,0,0:0:0:0:
247,194,11948,1,0,0:0:0:0:
247,194,12248,1,8,0:0:0:0:
247,194,12548,1,0,0:0:0:0:
247,194,12848,1,8,0:0:0:0:
247,194,13448,1,0,0:0:0:0:
247,194,13898,1,0,0:0:0:0:
247,194,14048,1,8,0:0:0:0:
247,194,14198,1,8,0:0:0:0:
247,194,14348,1,8,0:0:0:0:
247,194,14648,1,0,0:0:0:0:
247,194,14948,1,12,0:0:0:0:
247,194,15248,1,8,0:0:0:0:
247,194,15548,1,8,0:0:0:0:
247,194,15998,1,0,0:0:0:0:
247,194,16298,1,8,0:0:0:0:
247,194,16598,1,8,0:0:0:0:
247,194,16898,1,0,0:0:0:0:
247,194,17048,1,0,0:0:0:0:
247,194,17348,1,12,0:0:0:0:
247,194,17648,1,8,0:0:0:0:
247,194,17948,1,8,0:0:0:0:
247,194,18398,1,0,0:0:0:0:
247,194,18698,1,8,0:0:0:0:
247,194,18998,1,0,0:0:0:0:
247,194,19298,1,8,0:0:0:0:
247,194,19448,1,8,0:0:0:0:
247,194,19748,1,8,0:0:0:0:
247,194,20348,1,8,0:0:0:0:
247,194,20798,1,0,0:0:0:0:
247,194,21398,1,8,0:0:0:0:
247,194,21848,1,8,0:0:0:0:
247,194,22148,1,0,0:0:0:0:
247,194,22448,1,0,0:0:0:0:
247,194,22598,1,8,0:0:0:0:
247,194,22898,1,8,0:0:0:0:
247,194,23048,1,0,0:0:0:0:
247,194,23198,1,8,0:0:0:0:
247,194,24548,1,4,0:0:0:0:
247,194,24848,1,8,0:0:0:0:
247,194,25148,1,8,0:0:0:0:
247,194,25598,1,0,0:0:0:0:
247,194,25898,1,8,0:0:0:0:
247,194,26198,1,8,0:0:0:0:
247,194,26498,1,8,0:0:0:0:
247,194,26798,1,0,0:0:0:0:
247,194,26948,1,12,0:0:0:0:
247,194,27248,1,0,0:0:0:0:
247,194,27548,1,8,0:0:0:0:
247,194,27998,1,0,0:0:0:0:
247,194,28298,1,8,0:0:0:0:
247,194,28598,1,0,0:0:0:0:
247,194,29048,1,8,0:0:0:0:
247,194,29348,1,0,0:0:0:0:
247,194,29948,1,8,0:0:0:0:
247,194,30398,1,0,0:0:0:0:
247,194,30998,1,8,0:0:0:0:
247,194,31448,1,0,0:0:0:0:
247,194,31748,1,8,0:0:0:0:
247,194,32048,1,8,0:0:0:0:
247,194,32348,1,0,0:0:0:0:
247,194,32648,1,8,0:0:0:0:
247,194,32798,1,8,0:0:0:0:
247,194,33698,1,0,0:0:0:0:
247,194,33848,1,8,0:0:0:0:
247,194,33998,1,0,0:0:0:0:
247,194,34148,1,8,0:0:0:0:
247,194,34448,1,8,0:0:0:0:
247,194,34748,1,8,0:0:0:0:
247,194,34898,1,0,0:0:0:0:
247,194,35048,1,8,0:0:0:0:
247,194,35348,1,0,0:0:0:0:
247,194,35648,1,8,0:0:0:0:
247,194,35948,1,0,0:0:0:0:
247,194,36398,1,0,0:0:0:0:
247,194,36548,1,0,0:0:0:0:
247,194,36998,1,0,0:0:0:0:
247,194,37448,1,8,0:0:0:0:
247,194,37748,1,0,0:0:0:0:
247,194,38498,1,8,0:0:0:0:
247,194,38648,1,0,0:0:0:0:
247,194,38798,1,0,0:0:0:0:
247,194,38948,1,0,0:0:0:0:
247,194,39098,1,8,0:0:0:0:
247,194,39398,1,8,0:0:0:0:
247,194,39698,1,8,0:0:0:0:
247,194,39998,1,8,0:0:0:0:
247,194,40148,1,0,0:0:0:0:
247,194,40298,1,8,0:0:0:0:
247,194,40448,1,0,0:0:0:0:
247,194,40598,1,8,0:0:0:0:
247,194,40898,1,0,0:0:0:0:
247,194,41198,1,8,0:0:0:0:
247,194,41498,1,8,0:0:0:0:
247,194,41798,1,0,0:0:0:0:
247,194,42098,1,8,0:0:0:0:
247,194,42398,1,0,0:0:0:0:
247,194,43448,1,12,0:0:0:0:
247,194,43748,1,4,0:0:0:0:
247,194,44348,1,8,0:0:0:0:
247,194,44798,1,8,0:0:0:0:
247,194,45098,1,0,0:0:0:0:
247,194,45398,1,8,0:0:0:0:
247,194,45698,1,8,0:0:0:0:
247,194,45848,1,0,0:0:0:0:
247,194,46148,1,12,0:0:0:0:
247,194,46748,1,0,0:0:0:0:
247,194,47198,1,0,0:0:0:0:
247,194,47498,1,8,0:0:0:0:
247,194,47798,1,0,0:0:0:0:
247,194,48098,1,8,0:0:0:0:
247,194,48248,1,0,0:0:0:0:
247,194,48548,1,12,0:0:0:0:
247,194,49148,1,8,0:0:0:0:
247,194,49598,1,8,0:0:0:0:
247,194,49898,1,0,0:0:0:0:
247,194,50198,1,8,0:0:0:0:
247,194,50498,1,0,0:0:0:0:
247,194,50648,1,8,0:0:0:0:
247,194,50948,1,4,0:0:0:0:
247,194,51548,1,4,0:0:0:0:
247,194,52148,1,4,0:0:0:0:
247,194,52748,1,4,0:0:0:0:
247,194,53348,1,4,0:0:0:0:
247,194,53948,1,4,0:0:0:0:
247,194,54548,1,4,0:0:0:0:
256,192,54698,12,0,55598,0:0:0:0:
247,194,55748,5,0,0:0:0:0:
247,194,56048,1,0,0:0:0:0:
247,194,56348,1,8,0:0:0:0:
247,194,56498,1,8,0:0:0:0:
247,194,56648,1,8,0:0:0:0:
247,194,56798,1,0,0:0:0:0:
247,194,56948,1,8,0:0:0:0:
247,194,57248,1,8,0:0:0:0:
247,194,57398,1,8,0:0:0:0:
247,194,57548,1,0,0:0:0:0:
247,194,57848,1,8,0:0:0:0:
247,194,57998,1,8,0:0:0:0:
247,194,58148,1,0,0:0:0:0:
247,194,58448,1,0,0:0:0:0:
247,194,58748,1,8,0:0:0:0:
247,194,59348,1,0,0:0:0:0:
247,194,59648,1,8,0:0:0:0:
247,194,59798,1,8,0:0:0:0:
247,194,59948,1,0,0:0:0:0:
247,194,60248,1,8,0:0:0:0:
247,194,60548,1,8,0:0:0:0:
247,194,60698,1,0,0:0:0:0:
247,194,60848,1,8,0:0:0:0:
247,194,60998,1,0,0:0:0:0:
247,194,61148,1,8,0:0:0:0:
247,194,61448,1,0,0:0:0:0:
247,194,61748,1,8,0:0:0:0:
247,194,61898,1,8,0:0:0:0:
247,194,62048,1,0,0:0:0:0:
247,194,62198,1,8,0:0:0:0:
247,194,62348,1,0,0:0:0:0:
247,194,62648,1,8,0:0:0:0:
247,194,62948,1,0,0:0:0:0:
247,194,63098,1,0,0:0:0:0:
247,194,63248,1,8,0:0:0:0:
247,194,63548,1,8,0:0:0:0:
247,194,64148,1,0,0:0:0:0:
247,194,64448,1,8,0:0:0:0:
247,194,64748,1,8,0:0:0:0:
247,194,65048,1,0,0:0:0:0:
247,194,65498,1,8,0:0:0:0:
247,194,65648,1,8,0:0:0:0:
247,194,65798,1,0,0:0:0:0:
247,194,65948,1,0,0:0:0:0:
247,194,66098,1,8,0:0:0:0:
247,194,66248,1,8,0:0:0:0:
247,194,66548,1,8,0:0:0:0:
247,194,66848,1,8,0:0:0:0:
247,194,66998,1,0,0:0:0:0:
247,194,67148,1,8,0:0:0:0:
247,194,67448,1,0,0:0:0:0:
247,194,67748,1,0,0:0:0:0:
247,194,67898,1,0,0:0:0:0:
247,194,68048,1,8,0:0:0:0:
247,194,68198,1,0,0:0:0:0:
247,194,68348,1,8,0:0:0:0:
247,194,68948,1,0,0:0:0:0:
247,194,69248,1,0,0:0:0:0:
247,194,69398,1,8,0:0:0:0:
247,194,69548,1,0,0:0:0:0:
247,194,69848,1,0,0:0:0:0:
247,194,70148,1,8,0:0:0:0:
247,194,70298,1,8,0:0:0:0:
247,194,70448,1,8,0:0:0:0:
247,194,70598,1,8,0:0:0:0:
247,194,70748,1,0,0:0:0:0:
247,194,71048,1,8,0:0:0:0:
247,194,71348,1,0,0:0:0:0:
247,194,71648,1,12,0:0:0:0:
247,194,72248,1,12,0:0:0:0:
247,194,72848,1,12,0:0:0:0:
247,194,73448,1,12,0:0:0:0:
247,194,73748,1,0,0:0:0:0:
247,194,74048,1,8,0:0:0:0:
247,194,74348,1,8,0:0:0:0:
247,194,74648,1,0,0:0:0:0:
247,194,74948,1,8,0:0:0:0:
247,194,75548,1,0,0:0:0:0:
247,194,76148,1,8,0:0:0:0:
247,194,76748,1,0,0:0:0:0:
247,194,77348,1,8,0:0:0:0:
247,194,77648,1,8,0:0:0:0:
247,194,77948,1,0,0:0:0:0:
247,194,78248,1,0,0:0:0:0:
247,194,78548,1,8,0:0:0:0:
247,194,78698,1,8,0:0:0:0:
247,194,78848,1,0,0:0:0:0:
247,194,78998,1,0,0:0:0:0:
247,194,79148,1,8,0:0:0:0:
247,194,79448,1,0,0:0:0:0:
247,194,79748,1,8,0:0:0:0:
247,194,79898,1,0,0:0:0:0:
247,194,80048,1,8,0:0:0:0:
247,194,80198,1,0,0:0:0:0:
247,194,80348,1,8,0:0:0:0:
247,194,80498,1,0,0:0:0:0:
247,194,80648,1,8,0:0:0:0:
247,194,80948,1,0,0:0:0:0:
247,194,81098,1,0,0:0:0:0:
247,194,81248,1,8,0:0:0:0:
247,194,81398,1,8,0:0:0:0:
247,194,81548,1,0,0:0:0:0:
247,194,82148,1,8,0:0:0:0:
247,194,82448,1,8,0:0:0:0:
247,194,82748,1,8,0:0:0:0:
247,194,82898,1,0,0:0:0:0:
247,194,83048,1,8,0:0:0:0:
247,194,83348,1,8,0:0:0:0:
247,194,83498,1,8,0:0:0:0:
247,194,83648,1,0,0:0:0:0:
247,194,83798,1,0,0:0:0:0:
247,194,83948,1,8,0:0:0:0:
247,194,84248,1,0,0:0:0:0:
247,194,84548,1,8,0:0:0:0:
247,194,84998,1,8,0:0:0:0:
247,194,85448,1,8,0:0:0:0:
247,194,85898,1,8,0:0:0:0:
247,194,86048,1,8,0:0:0:0:
247,194,86348,1,8,0:0:0:0:
247,194,86648,1,0,0:0:0:0:
256,192,86798,12,0,87998,0:0:0:0:
