osu file format v14

[General]
AudioFilename: audio.mp3
AudioLeadIn: 0
PreviewTime: 55748
Countdown: 0
SampleSet: Normal
StackLeniency: 0.7
Mode: 1
LetterboxInBreaks: 0
WidescreenStoryboard: 1

[Editor]
DistanceSpacing: 0.6
BeatDivisor: 4
GridSize: 16
TimelineZoom: 1.8

[Metadata]
Title:Hyadain's Jojo Yujo (TV Size)
TitleUnicode:ヒャダインのじょーじょーゆーじょー (TV Size)
Artist:Hyadain
ArtistUnicode:ヒャダイン
Creator:Molybdenum
Version:Catzer's Oni!
Source:日常
Tags:catzertm nichijou hyadains amazing friendship 前山田健一 maeyamada kenichi vocals anime pop japanese second 2nd op opening theme song no joujou yuujou jpop j-pop j male female vocalists multiple duet keiichi arawi あらゐけいいち
BeatmapID:3897427
BeatmapSetID:1849682

[Difficulty]
HPDrainRate:5.5
CircleSize:2
OverallDifficulty:5.5
ApproachRate:10
SliderMultiplier:1.4
SliderTickRate:1

[Events]
//Background and Video events
0,0,"yuuko_and_mio_from_nichijou_by_matsumayu_dd6is9s.png",0,90
Video,-37,"output.mp4"
//Break Periods
//Storyboard Layer 0 (Background)
//Storyboard Layer 1 (Fail)
//Storyboard Layer 2 (Pass)
//Storyboard Layer 3 (Foreground)
//Storyboard Layer 4 (Overlay)
//Storyboard Sound Samples

[TimingPoints]
548,300,4,1,0,65,1,0
22438,-103.896103896104,4,1,0,65,0,0
22588,-105.960264900662,4,1,0,65,0,0
22663,-107.023411371238,4,1,0,65,0,0
22738,-108.108108108108,4,1,0,65,0,0
22888,-110.344827586207,4,1,0,65,0,0
23038,-112.676056338028,4,1,0,65,0,0
23188,-115.107913669065,4,1,0,65,0,0
23338,-117.647058823529,4,1,0,65,0,0
24238,-103.896103896104,4,1,0,65,0,0
24388,-101.910828025478,4,1,0,65,0,0
24463,-100.946372239748,4,1,0,65,0,0
50938,-125,4,1,0,60,0,8
51138,-123.459957576022,4,1,0,60,0,8
51338,-121.938888997385,4,1,0,60,0,8
51538,-120.436560499875,4,1,0,60,0,8
51738,-118.952741199332,4,1,0,60,0,8
51938,-117.487203056168,4,1,0,60,0,8
52138,-116.03972084032,4,1,0,60,0,8
52338,-114.610072096634,4,1,0,60,0,8
52538,-113.198037110682,4,1,0,60,0,8
52738,-111.803398874989,4,1,0,60,0,8
52938,-110.42594305569,4,1,0,60,0,8
53138,-109.065457959581,4,1,0,60,0,8
53338,-107.721734501594,4,1,0,60,0,8
53538,-106.394566172658,4,1,0,60,0,8
53738,-105.083749007965,4,1,0,60,0,8
53938,-103.789081555621,4,1,0,60,0,8
54138,-102.51036484569,4,1,0,60,0,8
54338,-101.247402359611,4,1,0,60,0,8
54538,-100,4,1,0,60,0,8
54623,-90.9090909090909,4,1,0,60,0,8
55673,-100,4,1,0,60,0,8
56338,-100,4,1,0,60,0,8
56488,-97.6454089676311,4,1,0,60,0,8
56638,-95.3462589245592,4,1,0,60,0,8
56788,-93.1012444622223,4,1,0,60,0,8
56948,-93.1012444622223,4,1,0,60,0,9
71348,-93.1012444622223,4,1,0,60,0,8
77348,-93.1012444622223,4,1,0,60,0,9
81548,-93.1012444622223,4,1,0,60,0,8
82148,-93.1012444622223,4,1,0,60,0,9
84548,-93.1012444622223,4,1,0,60,0,8
85898,-93.1012444622223,4,1,0,60,0,9
87998,-93.1012444622223,4,1,0,60,0,8

[HitObjects]
40,127,248,5,8,0:0:0:0:
40,127,323,1,8,0:0:0:0:
164,195,398,1,0,0:0:0:0:
164,195,473,1,0,0:0:0:0:
203,86,548,5,12,0:0:0:0:
61,125,848,1,8,0:0:0:0:
61,125,1148,1,8,0:0:0:0:
286,179,1298,1,0,0:0:0:0:
305,125,1448,1,8,0:0:0:0:
124,96,1748,1,8,0:0:0:0:
124,96,1898,1,0,0:0:0:0:
124,96,2048,1,8,0:0:0:0:
202,71,2198,1,8,0:0:0:0:
202,71,2348,1,0,0:0:0:0:
158,100,2648,1,8,0:0:0:0:
186,79,2948,1,4,0:0:0:0:
189,69,3098,1,0,0:0:0:0:
189,69,3248,1,8,0:0:0:0:
189,69,3398,1,4,0:0:0:0:
256,55,3548,1,0,0:0:0:0:
256,55,3698,1,8,0:0:0:0:
256,55,3848,1,4,0:0:0:0:
151,69,3998,1,0,0:0:0:0:
151,69,4298,1,8,0:0:0:0:
151,69,4448,1,8,0:0:0:0:
151,69,4598,1,8,0:0:0:0:
151,69,4748,1,8,0:0:0:0:
151,69,4898,1,8,0:0:0:0:
151,69,5048,1,8,0:0:0:0:
153,85,5198,1,8,0:0:0:0:
163,76,5348,1,4,0:0:0:0:
144,157,5648,1,8,0:0:0:0:
351,139,5948,1,0,0:0:0:0:
351,139,6098,1,0,0:0:0:0:
351,139,6248,1,8,0:0:0:0:
54,130,6398,1,0,0:0:0:0:
204,127,6698,1,0,0:0:0:0:
204,127,6848,1,8,0:0:0:0:
182,86,6998,1,0,0:0:0:0:
182,86,7148,1,0,0:0:0:0:
182,86,7298,1,8,0:0:0:0:
196,74,7448,1,8,0:0:0:0:
232,48,7598,1,0,0:0:0:0:
147,54,7673,1,0,0:0:0:0:
147,54,7748,1,0,0:0:0:0:
147,54,8048,1,8,0:0:0:0:
243,98,8348,1,0,0:0:0:0:
243,98,8498,1,0,0:0:0:0:
243,98,8648,1,8,0:0:0:0:
243,98,8798,1,0,0:0:0:0:
157,82,9098,1,8,0:0:0:0:
157,82,9248,1,0,0:0:0:0:
185,88,9398,1,8,0:0:0:0:
97,94,9473,1,8,0:0:0:0:
40,120,9548,1,0,0:0:0:0:
40,120,9698,1,0,0:0:0:0:
145,102,9848,1,8,0:0:0:0:
164,69,9998,1,8,0:0:0:0:
164,69,10148,1,4,0:0:0:0:
264,119,10448,1,8,0:0:0:0:
264,119,10598,1,0,0:0:0:0:
264,119,10748,1,4,0:0:0:0:
264,119,10898,1,0,0:0:0:0:
264,119,11048,1,8,0:0:0:0:
264,119,11198,1,4,0:0:0:0:
218,82,11498,1,0,0:0:0:0:
269,48,11648,1,8,0:0:0:0:
218,82,11798,1,0,0:0:0:0:
218,82,11948,1,0,0:0:0:0:
218,82,12248,1,8,0:0:0:0:
241,74,12548,1,0,0:0:0:0:
240,74,12848,1,8,0:0:0:0:
240,74,13148,1,0,0:0:0:0:
241,74,13298,1,0,0:0:0:0:
241,74,13448,1,8,0:0:0:0:
240,74,13598,1,0,0:0:0:0:
31,191,13898,1,8,0:0:0:0:
31,191,14048,1,0,0:0:0:0:
31,191,14198,1,0,0:0:0:0:
31,191,14348,1,8,0:0:0:0:
240,74,14498,1,0,0:0:0:0:
240,74,14573,1,0,0:0:0:0:
240,74,14648,1,8,0:0:0:0:
240,74,14948,1,4,0:0:0:0:
196,82,15248,1,8,0:0:0:0:
170,128,15548,1,0,0:0:0:0:
170,128,15698,1,0,0:0:0:0:
170,128,15848,1,8,0:0:0:0:
170,128,15998,1,0,0:0:0:0:
216,88,16298,1,0,0:0:0:0:
216,88,16448,1,8,0:0:0:0:
216,88,16598,1,8,0:0:0:0:
74,133,16673,1,8,0:0:0:0:
74,133,16748,1,0,0:0:0:0:
304,104,16898,1,0,0:0:0:0:
304,104,17048,1,8,0:0:0:0:
304,104,17198,1,8,0:0:0:0:
209,42,17348,1,0,0:0:0:0:
203,88,17648,1,8,0:0:0:0:
191,99,17948,1,0,0:0:0:0:
191,99,18098,1,0,0:0:0:0:
191,99,18248,1,8,0:0:0:0:
191,99,18398,1,0,0:0:0:0:
87,125,18698,1,8,0:0:0:0:
87,125,18848,1,8,0:0:0:0:
87,125,18998,1,0,0:0:0:0:
87,125,19073,1,0,0:0:0:0:
107,113,19148,1,0,0:0:0:0:
135,96,19298,1,0,0:0:0:0:
135,96,19448,1,8,0:0:0:0:
132,103,19598,1,0,0:0:0:0:
132,103,19748,1,12,0:0:0:0:
157,96,20048,1,8,0:0:0:0:
157,96,20198,1,0,0:0:0:0:
157,96,20348,1,12,0:0:0:0:
107,158,20498,1,0,0:0:0:0:
107,158,20648,1,8,0:0:0:0:
107,158,20798,1,4,0:0:0:0:
143,173,21098,1,0,0:0:0:0:
143,173,21398,1,0,0:0:0:0:
213,22,21473,1,0,0:0:0:0:
143,181,21548,1,0,0:0:0:0:
143,181,21698,1,0,0:0:0:0:
145,180,21848,1,8,0:0:0:0:
145,180,21998,1,0,0:0:0:0:
269,216,22148,1,8,0:0:0:0:
200,80,22448,1,0,0:0:0:0:
200,80,22598,1,8,0:0:0:0:
200,80,22673,1,0,0:0:0:0:
200,80,22748,1,0,0:0:0:0:
153,129,22898,1,0,0:0:0:0:
153,129,23048,1,8,0:0:0:0:
153,129,23198,1,0,0:0:0:0:
253,72,24248,1,8,0:0:0:0:
208,130,24398,1,0,0:0:0:0:
253,72,24548,1,12,0:0:0:0:
75,150,24848,1,8,0:0:0:0:
75,150,24998,1,8,0:0:0:0:
75,150,25073,1,8,0:0:0:0:
104,124,25148,1,0,0:0:0:0:
104,124,25298,1,0,0:0:0:0:
75,150,25448,1,8,0:0:0:0:
75,150,25598,1,0,0:0:0:0:
75,150,25898,1,8,0:0:0:0:
75,150,26048,1,0,0:0:0:0:
78,146,26198,1,8,0:0:0:0:
202,135,26348,1,0,0:0:0:0:
202,135,26498,1,8,0:0:0:0:
202,135,26573,1,8,0:0:0:0:
59,131,26648,1,0,0:0:0:0:
59,131,26798,1,8,0:0:0:0:
59,131,26948,1,0,0:0:0:0:
152,107,27248,1,8,0:0:0:0:
152,107,27548,1,0,0:0:0:0:
215,95,27698,1,0,0:0:0:0:
298,173,27773,1,0,0:0:0:0:
215,95,27848,1,8,0:0:0:0:
215,95,27998,1,0,0:0:0:0:
12,138,28298,1,0,0:0:0:0:
12,138,28448,1,8,0:0:0:0:
12,138,28598,1,8,0:0:0:0:
48,100,28673,1,8,0:0:0:0:
141,103,28748,1,0,0:0:0:0:
141,103,28898,1,0,0:0:0:0:
240,135,28973,1,0,0:0:0:0:
157,93,29048,1,8,0:0:0:0:
135,109,29123,1,0,0:0:0:0:
203,79,29198,1,0,0:0:0:0:
203,79,29348,1,12,0:0:0:0:
126,122,29648,1,8,0:0:0:0:
126,122,29798,1,0,0:0:0:0:
143,120,29948,1,12,0:0:0:0:
96,102,30098,1,0,0:0:0:0:
96,102,30248,1,8,0:0:0:0:
97,102,30398,1,4,0:0:0:0:
82,143,30698,1,0,0:0:0:0:
82,143,30998,1,0,0:0:0:0:
82,143,31073,1,0,0:0:0:0:
82,143,31148,1,0,0:0:0:0:
82,143,31298,1,0,0:0:0:0:
82,143,31448,1,8,0:0:0:0:
132,162,31598,1,0,0:0:0:0:
132,162,31748,1,8,0:0:0:0:
246,88,32048,1,8,0:0:0:0:
246,88,32123,1,8,0:0:0:0:
246,88,32198,1,0,0:0:0:0:
179,23,32273,1,0,0:0:0:0:
246,88,32348,1,8,0:0:0:0:
93,103,32498,1,0,0:0:0:0:
114,104,32648,1,8,0:0:0:0:
114,106,32798,1,0,0:0:0:0:
117,104,33098,1,0,0:0:0:0:
160,78,33398,1,0,0:0:0:0:
148,94,33548,1,0,0:0:0:0:
297,173,33698,1,0,0:0:0:0:
297,173,33848,1,8,0:0:0:0:
297,173,34148,1,0,0:0:0:0:
297,173,34373,1,0,0:0:0:0:
297,173,34448,1,8,0:0:0:0:
72,116,34598,1,0,0:0:0:0:
170,160,34673,1,0,0:0:0:0:
331,139,34748,1,0,0:0:0:0:
50,98,34898,1,8,0:0:0:0:
212,107,35048,1,8,0:0:0:0:
212,107,35198,1,0,0:0:0:0:
212,107,35348,1,8,0:0:0:0:
212,107,35573,1,0,0:0:0:0:
146,106,35648,1,8,0:0:0:0:
146,106,35798,1,8,0:0:0:0:
146,106,35948,1,0,0:0:0:0:
123,146,36098,1,8,0:0:0:0:
112,153,36248,1,0,0:0:0:0:
112,153,36398,1,0,0:0:0:0:
146,106,36698,1,8,0:0:0:0:
146,106,36848,1,0,0:0:0:0:
44,116,36998,1,0,0:0:0:0:
146,106,37073,1,0,0:0:0:0:
146,106,37148,1,0,0:0:0:0:
146,106,37298,1,8,0:0:0:0:
152,99,37448,1,0,0:0:0:0:
152,99,37598,1,0,0:0:0:0:
201,121,37748,1,8,0:0:0:0:
169,135,37898,1,0,0:0:0:0:
201,121,38048,1,8,0:0:0:0:
201,121,38123,1,8,0:0:0:0:
201,121,38198,1,0,0:0:0:0:
201,121,38348,1,0,0:0:0:0:
240,91,38648,1,8,0:0:0:0:
240,91,38948,1,0,0:0:0:0:
240,91,39098,1,8,0:0:0:0:
256,74,39173,1,0,0:0:0:0:
223,67,39248,1,8,0:0:0:0:
223,67,39398,1,8,0:0:0:0:
223,67,39548,1,0,0:0:0:0:
223,67,39698,1,0,0:0:0:0:
154,112,39773,1,0,0:0:0:0:
223,67,39848,1,8,0:0:0:0:
227,179,39998,1,8,0:0:0:0:
227,179,40073,1,8,0:0:0:0:
227,179,40148,1,8,0:0:0:0:
227,179,40298,1,0,0:0:0:0:
227,179,40448,1,8,0:0:0:0:
98,135,40598,1,8,0:0:0:0:
98,135,40748,1,0,0:0:0:0:
271,91,40898,1,0,0:0:0:0:
271,91,41048,1,0,0:0:0:0:
271,91,41198,1,8,0:0:0:0:
90,178,41498,1,0,0:0:0:0:
90,178,41648,1,8,0:0:0:0:
222,115,41798,1,8,0:0:0:0:
222,115,41948,1,0,0:0:0:0:
222,115,42098,1,8,0:0:0:0:
222,115,42173,1,8,0:0:0:0:
109,65,42248,1,0,0:0:0:0:
220,95,42398,1,8,0:0:0:0:
176,56,42473,1,0,0:0:0:0:
220,95,42548,1,0,0:0:0:0:
220,95,42698,1,8,0:0:0:0:
220,95,42848,1,0,0:0:0:0:
220,95,43148,1,8,0:0:0:0:
220,95,43748,1,4,0:0:0:0:
174,120,44048,1,8,0:0:0:0:
174,120,44348,1,0,0:0:0:0:
174,120,44498,1,8,0:0:0:0:
164,125,44798,1,8,0:0:0:0:
164,126,44948,1,8,0:0:0:0:
164,126,45248,1,8,0:0:0:0:
164,125,45548,1,0,0:0:0:0:
164,125,45698,1,0,0:0:0:0:
164,126,45848,1,8,0:0:0:0:
211,104,45998,1,8,0:0:0:0:
211,104,46148,1,4,0:0:0:0:
26,105,46448,1,8,0:0:0:0:
256,68,46748,1,0,0:0:0:0:
256,68,46898,1,0,0:0:0:0:
256,68,47198,1,8,0:0:0:0:
122,46,47348,1,0,0:0:0:0:
122,46,47648,1,8,0:0:0:0:
163,158,47948,1,8,0:0:0:0:
163,158,48098,1,0,0:0:0:0:
163,158,48248,1,8,0:0:0:0:
163,158,48398,1,8,0:0:0:0:
163,158,48548,1,4,0:0:0:0:
206,157,48848,1,8,0:0:0:0:
206,157,48998,1,8,0:0:0:0:
206,157,49148,1,0,0:0:0:0:
228,142,49298,1,8,0:0:0:0:
228,142,49598,1,8,0:0:0:0:
227,142,49748,1,0,0:0:0:0:
228,142,49898,1,0,0:0:0:0:
228,142,50048,1,8,0:0:0:0:
214,123,50198,1,0,0:0:0:0:
214,123,50498,1,0,0:0:0:0:
214,123,50648,1,8,0:0:0:0:
267,72,50948,1,0,0:0:0:0:
282,52,51148,1,8,0:0:0:0:
282,52,51348,1,0,0:0:0:0:
127,55,51548,1,0,0:0:0:0:
248,91,51748,1,8,0:0:0:0:
248,91,51948,1,0,0:0:0:0:
248,91,52148,1,8,0:0:0:0:
248,91,52348,1,8,0:0:0:0:
240,102,52548,1,0,0:0:0:0:
240,102,52748,1,8,0:0:0:0:
240,102,52948,1,8,0:0:0:0:
240,102,53148,1,0,0:0:0:0:
240,102,53348,1,8,0:0:0:0:
240,102,53548,1,0,0:0:0:0:
240,102,53748,1,0,0:0:0:0:
240,102,53948,1,0,0:0:0:0:
236,93,54148,1,8,0:0:0:0:
236,93,54348,1,0,0:0:0:0:
238,90,54548,1,8,0:0:0:0:
197,42,54698,2,0,P|273:109|87:142,1,423.500012924195
155,95,55748,1,0,0:0:0:0:
13,108,56348,1,0,0:0:0:0:
13,108,56498,1,8,0:0:0:0:
13,108,56648,1,0,0:0:0:0:
13,108,56798,1,0,0:0:0:0:
177,148,56948,1,12,0:0:0:0:
139,121,57248,1,8,0:0:0:0:
139,121,57398,1,8,0:0:0:0:
149,113,57473,1,8,0:0:0:0:
149,113,57548,1,0,0:0:0:0:
104,116,57698,1,0,0:0:0:0:
111,116,57848,1,8,0:0:0:0:
111,116,57998,1,0,0:0:0:0:
111,116,58073,1,0,0:0:0:0:
111,116,58148,1,8,0:0:0:0:
147,88,58298,1,8,0:0:0:0:
134,88,58373,1,8,0:0:0:0:
147,88,58448,1,0,0:0:0:0:
133,137,58598,1,8,0:0:0:0:
133,137,58748,1,0,0:0:0:0:
126,163,58898,1,8,0:0:0:0:
119,163,59048,1,8,0:0:0:0:
119,163,59198,1,0,0:0:0:0:
119,163,59348,1,12,0:0:0:0:
282,24,59648,1,8,0:0:0:0:
231,120,59798,1,8,0:0:0:0:
231,120,59873,1,0,0:0:0:0:
254,106,59948,1,0,0:0:0:0:
228,92,60098,1,8,0:0:0:0:
233,88,60248,1,0,0:0:0:0:
238,86,60398,1,0,0:0:0:0:
238,86,60473,1,0,0:0:0:0:
238,86,60548,1,8,0:0:0:0:
213,93,60698,1,0,0:0:0:0:
213,93,60848,1,8,0:0:0:0:
213,93,60923,1,8,0:0:0:0:
213,93,60998,1,0,0:0:0:0:
138,125,61073,1,0,0:0:0:0:
138,125,61148,1,8,0:0:0:0:
304,170,61298,1,0,0:0:0:0:
304,170,61448,1,8,0:0:0:0:
304,170,61598,1,8,0:0:0:0:
304,170,61748,1,4,0:0:0:0:
128,164,62048,1,0,0:0:0:0:
229,104,62198,1,0,0:0:0:0:
229,104,62273,1,0,0:0:0:0:
229,104,62348,1,8,0:0:0:0:
229,104,62498,1,8,0:0:0:0:
229,104,62648,1,0,0:0:0:0:
229,104,62798,1,8,0:0:0:0:
225,94,62873,1,0,0:0:0:0:
229,104,62948,1,0,0:0:0:0:
225,94,63098,1,0,0:0:0:0:
225,96,63248,1,8,0:0:0:0:
136,94,63323,1,8,0:0:0:0:
225,94,63398,1,0,0:0:0:0:
74,109,63548,1,8,0:0:0:0:
140,121,63698,1,8,0:0:0:0:
152,100,63773,1,8,0:0:0:0:
140,121,63848,1,0,0:0:0:0:
419,173,63923,1,8,0:0:0:0:
140,121,63998,1,0,0:0:0:0:
140,121,64148,1,12,0:0:0:0:
127,110,64448,1,0,0:0:0:0:
127,110,64598,1,8,0:0:0:0:
127,110,64748,1,0,0:0:0:0:
96,83,64898,1,0,0:0:0:0:
127,110,65048,1,12,0:0:0:0:
158,58,65348,1,4,0:0:0:0:
63,135,65498,1,8,0:0:0:0:
63,135,65648,1,8,0:0:0:0:
63,135,65723,1,8,0:0:0:0:
63,135,65798,1,0,0:0:0:0:
63,135,65873,1,0,0:0:0:0:
135,96,65948,1,8,0:0:0:0:
135,96,66098,1,8,0:0:0:0:
135,96,66248,1,8,0:0:0:0:
135,96,66398,1,8,0:0:0:0:
135,96,66548,1,4,0:0:0:0:
238,109,66848,1,0,0:0:0:0:
238,109,66998,1,0,0:0:0:0:
238,109,67073,1,0,0:0:0:0:
238,109,67148,1,8,0:0:0:0:
224,93,67298,1,8,0:0:0:0:
224,93,67448,1,0,0:0:0:0:
221,141,67598,1,8,0:0:0:0:
221,141,67673,1,8,0:0:0:0:
221,141,67748,1,0,0:0:0:0:
221,141,67898,1,0,0:0:0:0:
221,141,68048,1,8,0:0:0:0:
221,141,68198,1,0,0:0:0:0:
165,86,68273,1,0,0:0:0:0:
221,141,68348,1,8,0:0:0:0:
279,235,68498,1,8,0:0:0:0:
165,86,68648,1,0,0:0:0:0:
165,86,68798,1,8,0:0:0:0:
165,86,68948,1,4,0:0:0:0:
56,120,69248,1,0,0:0:0:0:
56,120,69398,1,8,0:0:0:0:
103,83,69473,1,8,0:0:0:0:
56,120,69548,1,0,0:0:0:0:
103,83,69698,1,8,0:0:0:0:
103,83,69848,1,0,0:0:0:0:
103,83,69998,1,0,0:0:0:0:
140,29,70073,1,0,0:0:0:0:
157,90,70148,1,8,0:0:0:0:
240,115,70298,1,8,0:0:0:0:
268,90,70448,1,0,0:0:0:0:
268,90,70598,1,0,0:0:0:0:
268,90,70748,1,8,0:0:0:0:
189,71,71048,1,8,0:0:0:0:
189,71,71348,1,0,0:0:0:0:
236,113,71423,1,0,0:0:0:0:
236,113,71498,1,0,0:0:0:0:
236,113,71648,1,12,0:0:0:0:
124,166,71948,1,8,0:0:0:0:
124,166,72023,1,0,0:0:0:0:
124,166,72098,1,0,0:0:0:0:
124,166,72248,1,12,0:0:0:0:
122,131,72548,1,0,0:0:0:0:
131,132,72623,1,0,0:0:0:0:
131,132,72698,1,0,0:0:0:0:
131,132,72848,1,12,0:0:0:0:
150,89,73148,1,8,0:0:0:0:
150,89,73223,1,8,0:0:0:0:
197,34,73298,1,0,0:0:0:0:
197,34,73448,1,12,0:0:0:0:
222,83,73748,1,0,0:0:0:0:
237,79,73823,1,0,0:0:0:0:
237,79,73898,1,0,0:0:0:0:
235,80,74048,1,12,0:0:0:0:
92,106,74348,1,8,0:0:0:0:
223,132,74423,1,8,0:0:0:0:
20,104,74498,1,0,0:0:0:0:
162,76,74573,1,0,0:0:0:0:
92,106,74648,1,12,0:0:0:0:
109,99,74948,1,4,0:0:0:0:
77,193,75248,1,0,0:0:0:0:
225,97,75548,1,12,0:0:0:0:
209,77,75848,1,8,0:0:0:0:
105,116,75998,1,8,0:0:0:0:
105,116,76148,1,4,0:0:0:0:
202,125,76298,1,8,0:0:0:0:
201,126,76448,1,0,0:0:0:0:
165,130,76598,1,0,0:0:0:0:
165,130,76673,1,0,0:0:0:0:
165,130,76748,1,12,0:0:0:0:
165,130,76898,1,0,0:0:0:0:
166,130,77048,1,8,0:0:0:0:
45,93,77123,1,8,0:0:0:0:
181,125,77198,1,0,0:0:0:0:
45,93,77273,1,0,0:0:0:0:
181,125,77348,1,12,0:0:0:0:
157,89,77648,1,8,0:0:0:0:
157,89,77948,1,8,0:0:0:0:
174,84,78098,1,0,0:0:0:0:
174,83,78248,1,8,0:0:0:0:
174,83,78548,1,8,0:0:0:0:
177,82,78698,1,0,0:0:0:0:
177,82,78848,1,8,0:0:0:0:
174,84,78998,1,8,0:0:0:0:
180,81,79148,1,0,0:0:0:0:
255,117,79448,1,8,0:0:0:0:
255,117,79748,1,8,0:0:0:0:
183,136,79898,1,0,0:0:0:0:
210,120,80048,1,8,0:0:0:0:
112,99,80198,1,0,0:0:0:0:
121,98,80348,1,8,0:0:0:0:
156,78,80498,1,8,0:0:0:0:
92,114,80648,1,0,0:0:0:0:
116,116,80798,1,0,0:0:0:0:
120,115,80948,1,8,0:0:0:0:
120,115,81098,1,0,0:0:0:0:
120,115,81248,1,8,0:0:0:0:
120,115,81398,1,8,0:0:0:0:
96,91,82148,1,12,0:0:0:0:
156,181,82448,1,8,0:0:0:0:
244,104,82748,1,8,0:0:0:0:
244,104,82898,1,0,0:0:0:0:
244,104,83048,1,8,0:0:0:0:
244,104,83348,1,8,0:0:0:0:
244,104,83498,1,8,0:0:0:0:
244,104,83648,1,0,0:0:0:0:
91,102,83798,1,0,0:0:0:0:
91,102,83948,1,8,0:0:0:0:
110,83,84248,1,8,0:0:0:0:
110,83,84548,1,4,0:0:0:0:
140,41,84698,1,0,0:0:0:0:
140,41,84848,1,8,0:0:0:0:
140,41,84998,1,4,0:0:0:0:
175,11,85148,1,0,0:0:0:0:
172,73,85298,1,8,0:0:0:0:
189,62,85448,1,4,0:0:0:0:
189,62,85598,1,0,0:0:0:0:
125,87,85898,1,8,0:0:0:0:
142,145,86048,1,8,0:0:0:0:
142,145,86198,1,0,0:0:0:0:
142,145,86348,1,8,0:0:0:0:
142,145,86498,1,0,0:0:0:0:
142,145,86648,1,0,0:0:0:0:
142,145,86798,1,12,0:0:0:0:
