osu file format v14

[General]
AudioFilename: audio.mp3
AudioLeadIn: 0
PreviewTime: 53883
Countdown: 0
SampleSet: Soft
StackLeniency: 0.7
Mode: 3
LetterboxInBreaks: 0
SpecialStyle: 0
WidescreenStoryboard: 1

[Editor]
DistanceSpacing: 0.8
BeatDivisor: 2
GridSize: 32
TimelineZoom: 1.1

[Metadata]
Title:Hyadain no Kakakata Kataomoi - C
TitleUnicode:Hyadain no Kakakata Kataomoi - C
Artist:Hyadain
ArtistUnicode:Hyadain
Creator:Proxian
Version:Easy
Source:Nichijou (My Ordinary Life)
Tags:Nichijou Anime Japanese
BeatmapID:1330209
BeatmapSetID:629641

[Difficulty]
HPDrainRate:9
CircleSize:4
OverallDifficulty:9
ApproachRate:5
SliderMultiplier:1.4
SliderTickRate:1

[Events]
//Background and Video events
0,0,"147431_1313675630908_full.jpg",0,0
//Break Periods
//Storyboard Layer 0 (Background)
//Storyboard Layer 1 (Fail)
//Storyboard Layer 2 (Pass)
//Storyboard Layer 3 (Foreground)
//Storyboard Sound Samples

[TimingPoints]
3883.86700366288,333.333333333333,4,2,2,20,1,0
33217,-111.111111111111,4,2,2,20,0,0
51883,-108.695652173913,4,2,2,20,0,0
52550,-106.382978723404,4,2,2,20,0,0
53217,-104.166666666667,4,2,2,20,0,0
53883,-102.040816326531,4,2,2,20,0,0
54550,-100,4,2,2,20,0,1
75217,-100,4,2,2,20,0,0

[HitObjects]
64,192,1217,5,0,0:0:0:0:
320,192,1217,1,0,0:0:0:0:
448,192,1550,1,0,0:0:0:0:
64,192,1883,1,0,0:0:0:0:
320,192,2217,1,0,0:0:0:0:
448,192,2550,1,0,0:0:0:0:
192,192,2883,1,0,0:0:0:0:
320,192,3217,1,0,0:0:0:0:
64,192,3550,1,0,0:0:0:0:
448,192,3883,1,0,0:0:0:0:
192,192,4217,1,0,0:0:0:0:
320,192,4550,1,0,0:0:0:0:
64,192,4883,1,0,0:0:0:0:
448,192,5217,1,0,0:0:0:0:
192,192,5550,1,0,0:0:0:0:
448,192,5883,1,0,0:0:0:0:
64,192,6217,1,0,0:0:0:0:
192,192,6550,1,0,0:0:0:0:
320,192,6550,1,0,0:0:0:0:
448,192,6883,1,0,0:0:0:0:
64,192,7217,1,0,0:0:0:0:
320,192,7550,1,0,0:0:0:0:
192,192,7883,1,0,0:0:0:0:
448,192,8217,1,0,0:0:0:0:
64,192,8550,1,0,0:0:0:0:
320,192,8883,1,0,0:0:0:0:
64,192,9217,128,0,9550:0:0:0:0:
192,192,9550,128,0,9883:0:0:0:0:
320,192,9883,128,0,10217:0:0:0:0:
448,192,10217,128,0,10383:0:0:0:0:
64,192,10383,1,0,0:0:0:0:
320,192,10717,1,0,0:0:0:0:
448,192,11050,1,0,0:0:0:0:
64,192,11383,1,0,0:0:0:0:
448,192,11717,1,0,0:0:0:0:
320,192,11717,1,0,0:0:0:0:
64,192,12217,1,0,0:0:0:0:
192,192,12217,1,0,0:0:0:0:
320,192,12550,1,0,0:0:0:0:
64,192,12883,1,0,0:0:0:0:
448,192,13217,1,0,0:0:0:0:
192,192,13550,1,0,0:0:0:0:
320,192,13883,1,0,0:0:0:0:
64,192,14217,1,0,0:0:0:0:
448,192,14550,1,0,0:0:0:0:
192,192,14883,1,0,0:0:0:0:
448,192,15217,1,0,0:0:0:0:
320,192,15383,1,0,0:0:0:0:
64,192,15717,1,0,0:0:0:0:
448,192,16050,1,0,0:0:0:0:
320,192,16383,1,0,0:0:0:0:
192,192,16717,1,0,0:0:0:0:
64,192,17050,128,0,17550:0:0:0:0:
320,192,17550,1,0,0:0:0:0:
192,192,17883,1,0,0:0:0:0:
448,192,18217,1,0,0:0:0:0:
64,192,18550,1,0,0:0:0:0:
192,192,18883,1,0,0:0:0:0:
448,192,19217,1,0,0:0:0:0:
64,192,19550,1,0,0:0:0:0:
320,192,19883,1,0,0:0:0:0:
192,192,20217,128,0,20550:0:0:0:0:
448,192,20550,128,0,21050:0:0:0:0:
64,192,21050,128,0,21717:0:0:0:0:
192,192,21717,128,0,22217:0:0:0:0:
448,192,22217,1,0,0:0:0:0:
192,192,22550,1,0,0:0:0:0:
64,192,22550,1,0,0:0:0:0:
448,192,22883,1,0,0:0:0:0:
192,192,23217,1,0,0:0:0:0:
64,192,23217,1,0,0:0:0:0:
320,192,23550,1,0,0:0:0:0:
448,192,23883,1,0,0:0:0:0:
64,192,24217,1,0,0:0:0:0:
192,192,24550,1,0,0:0:0:0:
320,192,24883,1,0,0:0:0:0:
448,192,25217,1,0,0:0:0:0:
192,192,25217,1,0,0:0:0:0:
64,192,25550,1,0,0:0:0:0:
192,192,25883,1,0,0:0:0:0:
448,192,25883,1,0,0:0:0:0:
64,192,26217,1,0,0:0:0:0:
320,192,26550,1,0,0:0:0:0:
192,192,26883,1,0,0:0:0:0:
448,192,27217,1,0,0:0:0:0:
64,192,27550,1,0,0:0:0:0:
320,192,27883,1,0,0:0:0:0:
448,192,27883,1,0,0:0:0:0:
64,192,28217,1,0,0:0:0:0:
320,192,28550,1,0,0:0:0:0:
448,192,28550,1,0,0:0:0:0:
192,192,28883,1,0,0:0:0:0:
448,192,29217,1,0,0:0:0:0:
64,192,29550,1,0,0:0:0:0:
192,192,29883,1,0,0:0:0:0:
320,192,30217,1,0,0:0:0:0:
448,192,30550,1,0,0:0:0:0:
320,192,30717,1,0,0:0:0:0:
448,192,31050,1,0,0:0:0:0:
320,192,31383,1,0,0:0:0:0:
64,192,31717,128,0,33217:0:0:0:0:
320,192,33217,1,0,0:0:0:0:
192,192,33217,1,0,0:0:0:0:
448,192,33550,1,0,0:0:0:0:
64,192,33883,1,0,0:0:0:0:
192,192,34217,1,0,0:0:0:0:
448,192,34550,1,0,0:0:0:0:
64,192,34883,1,0,0:0:0:0:
192,192,35217,1,0,0:0:0:0:
320,192,35550,1,0,0:0:0:0:
448,192,35883,1,0,0:0:0:0:
192,192,35883,1,0,0:0:0:0:
64,192,36217,1,0,0:0:0:0:
448,192,36550,1,0,0:0:0:0:
64,192,36883,1,0,0:0:0:0:
192,192,37217,1,0,0:0:0:0:
320,192,37383,1,0,0:0:0:0:
448,192,37717,1,0,0:0:0:0:
64,192,38050,128,0,38550:0:0:0:0:
448,192,38550,1,0,0:0:0:0:
320,192,38883,1,0,0:0:0:0:
64,192,39217,1,0,0:0:0:0:
320,192,39550,1,0,0:0:0:0:
192,192,39883,1,0,0:0:0:0:
448,192,40217,1,0,0:0:0:0:
64,192,40550,1,0,0:0:0:0:
320,192,40883,1,0,0:0:0:0:
448,192,41217,1,0,0:0:0:0:
64,192,41550,1,0,0:0:0:0:
448,192,41883,1,0,0:0:0:0:
320,192,42217,1,0,0:0:0:0:
64,192,42550,128,0,43217:0:0:0:0:
320,192,43217,1,0,0:0:0:0:
448,192,43550,1,0,0:0:0:0:
192,192,43883,1,0,0:0:0:0:
64,192,43883,1,0,0:0:0:0:
320,192,44217,1,0,0:0:0:0:
448,192,44550,1,0,0:0:0:0:
64,192,44883,1,0,0:0:0:0:
320,192,45217,1,0,0:0:0:0:
192,192,45217,1,0,0:0:0:0:
448,192,45550,1,0,0:0:0:0:
64,192,45883,1,0,0:0:0:0:
192,192,46217,1,0,0:0:0:0:
320,192,46550,1,0,0:0:0:0:
64,192,46883,1,0,0:0:0:0:
448,192,47217,1,0,0:0:0:0:
192,192,47550,1,0,0:0:0:0:
320,192,47883,1,0,0:0:0:0:
448,192,48217,1,0,0:0:0:0:
448,192,48550,1,0,0:0:0:0:
320,192,48883,1,0,0:0:0:0:
64,192,49217,1,0,0:0:0:0:
192,192,49217,1,0,0:0:0:0:
320,192,49550,1,0,0:0:0:0:
448,192,49883,1,0,0:0:0:0:
192,192,49883,1,0,0:0:0:0:
64,192,50217,1,0,0:0:0:0:
192,192,50550,1,0,0:0:0:0:
320,192,50550,1,0,0:0:0:0:
448,192,50883,1,0,0:0:0:0:
64,192,51217,1,0,0:0:0:0:
192,192,51217,1,0,0:0:0:0:
448,192,51550,1,0,0:0:0:0:
192,192,51883,1,0,0:0:0:0:
64,192,51883,1,0,0:0:0:0:
192,192,52550,1,0,0:0:0:0:
64,192,52550,1,0,0:0:0:0:
320,192,53217,1,0,0:0:0:0:
64,192,53550,1,0,0:0:0:0:
448,192,53883,1,0,0:0:0:0:
192,192,54217,1,0,0:0:0:0:
320,192,54550,1,0,0:0:0:0:
448,192,54550,1,0,0:0:0:0:
64,192,54883,1,0,0:0:0:0:
320,192,55217,1,0,0:0:0:0:
192,192,55550,1,0,0:0:0:0:
448,192,55883,1,0,0:0:0:0:
64,192,56217,1,0,0:0:0:0:
320,192,56550,1,0,0:0:0:0:
192,192,56883,1,0,0:0:0:0:
320,192,57217,1,0,0:0:0:0:
448,192,57217,1,0,0:0:0:0:
64,192,57550,1,0,0:0:0:0:
320,192,57883,1,0,0:0:0:0:
192,192,58217,1,0,0:0:0:0:
448,192,58550,1,0,0:0:0:0:
64,192,58883,1,0,0:0:0:0:
320,192,59217,1,0,0:0:0:0:
192,192,59550,1,0,0:0:0:0:
320,192,59883,1,0,0:0:0:0:
448,192,59883,1,0,0:0:0:0:
192,192,60217,1,0,0:0:0:0:
64,192,60550,1,0,0:0:0:0:
320,192,60883,1,0,0:0:0:0:
448,192,61217,1,0,0:0:0:0:
192,192,61550,1,0,0:0:0:0:
448,192,61883,1,0,0:0:0:0:
64,192,62217,1,0,0:0:0:0:
192,192,62550,1,0,0:0:0:0:
320,192,62883,1,0,0:0:0:0:
192,192,63217,1,0,0:0:0:0:
448,192,63550,1,0,0:0:0:0:
320,192,63883,1,0,0:0:0:0:
192,192,64217,1,0,0:0:0:0:
64,192,64550,1,0,0:0:0:0:
192,192,64883,1,0,0:0:0:0:
448,192,65050,1,0,0:0:0:0:
64,192,65383,1,0,0:0:0:0:
320,192,65550,1,0,0:0:0:0:
448,192,65717,1,0,0:0:0:0:
64,192,66217,1,0,0:0:0:0:
320,192,66550,1,0,0:0:0:0:
192,192,66883,1,0,0:0:0:0:
448,192,67217,1,0,0:0:0:0:
192,192,67550,1,0,0:0:0:0:
320,192,67883,1,0,0:0:0:0:
448,192,68217,1,0,0:0:0:0:
64,192,68550,1,0,0:0:0:0:
320,192,68883,1,0,0:0:0:0:
192,192,69217,1,0,0:0:0:0:
64,192,69550,1,0,0:0:0:0:
448,192,69883,1,0,0:0:0:0:
320,192,70217,1,0,0:0:0:0:
192,192,70550,128,0,71050:0:0:0:0:
448,192,71050,128,0,71550:0:0:0:0:
64,192,71550,128,0,72050:0:0:0:0:
320,192,72050,1,0,0:0:0:0:
448,192,72217,1,0,0:0:0:0:
320,192,72383,1,0,0:0:0:0:
64,192,72717,1,0,0:0:0:0:
320,192,73050,1,0,0:0:0:0:
448,192,73383,1,0,0:0:0:0:
192,192,73717,1,0,0:0:0:0:
320,192,74050,1,0,0:0:0:0:
64,192,74383,1,0,0:0:0:0:
320,192,74883,1,0,0:0:0:0:
448,192,75217,1,0,0:0:0:0:
64,192,75550,1,0,0:0:0:0:
192,192,75883,1,0,0:0:0:0:
320,192,75883,1,0,0:0:0:0:
448,192,76217,1,0,0:0:0:0:
64,192,76550,1,0,0:0:0:0:
192,192,76883,1,0,0:0:0:0:
448,192,77217,1,0,0:0:0:0:
320,192,77550,1,0,0:0:0:0:
64,192,77883,1,0,0:0:0:0:
448,192,78217,1,0,0:0:0:0:
192,192,78550,1,0,0:0:0:0:
320,192,78883,1,0,0:0:0:0:
64,192,79217,1,0,0:0:0:0:
448,192,79550,1,0,0:0:0:0:
192,192,79883,1,0,0:0:0:0:
320,192,80217,1,0,0:0:0:0:
448,192,80550,1,0,0:0:0:0:
64,192,80883,1,0,0:0:0:0:
320,192,81217,1,0,0:0:0:0:
192,192,81550,1,0,0:0:0:0:
448,192,81883,1,0,0:0:0:0:
320,192,82217,1,0,0:0:0:0:
192,192,82550,1,0,0:0:0:0:
64,192,82883,1,0,0:0:0:0:
320,192,83217,1,0,0:0:0:0:
448,192,83550,1,0,0:0:0:0:
64,192,83883,128,0,84217:0:0:0:0:
192,192,84217,128,0,84550:0:0:0:0:
320,192,84550,128,0,84883:0:0:0:0:
448,192,84883,128,0,85050:0:0:0:0:
64,192,85050,1,0,0:0:0:0:
320,192,85383,1,0,0:0:0:0:
448,192,85717,1,0,0:0:0:0:
64,192,86050,1,0,0:0:0:0:
192,192,86217,1,0,0:0:0:0:
320,192,86383,128,0,87883:0:0:0:0:
448,192,86383,128,0,87883:0:0:0:0:
