osu file format v14

[General]
AudioFilename: audio.mp3
AudioLeadIn: 0
PreviewTime: 56600
Countdown: 0
SampleSet: None
StackLeniency: 0.7
Mode: 3
LetterboxInBreaks: 0
SpecialStyle: 0
WidescreenStoryboard: 0

[Editor]
Bookmarks: 13400
DistanceSpacing: 0.8
BeatDivisor: 8
GridSize: 8
TimelineZoom: 1.9

[Metadata]
Title:Hyadain no Joujou Yuujou ~TV size~
TitleUnicode:ヒャダインのじょーじょーゆーじょー (TV Size)
Artist:Hyadain
ArtistUnicode:ヒャダイン
Creator:7kitte
Version:MX
Source:日常
Tags:nichijou op opening dkingo
BeatmapID:1235867
BeatmapSetID:576796

[Difficulty]
HPDrainRate:8
CircleSize:4
OverallDifficulty:8.5
ApproachRate:5
SliderMultiplier:1.4
SliderTickRate:1

[Events]
//Background and Video events
0,0,"wp.jpg",0,0
Video,-200,"OP2_(360p).avi"
//Break Periods
//Storyboard Layer 0 (Background)
//Storyboard Layer 1 (Fail)
//Storyboard Layer 2 (Pass)
//Storyboard Layer 3 (Foreground)
//Storyboard Sound Samples

[TimingPoints]
200,300,4,3,1,30,1,0
43175,-66.6666666666667,4,3,1,30,0,0
43250,-133.333333333333,4,3,1,30,0,0
43400,-123.456790123457,4,3,1,30,0,0
50525,-100,4,3,1,30,0,0
50600,-100,4,3,1,30,0,0
50750,-133.333333333333,4,3,1,30,0,0
50825,-117.647058823529,4,3,1,30,0,0
51200,-100,4,3,1,30,0,0
51425,-133.333333333333,4,3,1,30,0,0
51500,-117.647058823529,4,3,1,30,0,0
51800,-100,4,3,1,30,0,0
52025,-133.333333333333,4,3,1,30,0,0
52100,-117.647058823529,4,3,1,30,0,0
52400,-100,4,3,1,30,0,0
52625,-133.333333333333,4,3,1,30,0,0
52700,-117.647058823529,4,3,1,30,0,0
53000,-111.111111111111,4,3,1,30,0,0
53187,-105.263157894737,4,3,1,30,0,0
53375,-100,4,3,1,30,0,0
56600,-100,4,3,1,30,0,1
61325,-100,4,3,1,30,0,0
61400,-100,4,3,1,30,0,1
66125,-100,4,3,1,30,0,0
66200,-100,4,3,1,30,0,1
70437,-100,4,3,1,30,0,1
70587,-333.333333333333,4,3,1,30,0,1
70625,-80,4,3,1,30,0,1
70675,-333.333333333333,4,3,1,30,0,1
70700,-100,4,3,1,30,0,1
70737,-100,4,3,1,30,0,1
71000,-100,4,3,1,30,0,1
71375,-80,4,3,1,30,0,1
71450,-133.333333333333,4,3,1,30,0,1
71525,-100,4,3,1,30,0,1
71975,-66.6666666666667,4,3,1,30,0,1
72050,-133.333333333333,4,3,1,30,0,1
72125,-100,4,3,1,30,0,1
72575,-66.6666666666667,4,3,1,30,0,1
72650,-133.333333333333,4,3,1,30,0,1
72725,-100,4,3,1,30,0,1
73175,-66.6666666666667,4,3,1,30,0,1
73250,-133.333333333333,4,3,1,30,0,1
73325,-100,4,3,1,30,0,1
74300,-100,4,3,1,30,0,0
81575,-66.6666666666667,4,3,1,30,0,0
81650,-133.333333333333,4,3,1,30,0,0
81725,-100,4,3,1,30,0,0

[HitObjects]
64,192,200,5,0,3:1:0:0:
192,192,200,1,0,3:1:0:0:
64,192,500,1,0,3:1:0:0:
448,192,500,1,0,3:1:0:0:
64,192,800,1,0,3:1:0:0:
192,192,800,1,0,3:1:0:0:
448,192,950,1,0,3:1:0:0:
320,192,950,1,0,3:1:0:0:
192,192,1100,1,0,3:1:0:0:
64,192,1100,1,0,3:1:0:0:
192,192,1400,1,0,3:1:0:0:
448,192,1400,1,0,3:1:0:0:
64,192,1550,1,0,3:1:0:0:
448,192,1700,1,0,3:1:0:0:
320,192,1700,1,0,3:1:0:0:
192,192,1850,1,0,3:1:0:0:
64,192,2000,1,0,3:1:0:0:
320,192,2000,1,0,3:1:0:0:
64,192,2300,1,0,3:1:0:0:
448,192,2300,1,0,3:1:0:0:
192,192,2600,1,0,3:1:0:0:
448,192,2600,1,0,3:1:0:0:
448,192,2750,1,0,3:1:0:0:
448,192,2900,1,0,3:1:0:0:
320,192,3050,1,4,3:1:0:0:
64,192,3050,1,0,3:1:0:0:
64,192,3200,1,0,3:1:0:0:
64,192,3350,1,0,3:1:0:0:
448,192,3500,1,0,3:1:0:0:
192,192,3500,1,0,3:1:0:0:
192,192,3650,1,0,3:1:0:0:
320,192,3950,1,0,3:1:0:0:
192,192,3950,1,0,3:1:0:0:
320,192,4100,1,0,3:1:0:0:
192,192,4100,1,0,3:1:0:0:
320,192,4250,1,0,3:1:0:0:
192,192,4250,1,0,3:1:0:0:
448,192,4400,1,0,3:1:0:0:
64,192,4400,1,0,3:1:0:0:
320,192,4550,1,0,3:1:0:0:
192,192,4550,1,0,3:1:0:0:
64,192,4700,1,0,3:1:0:0:
448,192,4700,1,0,3:1:0:0:
320,192,4850,1,0,3:1:0:0:
192,192,4850,1,0,3:1:0:0:
192,192,5000,1,0,3:1:0:0:
64,192,5000,128,0,5300:3:1:0:0:
192,192,5300,1,0,3:1:0:0:
448,192,5300,1,0,3:1:0:0:
320,192,5450,1,0,3:1:0:0:
448,192,5600,1,0,3:1:0:0:
64,192,5600,1,0,0:0:0:0:
320,192,5750,1,0,3:1:0:0:
192,192,5750,1,0,0:0:0:0:
448,192,5900,1,0,3:1:0:0:
192,192,5900,1,0,3:1:0:0:
64,192,5900,1,0,0:0:0:0:
64,192,6050,1,0,3:1:0:0:
320,192,6050,1,0,3:1:0:0:
192,192,6200,1,0,3:1:0:0:
320,192,6350,1,0,3:1:0:0:
448,192,6350,1,0,3:1:0:0:
192,192,6500,1,0,3:1:0:0:
64,192,6500,1,0,3:1:0:0:
320,192,6500,1,0,0:0:0:0:
192,192,6650,1,0,3:1:0:0:
64,192,6650,1,0,0:0:0:0:
448,192,6800,1,0,3:1:0:0:
320,192,6800,1,0,0:0:0:0:
64,192,6950,1,0,3:1:0:0:
320,192,6950,1,0,3:1:0:0:
448,192,7100,1,0,3:1:0:0:
192,192,7100,1,0,3:1:0:0:
64,192,7100,1,0,0:0:0:0:
320,192,7250,1,0,3:1:0:0:
448,192,7250,1,0,0:0:0:0:
192,192,7400,128,0,7700:3:1:0:0:
64,192,7400,1,0,0:0:0:0:
320,192,7550,1,0,3:1:0:0:
448,192,7700,1,0,3:1:0:0:
320,192,7700,1,0,3:1:0:0:
64,192,7850,1,0,3:1:0:0:
448,192,8000,1,0,3:1:0:0:
192,192,8000,1,0,3:1:0:0:
320,192,8150,1,0,3:1:0:0:
64,192,8150,1,0,3:1:0:0:
448,192,8300,1,0,3:1:0:0:
192,192,8300,1,0,3:1:0:0:
64,192,8300,1,0,3:1:0:0:
192,192,8450,1,0,3:1:0:0:
320,192,8450,1,0,3:1:0:0:
320,192,8600,1,0,0:0:0:0:
448,192,8600,1,0,0:0:0:0:
64,192,8750,1,0,3:1:0:0:
192,192,8750,1,0,0:0:0:0:
192,192,8900,1,0,0:0:0:0:
320,192,8900,1,0,0:0:0:0:
448,192,8900,1,0,0:0:0:0:
64,192,9050,1,0,3:1:0:0:
448,192,9050,1,0,0:0:0:0:
320,192,9200,1,0,0:0:0:0:
192,192,9200,1,0,0:0:0:0:
64,192,9350,1,0,0:0:0:0:
192,192,9350,1,0,0:0:0:0:
448,192,9500,1,0,3:1:0:0:
320,192,9500,1,0,0:0:0:0:
192,192,9650,1,0,0:0:0:0:
64,192,9800,128,0,10100:3:1:0:0:
192,192,9800,128,0,10100:3:1:0:0:
448,192,9800,1,0,0:0:0:0:
320,192,10100,1,0,3:1:0:0:
448,192,10100,1,0,0:0:0:0:
448,192,10250,1,0,3:1:0:0:
192,192,10400,128,0,10700:3:1:0:0:
64,192,10400,128,0,10700:3:1:0:0:
320,192,10400,1,0,3:1:0:0:
448,192,10550,1,0,3:1:0:0:
448,192,10700,1,0,3:1:0:0:
320,192,10700,1,0,3:1:0:0:
192,192,10850,128,0,11150:3:1:0:0:
64,192,10850,128,0,11900:3:1:0:0:
320,192,10850,1,0,3:1:0:0:
448,192,11000,1,0,3:1:0:0:
320,192,11150,1,0,3:1:0:0:
320,192,11300,1,0,3:1:0:0:
448,192,11300,1,0,3:1:0:0:
192,192,11450,1,0,3:1:0:0:
320,192,11600,1,0,3:1:0:0:
448,192,11750,1,0,3:1:0:0:
320,192,11900,1,0,3:1:0:0:
192,192,11900,1,0,3:1:0:0:
448,192,12200,128,0,12500:3:1:0:0:
320,192,12200,1,0,3:1:0:0:
192,192,12500,1,0,3:1:0:0:
320,192,12500,1,0,3:1:0:0:
64,192,12800,1,0,3:1:0:0:
192,192,12800,1,0,3:1:0:0:
64,192,12950,1,0,3:1:0:0:
320,192,12950,1,0,3:1:0:0:
448,192,13100,1,0,3:1:0:0:
192,192,13100,1,0,3:1:0:0:
320,192,13100,1,0,3:1:0:0:
448,192,13250,1,0,3:1:0:0:
64,192,13250,1,0,3:1:0:0:
64,192,13550,1,0,3:1:0:0:
192,192,13700,1,0,3:1:0:0:
320,192,13850,1,0,3:1:0:0:
448,192,14000,1,0,3:1:0:0:
64,192,14300,128,0,14600:3:1:0:0:
448,192,14300,1,0,3:1:0:0:
320,192,14600,1,0,3:1:0:0:
448,192,14900,1,0,3:1:0:0:
192,192,14900,1,0,3:1:0:0:
64,192,14900,1,0,3:1:0:0:
320,192,15050,1,0,3:1:0:0:
192,192,15200,1,0,3:1:0:0:
320,192,15350,1,0,3:1:0:0:
448,192,15350,1,0,3:1:0:0:
64,192,15500,1,0,3:1:0:0:
192,192,15500,1,0,3:1:0:0:
448,192,15500,1,0,3:1:0:0:
320,192,15650,1,0,3:1:0:0:
192,192,15800,1,0,3:1:0:0:
64,192,15950,1,0,3:1:0:0:
320,192,15950,1,0,0:0:0:0:
320,192,16100,1,0,3:1:0:0:
192,192,16100,1,0,3:1:0:0:
448,192,16100,1,0,3:1:0:0:
64,192,16250,1,0,3:1:0:0:
320,192,16400,1,0,3:1:0:0:
192,192,16550,1,0,3:1:0:0:
448,192,16550,1,0,3:1:0:0:
448,192,16700,1,0,3:1:0:0:
64,192,16700,1,0,3:1:0:0:
320,192,16700,1,0,3:1:0:0:
192,192,16850,1,0,3:1:0:0:
448,192,17000,128,0,17300:3:1:0:0:
320,192,17000,1,0,3:1:0:0:
192,192,17300,1,0,3:1:0:0:
320,192,17300,1,0,3:1:0:0:
64,192,17300,1,0,3:1:0:0:
448,192,17450,1,0,3:1:0:0:
320,192,17600,1,0,3:1:0:0:
192,192,17750,1,0,3:1:0:0:
64,192,17750,1,0,3:1:0:0:
448,192,17900,1,0,3:1:0:0:
320,192,17900,1,0,3:1:0:0:
64,192,17900,1,0,3:1:0:0:
192,192,18050,1,0,3:1:0:0:
320,192,18200,1,0,3:1:0:0:
448,192,18350,1,0,3:1:0:0:
192,192,18350,1,0,3:1:0:0:
192,192,18500,1,0,3:1:0:0:
320,192,18500,1,0,3:1:0:0:
64,192,18500,1,0,3:1:0:0:
448,192,18650,1,0,3:1:0:0:
192,192,18800,1,0,3:1:0:0:
320,192,18950,1,0,3:1:0:0:
64,192,18950,1,0,3:1:0:0:
192,192,19100,1,0,3:1:0:0:
448,192,19100,1,0,3:1:0:0:
64,192,19100,1,0,3:1:0:0:
320,192,19250,1,0,3:1:0:0:
192,192,19400,128,0,19700:3:1:0:0:
448,192,19400,1,0,3:1:0:0:
64,192,19700,1,0,3:1:0:0:
320,192,19700,1,0,3:1:0:0:
448,192,19700,1,0,3:1:0:0:
64,192,20000,1,0,3:1:0:0:
448,192,20000,128,0,20300:3:1:0:0:
192,192,20150,1,0,3:1:0:0:
64,192,20300,1,0,3:1:0:0:
320,192,20300,1,0,3:1:0:0:
192,192,20300,1,0,3:1:0:0:
320,192,20450,128,0,21200:3:1:0:0:
448,192,20450,1,0,3:1:0:0:
192,192,20750,1,0,3:1:0:0:
448,192,20900,1,0,3:1:0:0:
192,192,20900,1,0,3:1:0:0:
64,192,20900,1,0,3:1:0:0:
64,192,21050,1,0,3:1:0:0:
192,192,21200,1,0,3:1:0:0:
64,192,21350,1,0,3:1:0:0:
192,192,21500,1,0,3:1:0:0:
448,192,21500,1,0,3:1:0:0:
320,192,21500,1,0,3:1:0:0:
320,192,21800,1,0,3:1:0:0:
448,192,21800,128,0,23000:3:1:0:0:
192,192,21950,1,0,3:1:0:0:
64,192,22100,1,0,3:1:0:0:
320,192,22100,1,0,3:1:0:0:
192,192,22100,1,0,3:1:0:0:
64,192,22250,1,0,3:1:0:0:
192,192,22400,1,0,3:1:0:0:
320,192,22550,1,0,3:1:0:0:
320,192,22700,1,0,3:1:0:0:
64,192,22700,1,0,3:1:0:0:
192,192,22700,1,0,0:0:0:0:
64,192,22850,1,0,0:0:0:0:
192,192,23150,1,0,3:1:0:0:
192,192,23300,1,0,3:1:0:0:
192,192,23450,1,0,3:1:0:0:
192,192,23600,1,0,3:1:0:0:
192,192,23750,1,0,3:1:0:0:
448,192,23900,1,0,3:1:0:0:
320,192,23900,1,0,3:1:0:0:
64,192,23900,1,0,3:1:0:0:
192,192,24050,1,0,3:1:0:0:
448,192,24200,128,0,24500:3:1:0:0:
192,192,24200,1,0,3:1:0:0:
64,192,24500,1,0,3:1:0:0:
320,192,24500,1,0,3:1:0:0:
192,192,24500,1,0,3:1:0:0:
192,192,24650,1,0,3:1:0:0:
320,192,24800,1,0,3:1:0:0:
192,192,24950,1,0,3:1:0:0:
448,192,24950,1,0,3:1:0:0:
64,192,25100,1,0,3:1:0:0:
320,192,25100,1,0,3:1:0:0:
192,192,25100,1,0,3:1:0:0:
448,192,25250,1,0,3:1:0:0:
320,192,25400,1,0,3:1:0:0:
64,192,25550,1,0,3:1:0:0:
448,192,25550,1,0,3:1:0:0:
192,192,25700,1,0,3:1:0:0:
448,192,25700,1,0,3:1:0:0:
320,192,25700,1,0,3:1:0:0:
64,192,25850,1,0,3:1:0:0:
448,192,26000,1,0,3:1:0:0:
192,192,26150,1,0,3:1:0:0:
320,192,26150,1,0,3:1:0:0:
320,192,26300,1,0,3:1:0:0:
64,192,26300,1,0,3:1:0:0:
448,192,26300,1,0,3:1:0:0:
192,192,26450,1,0,3:1:0:0:
448,192,26600,128,0,26900:3:1:0:0:
64,192,26600,1,0,3:1:0:0:
320,192,26900,1,0,3:1:0:0:
64,192,26900,1,0,3:1:0:0:
192,192,26900,1,0,3:1:0:0:
192,192,27050,1,0,3:1:0:0:
64,192,27200,1,0,3:1:0:0:
320,192,27350,1,0,3:1:0:0:
448,192,27350,1,0,3:1:0:0:
448,192,27500,1,0,3:1:0:0:
64,192,27500,1,0,3:1:0:0:
192,192,27500,1,0,3:1:0:0:
320,192,27650,1,0,3:1:0:0:
448,192,27800,1,0,3:1:0:0:
64,192,27950,1,0,3:1:0:0:
192,192,27950,1,0,3:1:0:0:
192,192,28100,1,0,3:1:0:0:
320,192,28100,1,0,3:1:0:0:
448,192,28100,1,0,3:1:0:0:
64,192,28250,1,0,3:1:0:0:
192,192,28400,1,0,3:1:0:0:
320,192,28550,1,0,3:1:0:0:
448,192,28550,1,0,3:1:0:0:
192,192,28700,1,0,3:1:0:0:
448,192,28700,1,0,3:1:0:0:
320,192,28850,1,0,3:1:0:0:
448,192,29000,128,0,29600:3:1:0:0:
64,192,29000,1,0,3:1:0:0:
192,192,29150,1,0,3:1:0:0:
320,192,29300,1,0,3:1:0:0:
64,192,29300,1,0,3:1:0:0:
64,192,29450,1,0,3:1:0:0:
320,192,29600,128,0,30050:3:1:0:0:
192,192,29600,1,0,3:1:0:0:
64,192,29750,1,0,3:1:0:0:
448,192,29900,1,0,3:1:0:0:
192,192,29900,1,0,3:1:0:0:
192,192,30050,128,0,30350:3:1:0:0:
64,192,30050,1,0,3:1:0:0:
448,192,30200,1,0,3:1:0:0:
320,192,30350,1,0,3:1:0:0:
192,192,30500,1,0,3:1:0:0:
448,192,30500,1,0,3:1:0:0:
64,192,30500,1,0,3:1:0:0:
320,192,30650,1,0,3:1:0:0:
64,192,30800,1,0,3:1:0:0:
192,192,30950,1,0,3:1:0:0:
448,192,30950,1,0,3:1:0:0:
320,192,31100,1,0,3:1:0:0:
448,192,31100,1,0,3:1:0:0:
64,192,31100,1,0,3:1:0:0:
192,192,31250,1,0,3:1:0:0:
64,192,31400,1,0,3:1:0:0:
320,192,31400,1,0,3:1:0:0:
448,192,31700,1,0,3:1:0:0:
192,192,31700,1,0,3:1:0:0:
320,192,32000,1,0,3:1:0:0:
448,192,32000,1,0,3:1:0:0:
192,192,32150,1,0,3:1:0:0:
64,192,32300,1,0,3:1:0:0:
320,192,32300,1,0,3:1:0:0:
448,192,32450,1,0,3:1:0:0:
64,192,32450,1,0,3:1:0:0:
320,192,32600,1,0,3:1:0:0:
448,192,32675,1,0,3:1:0:0:
192,192,32750,1,0,3:1:0:0:
64,192,32825,1,0,3:1:0:0:
448,192,32900,1,0,3:1:0:0:
320,192,32975,1,0,3:1:0:0:
64,192,33050,1,0,3:1:0:0:
192,192,33125,1,0,3:1:0:0:
448,192,33200,1,0,3:1:0:0:
320,192,33275,1,0,3:1:0:0:
192,192,33350,1,0,3:1:0:0:
64,192,33425,1,0,3:1:0:0:
192,192,33500,1,0,3:1:0:0:
320,192,33575,1,0,3:1:0:0:
448,192,33650,1,0,3:1:0:0:
320,192,33725,1,0,3:1:0:0:
192,192,33800,1,0,3:1:0:0:
64,192,33800,1,0,3:1:0:0:
320,192,33950,1,0,3:1:0:0:
64,192,34100,1,0,3:1:0:0:
192,192,34100,1,0,3:1:0:0:
448,192,34100,1,0,3:1:0:0:
320,192,34250,1,0,3:1:0:0:
64,192,34400,1,0,3:1:0:0:
320,192,34400,1,0,3:1:0:0:
448,192,34400,1,0,3:1:0:0:
192,192,34550,1,0,3:1:0:0:
64,192,34700,1,0,3:1:0:0:
192,192,34700,1,0,3:1:0:0:
320,192,34700,1,0,3:1:0:0:
320,192,34850,1,0,3:1:0:0:
192,192,35000,1,0,3:1:0:0:
64,192,35000,1,0,3:1:0:0:
448,192,35000,1,0,3:1:0:0:
64,192,35150,1,0,3:1:0:0:
192,192,35300,1,0,3:1:0:0:
320,192,35300,1,0,3:1:0:0:
448,192,35300,1,0,3:1:0:0:
192,192,35450,1,0,3:1:0:0:
448,192,35600,1,0,3:1:0:0:
320,192,35600,1,0,3:1:0:0:
64,192,35600,1,0,3:1:0:0:
320,192,35750,1,0,3:1:0:0:
192,192,35900,1,0,3:1:0:0:
64,192,35900,1,0,3:1:0:0:
448,192,35900,1,0,3:1:0:0:
64,192,36050,1,0,3:1:0:0:
192,192,36200,1,0,3:1:0:0:
448,192,36200,1,0,3:1:0:0:
320,192,36200,1,0,3:1:0:0:
448,192,36350,1,0,3:1:0:0:
192,192,36500,1,0,3:1:0:0:
320,192,36500,1,0,3:1:0:0:
64,192,36500,1,0,3:1:0:0:
192,192,36650,1,0,3:1:0:0:
320,192,36800,1,0,3:1:0:0:
448,192,36800,1,0,3:1:0:0:
64,192,36800,1,0,3:1:0:0:
64,192,36950,1,0,3:1:0:0:
192,192,37100,1,0,3:1:0:0:
320,192,37100,1,0,3:1:0:0:
448,192,37100,1,0,3:1:0:0:
320,192,37250,1,0,3:1:0:0:
192,192,37400,1,0,3:1:0:0:
64,192,37400,1,0,3:1:0:0:
448,192,37400,1,0,3:1:0:0:
192,192,37550,1,0,3:1:0:0:
320,192,37700,1,0,3:1:0:0:
64,192,37700,1,0,3:1:0:0:
448,192,37700,1,0,3:1:0:0:
448,192,37850,1,0,3:1:0:0:
320,192,38000,1,0,3:1:0:0:
64,192,38000,1,0,3:1:0:0:
192,192,38000,1,0,3:1:0:0:
320,192,38150,1,0,3:1:0:0:
448,192,38300,1,0,0:0:0:0:
192,192,38300,1,0,0:0:0:0:
320,192,38450,1,0,0:0:0:0:
64,192,38450,1,0,0:0:0:0:
64,192,38600,1,0,0:0:0:0:
192,192,38600,1,0,0:0:0:0:
448,192,38600,1,0,0:0:0:0:
320,192,38750,1,0,0:0:0:0:
448,192,38750,1,0,0:0:0:0:
192,192,38900,1,0,0:0:0:0:
320,192,38900,1,0,0:0:0:0:
448,192,38900,1,0,0:0:0:0:
192,192,39050,1,0,0:0:0:0:
64,192,39050,1,0,0:0:0:0:
64,192,39200,1,0,0:0:0:0:
320,192,39200,1,0,0:0:0:0:
448,192,39200,1,0,0:0:0:0:
192,192,39350,1,0,0:0:0:0:
448,192,39350,1,0,0:0:0:0:
320,192,39500,1,0,0:0:0:0:
192,192,39500,1,0,0:0:0:0:
64,192,39500,1,0,0:0:0:0:
192,192,39650,1,0,0:0:0:0:
64,192,39650,1,0,0:0:0:0:
64,192,39800,1,0,0:0:0:0:
320,192,39800,1,0,0:0:0:0:
448,192,39800,1,0,0:0:0:0:
192,192,39950,1,0,0:0:0:0:
448,192,39950,1,0,0:0:0:0:
64,192,40100,1,0,0:0:0:0:
192,192,40100,1,0,0:0:0:0:
320,192,40100,1,0,0:0:0:0:
320,192,40250,1,0,0:0:0:0:
448,192,40250,1,0,0:0:0:0:
448,192,40400,1,0,0:0:0:0:
192,192,40400,1,0,0:0:0:0:
64,192,40400,1,0,0:0:0:0:
192,192,40550,1,0,0:0:0:0:
64,192,40550,1,0,0:0:0:0:
64,192,40700,1,0,0:0:0:0:
320,192,40700,1,0,0:0:0:0:
448,192,40700,1,0,0:0:0:0:
192,192,40850,1,0,0:0:0:0:
448,192,40850,1,0,0:0:0:0:
320,192,41000,1,0,0:0:0:0:
192,192,41000,1,0,0:0:0:0:
448,192,41000,1,0,0:0:0:0:
64,192,41150,1,0,0:0:0:0:
320,192,41150,1,0,0:0:0:0:
64,192,41300,1,0,0:0:0:0:
192,192,41300,1,0,0:0:0:0:
320,192,41300,1,0,0:0:0:0:
320,192,41450,1,0,0:0:0:0:
448,192,41450,1,0,0:0:0:0:
448,192,41600,1,0,0:0:0:0:
192,192,41600,1,0,0:0:0:0:
64,192,41600,1,0,0:0:0:0:
192,192,41750,1,0,0:0:0:0:
64,192,41750,1,0,0:0:0:0:
192,192,41900,1,0,0:0:0:0:
320,192,41900,1,0,0:0:0:0:
448,192,41900,1,0,0:0:0:0:
64,192,42050,1,0,0:0:0:0:
448,192,42050,1,0,0:0:0:0:
320,192,42200,1,0,3:1:0:0:
320,192,42500,1,0,3:1:0:0:
320,192,42800,1,0,3:1:0:0:
64,192,43100,128,0,43400:3:1:0:0:
448,192,43100,128,0,43400:3:1:0:0:
320,192,43100,1,0,3:1:0:0:
320,192,43400,128,0,45200:3:1:0:0:
192,192,43400,1,0,3:1:0:0:
192,192,43700,1,0,3:1:0:0:
64,192,44000,1,0,3:1:0:0:
448,192,44000,1,0,3:1:0:0:
192,192,44300,1,0,3:1:0:0:
64,192,44600,1,0,3:1:0:0:
448,192,44600,1,0,3:1:0:0:
192,192,44900,1,0,3:1:0:0:
64,192,45200,1,0,3:1:0:0:
192,192,45350,1,0,3:1:0:0:
320,192,45500,1,0,3:1:0:0:
448,192,45650,1,0,3:1:0:0:
320,192,45800,1,0,3:1:0:0:
64,192,45800,128,0,47600:3:1:0:0:
192,192,45800,1,0,3:1:0:0:
448,192,46100,1,0,3:1:0:0:
192,192,46400,1,0,3:1:0:0:
320,192,46400,1,0,3:1:0:0:
448,192,46700,1,0,3:1:0:0:
192,192,47000,1,0,3:1:0:0:
320,192,47000,1,0,3:1:0:0:
448,192,47300,1,0,3:1:0:0:
448,192,47600,1,0,3:1:0:0:
320,192,47750,1,0,3:1:0:0:
192,192,47900,1,0,3:1:0:0:
64,192,48050,1,0,3:1:0:0:
192,192,48200,128,0,50600:3:1:0:0:
320,192,48200,1,0,3:1:0:0:
448,192,48200,1,0,3:1:0:0:
64,192,48500,1,0,3:1:0:0:
320,192,48800,1,0,3:1:0:0:
448,192,48800,1,0,3:1:0:0:
64,192,49100,1,0,3:1:0:0:
64,192,49400,1,0,3:1:0:0:
320,192,49550,1,0,3:1:0:0:
64,192,49700,1,0,3:1:0:0:
448,192,49850,1,0,3:1:0:0:
64,192,50000,1,0,3:1:0:0:
320,192,50150,1,0,3:1:0:0:
64,192,50300,1,0,3:1:0:0:
448,192,50450,1,0,3:1:0:0:
64,192,50600,128,0,50900:3:1:0:0:
320,192,50600,1,0,3:1:0:0:
320,192,51200,128,0,51500:3:1:0:0:
192,192,51200,1,0,3:1:0:0:
448,192,51200,1,0,3:1:0:0:
192,192,51800,128,0,52100:3:1:0:0:
64,192,51800,1,0,3:1:0:0:
448,192,51800,1,0,3:1:0:0:
448,192,52400,128,0,52700:3:1:0:0:
64,192,52400,1,0,3:1:0:0:
320,192,52400,1,0,3:1:0:0:
64,192,53000,128,0,53150:0:0:0:0:
192,192,53000,128,0,53150:0:0:0:0:
448,192,53000,1,0,0:0:0:0:
64,192,53225,128,0,53337:0:0:0:0:
192,192,53225,128,0,53337:0:0:0:0:
320,192,53225,1,0,0:0:0:0:
320,192,53412,128,0,53525:0:0:0:0:
448,192,53412,128,0,53525:0:0:0:0:
64,192,53412,1,0,0:0:0:0:
320,192,53600,128,0,53750:0:0:0:0:
192,192,53600,128,0,53750:0:0:0:0:
448,192,53600,1,0,0:0:0:0:
192,192,53825,128,0,53937:0:0:0:0:
64,192,53825,128,0,53937:0:0:0:0:
320,192,53825,1,0,0:0:0:0:
448,192,54012,128,0,54125:0:0:0:0:
320,192,54012,128,0,54125:0:0:0:0:
64,192,54012,1,0,0:0:0:0:
64,192,54200,1,0,3:1:0:0:
192,192,54200,1,0,3:1:0:0:
320,192,54275,1,0,3:1:0:0:
448,192,54350,1,0,0:0:0:0:
192,192,54425,1,0,0:0:0:0:
64,192,54500,1,0,3:1:0:0:
320,192,54575,1,0,3:1:0:0:
192,192,54650,1,0,3:1:0:0:
448,192,54725,1,0,3:1:0:0:
64,192,54800,1,0,3:1:0:0:
320,192,54875,1,0,3:1:0:0:
192,192,54950,1,0,3:1:0:0:
448,192,55025,1,0,3:1:0:0:
64,192,55100,1,0,3:1:0:0:
192,192,55175,1,0,3:1:0:0:
320,192,55250,1,0,3:1:0:0:
192,192,55325,1,0,3:1:0:0:
64,192,55400,1,0,3:1:0:0:
448,192,55400,1,0,3:1:0:0:
192,192,55550,1,0,3:1:0:0:
320,192,55700,1,0,3:1:0:0:
448,192,55850,1,0,3:1:0:0:
192,192,56000,1,0,3:1:0:0:
320,192,56000,1,0,3:1:0:0:
448,192,56150,1,0,3:1:0:0:
64,192,56150,1,0,3:1:0:0:
64,192,56300,1,0,3:1:0:0:
320,192,56300,1,0,3:1:0:0:
64,192,56450,1,0,3:1:0:0:
448,192,56450,1,0,3:1:0:0:
320,192,56600,128,0,56750:3:1:0:0:
448,192,56750,1,0,3:1:0:0:
192,192,56750,1,0,3:1:0:0:
64,192,56900,128,0,57050:3:1:0:0:
448,192,57050,1,0,3:1:0:0:
320,192,57050,1,0,3:1:0:0:
192,192,57200,128,0,57350:3:1:0:0:
320,192,57350,1,0,3:1:0:0:
64,192,57350,1,0,3:1:0:0:
448,192,57500,128,0,57650:3:1:0:0:
64,192,57650,1,0,3:1:0:0:
192,192,57650,1,0,3:1:0:0:
320,192,57800,128,0,57950:3:1:0:0:
448,192,57950,1,0,3:1:0:0:
64,192,57950,1,0,3:1:0:0:
192,192,58100,128,0,58250:3:1:0:0:
320,192,58250,1,0,3:1:0:0:
64,192,58250,1,0,3:1:0:0:
448,192,58400,128,0,59000:3:1:0:0:
192,192,58400,1,0,3:1:0:0:
64,192,58550,1,0,3:1:0:0:
320,192,58550,1,0,0:0:0:0:
192,192,58700,1,0,3:1:0:0:
320,192,58850,1,0,3:1:0:0:
64,192,58850,1,0,3:1:0:0:
64,192,59000,1,0,3:1:0:0:
192,192,59000,1,0,3:1:0:0:
320,192,59000,1,0,0:0:0:0:
320,192,59150,1,0,3:1:0:0:
448,192,59150,1,0,3:1:0:0:
64,192,59300,128,0,59450:3:1:0:0:
448,192,59450,1,0,3:1:0:0:
192,192,59450,1,0,3:1:0:0:
320,192,59600,128,0,59750:3:1:0:0:
448,192,59750,1,0,3:1:0:0:
64,192,59750,1,0,3:1:0:0:
192,192,59900,128,0,60050:3:1:0:0:
320,192,60050,1,0,3:1:0:0:
448,192,60050,1,0,3:1:0:0:
64,192,60200,128,0,60350:3:1:0:0:
320,192,60200,1,0,3:1:0:0:
192,192,60350,128,0,60500:3:1:0:0:
448,192,60350,1,0,3:1:0:0:
320,192,60350,1,0,0:0:0:0:
320,192,60500,128,0,60650:3:1:0:0:
64,192,60500,1,0,3:1:0:0:
448,192,60650,128,0,60800:3:1:0:0:
192,192,60650,1,0,3:1:0:0:
64,192,60650,1,0,0:0:0:0:
64,192,60800,128,0,61400:3:1:0:0:
320,192,60800,1,0,0:0:0:0:
192,192,61100,128,0,61400:3:1:0:0:
448,192,61100,1,0,3:1:0:0:
320,192,61400,1,0,3:1:0:0:
448,192,61400,1,0,0:0:0:0:
448,192,61550,1,0,3:1:0:0:
192,192,61550,1,0,0:0:0:0:
320,192,61700,128,0,61850:3:1:0:0:
64,192,61850,1,0,3:1:0:0:
192,192,61850,1,0,3:1:0:0:
192,192,62000,128,0,62150:3:1:0:0:
320,192,62150,1,0,3:1:0:0:
448,192,62150,1,0,3:1:0:0:
64,192,62300,128,0,62450:3:1:0:0:
192,192,62450,1,0,3:1:0:0:
320,192,62450,1,0,3:1:0:0:
448,192,62600,128,0,62750:3:1:0:0:
64,192,62750,1,0,3:1:0:0:
192,192,62750,1,0,3:1:0:0:
192,192,62900,128,0,63050:3:1:0:0:
448,192,63050,1,0,3:1:0:0:
320,192,63050,1,0,3:1:0:0:
64,192,63200,128,0,63800:3:1:0:0:
320,192,63200,128,0,63350:3:1:0:0:
192,192,63350,1,0,3:1:0:0:
448,192,63350,1,0,3:1:0:0:
448,192,63500,128,0,63650:3:1:0:0:
320,192,63650,1,0,3:1:0:0:
192,192,63650,1,0,3:1:0:0:
192,192,63800,128,0,63950:3:1:0:0:
448,192,63800,1,0,3:1:0:0:
320,192,63950,1,0,3:1:0:0:
448,192,63950,1,0,3:1:0:0:
64,192,64100,128,0,64250:3:1:0:0:
448,192,64250,1,0,3:1:0:0:
320,192,64250,1,0,3:1:0:0:
320,192,64400,128,0,64550:3:1:0:0:
192,192,64550,1,0,3:1:0:0:
64,192,64550,1,0,3:1:0:0:
448,192,64700,128,0,64850:3:1:0:0:
320,192,64850,1,0,3:1:0:0:
192,192,64850,1,0,3:1:0:0:
64,192,65000,128,0,65900:3:1:0:0:
320,192,65150,1,0,3:1:0:0:
320,192,65300,1,0,3:1:0:0:
320,192,65450,1,0,3:1:0:0:
320,192,65600,1,0,3:1:0:0:
320,192,65750,1,0,3:1:0:0:
320,192,65900,1,0,3:1:0:0:
192,192,65900,1,0,3:1:0:0:
320,192,66050,1,0,3:1:0:0:
448,192,66200,128,0,66350:3:1:0:0:
192,192,66350,1,0,3:1:0:0:
64,192,66350,1,0,3:1:0:0:
64,192,66500,128,0,66800:3:1:0:0:
192,192,66500,128,0,66650:3:1:0:0:
320,192,66650,1,0,3:1:0:0:
448,192,66650,1,0,3:1:0:0:
320,192,66800,128,0,66950:3:1:0:0:
192,192,66950,1,0,3:1:0:0:
64,192,66950,1,0,3:1:0:0:
448,192,67100,128,0,67400:3:1:0:0:
64,192,67100,128,0,67250:3:1:0:0:
320,192,67250,1,0,3:1:0:0:
192,192,67250,1,0,3:1:0:0:
320,192,67400,128,0,67550:3:1:0:0:
448,192,67550,1,0,3:1:0:0:
64,192,67550,1,0,3:1:0:0:
192,192,67700,128,0,68000:3:1:0:0:
64,192,67700,128,0,67850:3:1:0:0:
320,192,67850,1,0,3:1:0:0:
448,192,67850,1,0,3:1:0:0:
320,192,68000,128,0,68150:3:1:0:0:
64,192,68150,1,0,3:1:0:0:
192,192,68150,1,0,3:1:0:0:
320,192,68300,128,0,68600:3:1:0:0:
64,192,68300,128,0,68450:3:1:0:0:
448,192,68300,1,0,3:1:0:0:
448,192,68450,1,0,3:1:0:0:
192,192,68450,1,0,3:1:0:0:
64,192,68600,1,0,3:1:0:0:
192,192,68600,1,0,3:1:0:0:
448,192,68600,1,0,3:1:0:0:
192,192,68750,1,0,0:0:0:0:
320,192,68750,1,0,0:0:0:0:
448,192,68900,128,0,69200:3:1:0:0:
320,192,68900,128,0,69050:3:1:0:0:
192,192,69050,1,0,3:1:0:0:
64,192,69050,1,0,3:1:0:0:
192,192,69200,128,0,69350:3:1:0:0:
320,192,69350,1,0,3:1:0:0:
64,192,69350,1,0,0:0:0:0:
320,192,69500,128,0,69650:3:1:0:0:
192,192,69500,128,0,69800:0:0:0:0:
64,192,69500,1,0,0:0:0:0:
448,192,69650,1,0,0:0:0:0:
64,192,69800,128,0,69950:0:0:0:0:
320,192,69800,1,0,0:0:0:0:
192,192,69950,128,0,70100:0:0:0:0:
448,192,69950,1,0,0:0:0:0:
320,192,70100,128,0,70250:0:0:0:0:
64,192,70100,1,0,0:0:0:0:
448,192,70250,128,0,70400:0:0:0:0:
192,192,70250,1,0,0:0:0:0:
64,192,70400,1,0,3:1:0:0:
320,192,70400,128,0,70625:3:1:0:0:
192,192,70400,128,0,70625:0:0:0:0:
320,192,70700,128,0,70925:0:0:0:0:
448,192,70700,128,0,70925:0:0:0:0:
192,192,70700,1,0,0:0:0:0:
64,192,71000,1,0,3:1:0:0:
448,192,71000,1,0,3:1:0:0:
192,192,71150,1,0,3:1:0:0:
64,192,71300,1,0,3:1:0:0:
448,192,71300,128,0,71600:3:1:0:0:
320,192,71300,128,0,71600:3:1:0:0:
64,192,71600,1,0,3:1:0:0:
192,192,71600,1,0,3:1:0:0:
320,192,71750,1,0,3:1:0:0:
64,192,71900,128,0,72200:3:1:0:0:
320,192,71900,128,0,72200:3:1:0:0:
448,192,71900,1,0,3:1:0:0:
192,192,72200,1,0,3:1:0:0:
448,192,72200,1,0,3:1:0:0:
320,192,72350,1,0,3:1:0:0:
64,192,72500,128,0,72800:3:1:0:0:
448,192,72500,128,0,72800:3:1:0:0:
192,192,72500,1,0,3:1:0:0:
192,192,72800,1,0,3:1:0:0:
320,192,72800,1,0,3:1:0:0:
448,192,72950,1,0,3:1:0:0:
192,192,73100,128,0,73325:3:1:0:0:
320,192,73100,128,0,73325:3:1:0:0:
64,192,73100,1,0,3:1:0:0:
64,192,73400,1,0,3:1:0:0:
192,192,73475,1,0,3:1:0:0:
448,192,73550,1,0,3:1:0:0:
320,192,73625,1,0,3:1:0:0:
192,192,73700,128,0,73925:0:0:0:0:
64,192,73700,128,0,73925:0:0:0:0:
448,192,73700,1,0,0:0:0:0:
320,192,73775,1,0,0:0:0:0:
448,192,73850,1,0,0:0:0:0:
320,192,73925,1,0,0:0:0:0:
448,192,74000,1,0,3:1:0:0:
320,192,74075,1,0,3:1:0:0:
192,192,74150,1,0,3:1:0:0:
64,192,74225,1,0,3:1:0:0:
448,192,74300,128,0,74525:3:1:0:0:
320,192,74300,128,0,74525:3:1:0:0:
192,192,74300,1,0,3:1:0:0:
64,192,74375,1,0,0:0:0:0:
192,192,74450,1,0,0:0:0:0:
64,192,74525,1,0,0:0:0:0:
448,192,74600,1,0,3:1:0:0:
320,192,74600,1,0,3:1:0:0:
64,192,74675,1,0,3:1:0:0:
192,192,74750,1,0,3:1:0:0:
320,192,74825,1,0,3:1:0:0:
192,192,74900,1,0,3:1:0:0:
448,192,74900,1,0,0:0:0:0:
64,192,74975,1,0,3:1:0:0:
320,192,75050,1,0,3:1:0:0:
448,192,75125,1,0,3:1:0:0:
192,192,75200,1,0,3:1:0:0:
64,192,75200,1,0,3:1:0:0:
448,192,75275,1,0,3:1:0:0:
320,192,75350,1,0,3:1:0:0:
192,192,75425,1,0,3:1:0:0:
448,192,75500,1,0,3:1:0:0:
320,192,75500,1,0,0:0:0:0:
64,192,75575,1,0,3:1:0:0:
192,192,75650,1,0,3:1:0:0:
320,192,75725,1,0,3:1:0:0:
64,192,75800,1,0,3:1:0:0:
448,192,75800,1,0,3:1:0:0:
320,192,75875,1,0,3:1:0:0:
192,192,75950,1,0,3:1:0:0:
64,192,76025,1,0,3:1:0:0:
320,192,76100,1,0,3:1:0:0:
192,192,76100,1,0,0:0:0:0:
448,192,76175,1,0,3:1:0:0:
64,192,76250,1,0,3:1:0:0:
192,192,76325,1,0,3:1:0:0:
320,192,76400,1,0,3:1:0:0:
448,192,76400,1,0,3:1:0:0:
192,192,76475,1,0,0:0:0:0:
64,192,76550,1,0,0:0:0:0:
192,192,76625,1,0,0:0:0:0:
320,192,76700,1,0,3:1:0:0:
448,192,76700,1,0,3:1:0:0:
64,192,76775,1,0,0:0:0:0:
320,192,76850,1,0,3:1:0:0:
448,192,76850,1,0,3:1:0:0:
192,192,76925,1,0,0:0:0:0:
448,192,77000,128,0,77600:3:1:0:0:
320,192,77000,1,0,3:1:0:0:
320,192,77300,128,0,77600:3:1:0:0:
192,192,77300,1,0,3:1:0:0:
64,192,77600,1,0,3:1:0:0:
192,192,77750,1,0,3:1:0:0:
448,192,77900,1,0,3:1:0:0:
320,192,77900,1,0,3:1:0:0:
64,192,77900,1,0,3:1:0:0:
320,192,78200,1,0,3:1:0:0:
448,192,78200,1,0,3:1:0:0:
192,192,78350,1,0,3:1:0:0:
320,192,78500,1,0,3:1:0:0:
64,192,78500,1,0,3:1:0:0:
448,192,78650,1,0,3:1:0:0:
192,192,78800,1,0,3:1:0:0:
64,192,78800,1,0,3:1:0:0:
320,192,78950,1,0,3:1:0:0:
64,192,79100,1,0,3:1:0:0:
448,192,79100,1,0,3:1:0:0:
64,192,79400,1,0,3:1:0:0:
192,192,79400,1,0,3:1:0:0:
448,192,79400,1,0,3:1:0:0:
320,192,79550,1,0,3:1:0:0:
448,192,79550,1,0,3:1:0:0:
64,192,79700,1,0,3:1:0:0:
192,192,79700,1,0,3:1:0:0:
320,192,79700,1,0,3:1:0:0:
448,192,79850,1,0,3:1:0:0:
192,192,79850,1,0,3:1:0:0:
320,192,80000,1,0,3:1:0:0:
64,192,80000,1,0,3:1:0:0:
448,192,80000,1,0,3:1:0:0:
192,192,80150,1,0,3:1:0:0:
64,192,80150,1,0,3:1:0:0:
448,192,80300,1,0,3:1:0:0:
320,192,80300,1,0,3:1:0:0:
192,192,80300,1,0,3:1:0:0:
64,192,80450,1,0,3:1:0:0:
320,192,80450,1,0,3:1:0:0:
64,192,80600,1,0,3:1:0:0:
192,192,80600,1,0,3:1:0:0:
448,192,80600,1,0,3:1:0:0:
192,192,80750,1,0,3:1:0:0:
320,192,80750,1,0,3:1:0:0:
64,192,80900,1,0,3:1:0:0:
192,192,80900,1,0,3:1:0:0:
448,192,80900,1,0,3:1:0:0:
320,192,81050,1,0,3:1:0:0:
448,192,81050,1,0,3:1:0:0:
64,192,81200,128,0,81725:3:1:0:0:
192,192,81200,128,0,81725:3:1:0:0:
320,192,81500,128,0,81800:3:1:0:0:
448,192,81500,128,0,81800:3:1:0:0:
64,192,81800,1,0,3:1:0:0:
192,192,81800,1,0,3:1:0:0:
192,192,82100,1,0,3:1:0:0:
448,192,82100,1,0,3:1:0:0:
64,192,82400,1,0,3:1:0:0:
192,192,82400,1,0,3:1:0:0:
320,192,82550,1,0,3:1:0:0:
448,192,82550,1,0,3:1:0:0:
192,192,82700,1,0,3:1:0:0:
64,192,82700,1,0,3:1:0:0:
448,192,83000,128,0,83300:3:1:0:0:
320,192,83000,1,0,3:1:0:0:
192,192,83150,1,0,0:0:0:0:
64,192,83150,1,0,0:0:0:0:
64,192,83300,128,0,83600:3:1:0:0:
192,192,83300,1,0,0:0:0:0:
320,192,83450,1,0,0:0:0:0:
448,192,83450,1,0,0:0:0:0:
448,192,83600,128,0,84200:3:1:0:0:
320,192,83600,1,0,3:1:0:0:
320,192,83900,128,0,84200:3:1:0:0:
192,192,83900,1,0,3:1:0:0:
64,192,84200,128,0,84500:0:0:0:0:
192,192,84350,128,0,84500:0:0:0:0:
448,192,84500,128,0,84800:0:0:0:0:
320,192,84650,128,0,84950:0:0:0:0:
64,192,84650,1,4,0:0:0:0:
192,192,84800,128,0,84950:0:0:0:0:
64,192,84950,128,0,85250:0:0:0:0:
192,192,85100,128,0,85400:0:0:0:0:
320,192,85250,128,0,85400:0:0:0:0:
448,192,85400,128,0,85550:0:0:0:0:
64,192,85550,1,0,0:0:0:0:
320,192,85550,1,0,0:0:0:0:
192,192,85700,1,0,0:0:0:0:
448,192,85700,1,0,0:0:0:0:
320,192,85850,1,0,0:0:0:0:
64,192,85850,1,0,0:0:0:0:
320,192,86000,1,0,0:0:0:0:
448,192,86000,1,0,0:0:0:0:
192,192,86000,1,0,0:0:0:0:
320,192,86150,1,0,0:0:0:0:
448,192,86150,1,0,0:0:0:0:
192,192,86300,1,0,0:0:0:0:
64,192,86300,1,0,0:0:0:0:
320,192,86450,1,0,3:1:0:0:
192,192,86450,128,0,87800:3:1:0:0:
64,192,86450,128,0,87800:0:0:0:0:
