osu file format v14

[General]
AudioFilename: audio.mp3
AudioLeadIn: 0
PreviewTime: 56600
Countdown: 0
SampleSet: None
StackLeniency: 0.7
Mode: 3
LetterboxInBreaks: 0
SpecialStyle: 0
WidescreenStoryboard: 0

[Editor]
Bookmarks: 13400
DistanceSpacing: 0.8
BeatDivisor: 4
GridSize: 8
TimelineZoom: 1.3

[Metadata]
Title:Hyadain no Joujou Yuujou ~TV size~
TitleUnicode:ヒャダインのじょーじょーゆーじょー (TV Size)
Artist:Hyadain
ArtistUnicode:ヒャダイン
Creator:7kitte
Version:EZ
Source:日常
Tags:nichijou op opening dkingo
BeatmapID:1232530
BeatmapSetID:576796

[Difficulty]
HPDrainRate:7
CircleSize:4
OverallDifficulty:7
ApproachRate:5
SliderMultiplier:1.4
SliderTickRate:1

[Events]
//Background and Video events
0,0,"wp.jpg",0,0
Video,-200,"OP2_(360p).avi"
//Break Periods
//Storyboard Layer 0 (Background)
//Storyboard Layer 1 (Fail)
//Storyboard Layer 2 (Pass)
//Storyboard Layer 3 (Foreground)
//Storyboard Sound Samples

[TimingPoints]
200,300,4,3,0,40,1,0
56600,-100,4,3,0,40,0,1
61325,-100,4,3,0,40,0,0
61400,-100,4,3,0,40,0,1
66125,-100,4,3,0,40,0,0
66200,-100,4,3,0,40,0,1
74300,-100,4,3,0,40,0,0

[HitObjects]
448,192,200,5,0,0:0:0:0:
320,192,500,1,0,0:0:0:0:
192,192,800,1,0,0:0:0:0:
64,192,1100,1,0,0:0:0:0:
448,192,1400,1,0,0:0:0:0:
320,192,1550,1,0,0:0:0:0:
64,192,1700,1,0,0:0:0:0:
192,192,1850,1,0,0:0:0:0:
320,192,2000,1,0,0:0:0:0:
448,192,2300,1,0,0:0:0:0:
64,192,2600,1,0,0:0:0:0:
320,192,2600,1,0,0:0:0:0:
192,192,3050,1,0,0:0:0:0:
448,192,3500,1,0,0:0:0:0:
64,192,3950,128,0,5000:0:0:0:0:
448,192,5000,1,0,0:0:0:0:
320,192,5300,1,0,0:0:0:0:
64,192,5600,1,0,0:0:0:0:
192,192,5750,1,0,0:0:0:0:
448,192,6050,1,0,0:0:0:0:
320,192,6350,1,0,0:0:0:0:
192,192,6650,1,0,0:0:0:0:
64,192,6950,1,0,0:0:0:0:
320,192,7100,1,0,0:0:0:0:
192,192,7250,1,0,0:0:0:0:
448,192,7400,1,0,0:0:0:0:
192,192,7700,1,0,0:0:0:0:
320,192,8000,1,0,0:0:0:0:
64,192,8150,1,0,0:0:0:0:
448,192,8450,1,0,0:0:0:0:
320,192,8750,1,0,0:0:0:0:
192,192,9050,1,0,0:0:0:0:
64,192,9350,1,0,0:0:0:0:
192,192,9500,1,0,0:0:0:0:
320,192,9650,1,0,0:0:0:0:
448,192,9800,128,0,10400:0:0:0:0:
192,192,10400,128,0,10850:0:0:0:0:
320,192,10850,128,0,12200:0:0:0:0:
64,192,12200,1,0,0:0:0:0:
192,192,12500,1,0,0:0:0:0:
448,192,12800,1,0,0:0:0:0:
320,192,12950,1,0,0:0:0:0:
64,192,13100,1,0,0:0:0:0:
192,192,13250,1,0,0:0:0:0:
448,192,13550,1,0,0:0:0:0:
320,192,13700,1,0,0:0:0:0:
192,192,13850,1,0,0:0:0:0:
64,192,14000,1,0,0:0:0:0:
192,192,14300,128,0,14600:0:0:0:0:
448,192,14600,1,0,0:0:0:0:
64,192,14900,1,0,0:0:0:0:
192,192,15050,1,0,0:0:0:0:
320,192,15200,1,0,0:0:0:0:
448,192,15350,1,0,0:0:0:0:
192,192,15500,1,0,0:0:0:0:
320,192,15650,1,0,0:0:0:0:
192,192,15950,1,0,0:0:0:0:
64,192,16250,1,0,0:0:0:0:
448,192,16700,1,0,0:0:0:0:
64,192,17000,1,0,0:0:0:0:
448,192,17300,1,0,0:0:0:0:
320,192,17450,1,0,0:0:0:0:
192,192,17600,1,0,0:0:0:0:
64,192,17750,1,0,0:0:0:0:
192,192,18050,1,0,0:0:0:0:
320,192,18350,1,0,0:0:0:0:
448,192,18650,1,0,0:0:0:0:
192,192,19100,1,0,0:0:0:0:
64,192,19400,128,0,20000:0:0:0:0:
192,192,20000,128,0,20450:0:0:0:0:
320,192,20450,128,0,21050:0:0:0:0:
448,192,21200,1,0,0:0:0:0:
192,192,21500,1,0,0:0:0:0:
64,192,21800,128,0,22850:0:0:0:0:
320,192,22850,1,0,0:0:0:0:
448,192,23150,128,0,24200:0:0:0:0:
64,192,24200,128,0,24500:0:0:0:0:
320,192,24500,1,0,0:0:0:0:
448,192,24800,1,0,0:0:0:0:
320,192,24950,1,0,0:0:0:0:
192,192,25100,1,0,0:0:0:0:
64,192,25250,1,0,0:0:0:0:
192,192,25550,1,0,0:0:0:0:
320,192,25850,128,0,26600:0:0:0:0:
448,192,26600,128,0,26900:0:0:0:0:
64,192,26900,1,0,0:0:0:0:
192,192,27200,1,0,0:0:0:0:
448,192,27350,1,0,0:0:0:0:
320,192,27500,1,0,0:0:0:0:
192,192,27650,1,0,0:0:0:0:
64,192,27950,1,0,0:0:0:0:
448,192,28250,128,0,29000:0:0:0:0:
64,192,29000,128,0,29600:0:0:0:0:
192,192,29600,128,0,30050:0:0:0:0:
320,192,30050,128,0,30650:0:0:0:0:
192,192,30800,1,0,0:0:0:0:
64,192,30950,1,0,0:0:0:0:
448,192,31100,1,0,0:0:0:0:
64,192,31400,128,0,31700:0:0:0:0:
320,192,31700,128,0,32000:0:0:0:0:
192,192,32000,1,0,0:0:0:0:
448,192,32150,1,0,0:0:0:0:
64,192,32300,1,0,0:0:0:0:
320,192,32450,128,0,33800:0:0:0:0:
192,192,33800,128,0,36200:0:0:0:0:
448,192,36200,128,0,37400:0:0:0:0:
64,192,37400,128,0,37850:0:0:0:0:
320,192,37850,128,0,38600:0:0:0:0:
192,192,38600,128,0,40400:0:0:0:0:
448,192,40400,128,0,41000:0:0:0:0:
64,192,41000,128,0,42200:0:0:0:0:
192,192,43100,128,0,43400:0:0:0:0:
448,192,43400,1,0,0:0:0:0:
64,192,44000,1,0,0:0:0:0:
64,192,44600,1,0,0:0:0:0:
448,192,45200,1,0,0:0:0:0:
320,192,45350,1,0,0:0:0:0:
192,192,45500,1,0,0:0:0:0:
64,192,45650,1,0,0:0:0:0:
448,192,45800,1,0,0:0:0:0:
448,192,46400,1,0,0:0:0:0:
448,192,47000,1,0,0:0:0:0:
64,192,47600,1,0,0:0:0:0:
192,192,47750,1,0,0:0:0:0:
320,192,47900,1,0,0:0:0:0:
448,192,48050,1,0,0:0:0:0:
192,192,48200,1,0,0:0:0:0:
192,192,48800,1,0,0:0:0:0:
64,192,49400,1,0,0:0:0:0:
192,192,49550,1,0,0:0:0:0:
448,192,49700,1,0,0:0:0:0:
320,192,49850,1,0,0:0:0:0:
192,192,50000,1,0,0:0:0:0:
64,192,50150,1,0,0:0:0:0:
320,192,50300,1,0,0:0:0:0:
448,192,50450,1,0,0:0:0:0:
64,192,50600,1,0,0:0:0:0:
192,192,50600,1,0,0:0:0:0:
192,192,51200,1,0,0:0:0:0:
320,192,51200,1,0,0:0:0:0:
320,192,51800,1,0,0:0:0:0:
448,192,51800,1,0,0:0:0:0:
448,192,52400,1,0,0:0:0:0:
192,192,52400,1,0,0:0:0:0:
64,192,53000,1,0,0:0:0:0:
320,192,53206,1,0,0:0:0:0:
64,192,53393,1,0,0:0:0:0:
448,192,53581,1,0,0:0:0:0:
192,192,53768,1,0,0:0:0:0:
448,192,53993,1,0,0:0:0:0:
192,192,54200,128,0,55400:0:0:0:0:
64,192,56000,1,0,0:0:0:0:
192,192,56150,1,0,0:0:0:0:
320,192,56300,1,0,0:0:0:0:
192,192,56450,1,0,0:0:0:0:
448,192,56600,128,0,57350:0:0:0:0:
64,192,57350,1,0,0:0:0:0:
320,192,57500,1,0,0:0:0:0:
192,192,57650,1,0,0:0:0:0:
448,192,57800,1,0,0:0:0:0:
320,192,57950,1,0,0:0:0:0:
192,192,58100,1,0,0:0:0:0:
320,192,58250,1,0,0:0:0:0:
64,192,58400,128,0,59000:0:0:0:0:
192,192,59000,128,0,59600:0:0:0:0:
448,192,59750,1,0,0:0:0:0:
64,192,59900,1,0,0:0:0:0:
448,192,60050,1,0,0:0:0:0:
64,192,60200,1,0,0:0:0:0:
192,192,60350,1,0,0:0:0:0:
320,192,60500,1,0,0:0:0:0:
448,192,60650,1,0,0:0:0:0:
64,192,60800,1,0,0:0:0:0:
192,192,61100,1,0,0:0:0:0:
448,192,61400,128,0,62150:0:0:0:0:
64,192,62150,1,0,0:0:0:0:
320,192,62300,1,0,0:0:0:0:
64,192,62450,1,0,0:0:0:0:
448,192,62600,1,0,0:0:0:0:
320,192,62750,1,0,0:0:0:0:
192,192,62900,1,0,0:0:0:0:
448,192,63050,1,0,0:0:0:0:
320,192,63200,128,0,63800:0:0:0:0:
64,192,63800,128,0,64400:0:0:0:0:
192,192,64700,1,0,0:0:0:0:
448,192,65000,128,0,66200:0:0:0:0:
320,192,65450,128,0,66200:0:0:0:0:
64,192,66200,128,0,67100:0:0:0:0:
320,192,67100,1,0,0:0:0:0:
448,192,67250,1,0,0:0:0:0:
192,192,67400,1,0,0:0:0:0:
64,192,67550,1,0,0:0:0:0:
448,192,67700,1,0,0:0:0:0:
320,192,67850,1,0,0:0:0:0:
192,192,68000,128,0,68600:0:0:0:0:
448,192,68600,128,0,69350:0:0:0:0:
64,192,69350,1,0,0:0:0:0:
192,192,69500,1,0,0:0:0:0:
320,192,69650,1,0,0:0:0:0:
64,192,69800,128,0,70700:0:0:0:0:
448,192,69800,1,0,0:0:0:0:
192,192,69950,1,0,0:0:0:0:
320,192,70100,1,0,0:0:0:0:
192,192,70250,1,0,0:0:0:0:
448,192,70400,1,0,0:0:0:0:
192,192,70700,1,0,0:0:0:0:
320,192,71000,128,0,71300:0:0:0:0:
64,192,71300,1,0,0:0:0:0:
448,192,71600,128,0,71900:0:0:0:0:
192,192,71900,1,0,0:0:0:0:
64,192,72200,128,0,72500:0:0:0:0:
320,192,72500,1,0,0:0:0:0:
192,192,72800,128,0,73100:0:0:0:0:
448,192,73100,1,0,0:0:0:0:
64,192,73400,1,0,0:0:0:0:
192,192,73700,1,0,0:0:0:0:
320,192,74000,1,0,0:0:0:0:
448,192,74300,1,0,0:0:0:0:
64,192,74600,128,0,77000:0:0:0:0:
192,192,75200,1,0,0:0:0:0:
320,192,75800,1,0,0:0:0:0:
448,192,76400,1,0,0:0:0:0:
192,192,77000,1,0,0:0:0:0:
448,192,77300,1,0,0:0:0:0:
320,192,77600,1,0,0:0:0:0:
192,192,77750,1,0,0:0:0:0:
64,192,77900,1,0,0:0:0:0:
448,192,78200,1,0,0:0:0:0:
64,192,78500,1,0,0:0:0:0:
448,192,78800,1,0,0:0:0:0:
320,192,79100,1,0,0:0:0:0:
64,192,79400,1,0,0:0:0:0:
192,192,79700,1,0,0:0:0:0:
448,192,80000,1,0,0:0:0:0:
320,192,80300,1,0,0:0:0:0:
64,192,80600,1,0,0:0:0:0:
448,192,80900,1,0,0:0:0:0:
64,192,81200,128,0,81800:0:0:0:0:
192,192,81500,1,0,0:0:0:0:
448,192,81800,1,0,0:0:0:0:
320,192,82100,1,0,0:0:0:0:
64,192,82400,1,0,0:0:0:0:
192,192,82550,1,0,0:0:0:0:
320,192,82700,1,0,0:0:0:0:
448,192,83000,1,0,0:0:0:0:
64,192,83300,1,0,0:0:0:0:
320,192,83600,1,0,0:0:0:0:
192,192,83900,1,0,0:0:0:0:
448,192,84200,1,0,0:0:0:0:
320,192,84200,1,0,0:0:0:0:
320,192,84650,1,0,0:0:0:0:
192,192,84650,1,0,0:0:0:0:
192,192,85100,1,0,0:0:0:0:
64,192,85100,1,0,0:0:0:0:
448,192,85550,128,0,86450:0:0:0:0:
64,192,86450,128,0,87800:0:0:0:0:
