osu file format v14

[General]
AudioFilename: audio.mp3
AudioLeadIn: 0
PreviewTime: 11314
Countdown: 0
SampleSet: Soft
StackLeniency: 0.7
Mode: 3
LetterboxInBreaks: 0
SpecialStyle: 0
WidescreenStoryboard: 1

[Editor]
DistanceSpacing: 0.8
BeatDivisor: 4
GridSize: 8
TimelineZoom: 1.6

[Metadata]
Title:Enemy Appearance!
TitleUnicode:Enemy Appearance!
Artist:Hyadain
ArtistUnicode:Hyadain
Creator:MapleSyrup-
Version:Triumph
Source:
Tags:
BeatmapID:2035025
BeatmapSetID:873376

[Difficulty]
HPDrainRate:7.5
CircleSize:4
OverallDifficulty:7.7
ApproachRate:5
SliderMultiplier:1.4
SliderTickRate:1

[Events]
//Background and Video events
0,0,"BG.jpg",0,0
//Break Periods
//Storyboard Layer 0 (Background)
//Storyboard Layer 1 (Fail)
//Storyboard Layer 2 (Pass)
//Storyboard Layer 3 (Foreground)
//Storyboard Sound Samples

[TimingPoints]
-1391,352.941176470588,4,2,0,30,1,0
20,-800,4,2,0,30,0,0
373,-133.333333333333,4,2,0,30,0,0
550,-400,4,2,0,30,0,0
726,-200,4,2,0,30,0,0
2844,-533.333333333333,4,2,0,30,0,0
3197,-100,4,2,0,30,0,0
3373,-266.666666666667,4,2,0,30,0,0
3550,-133.333333333333,4,2,0,30,0,0
5667,-400,4,2,0,30,0,0
6020,-80,4,2,0,30,0,0
6197,-200,4,2,0,30,0,0
6373,-100,4,2,0,30,0,0
8491,-333.333333333333,4,2,0,30,0,0
8844,-74.0740740740741,4,2,0,30,0,0
9020,-166.666666666667,4,2,0,30,0,0
9197,-83.3333333333333,4,2,0,30,0,0
9902,-666.666666666667,4,2,0,30,0,0
10961,-33.3333333333333,4,2,0,30,0,0
11049,-400,4,2,0,30,0,0
11269,-20,4,2,0,30,0,0
11314,-100,4,2,0,30,0,0
12019,-1000,4,2,0,30,0,0
12372,-100,4,2,0,30,0,0
12549,-1000,4,2,0,30,0,0
12902,-100,4,2,0,30,0,0
13431,-400,4,2,0,30,0,0
13785,-25,4,2,0,30,0,0
13872,-400,4,2,0,30,0,0
14116,-10,4,2,0,30,0,0
14137,-100,4,2,0,30,0,0
14843,-1000,4,2,0,30,0,0
15196,-100,4,2,0,30,0,0
15372,-1000,4,2,0,30,0,0
15725,-100,4,2,0,30,0,0
16256,-10,4,2,0,30,0,0
16300,-1000,4,2,0,30,0,0
16587,-66.6666666666667,4,2,0,30,0,0
16609,-10,4,2,0,30,0,0
16653,-400,4,2,0,30,0,0
16940,-66.6666666666667,4,2,0,30,0,0
16961,-100,4,2,0,30,0,0
17666,-1000,4,2,0,30,0,0
18019,-100,4,2,0,30,0,0
18196,-1000,4,2,0,30,0,0
18549,-100,4,2,0,30,0,0
19078,-400,4,2,0,30,0,0
19410,-10,4,2,0,30,0,0
19431,-25,4,2,0,30,0,0
19519,-400,4,2,0,30,0,0
19763,-10,4,2,0,30,0,0
19784,-142.857142857143,4,2,0,30,0,0
20137,-200,4,2,0,30,0,0
20490,-333.333333333333,4,2,0,30,0,0
20843,-1000,4,2,0,30,0,0
21196,-250,4,2,0,30,0,0
21549,-142.857142857143,4,2,0,30,0,0
21902,-100,4,2,0,30,0,0
22255,-76.9230769230769,4,2,0,30,0,0
22608,-100,4,2,0,30,0,0
22784,1E+31,4,2,0,30,1,0
22937,44.1176470588235,4,2,0,30,1,0
22960,352.941176470588,4,2,0,30,1,0
23137,-200,4,2,0,30,0,0
23225,-400,4,2,0,30,0,0
23402,-200,4,2,0,30,0,0
23490,-400,4,2,0,30,0,0
23667,-66.6666666666667,4,2,0,30,0,0
23711,-100,4,2,0,30,0,0
24196,1E+31,4,2,0,30,1,0
24349,44.1176470588235,4,2,0,30,1,0
24372,352.941176470588,4,2,0,30,1,0
24548,-200,4,2,0,30,0,0
25078,-66.6666666666667,4,2,0,30,0,0
25122,-100,4,2,0,30,0,0
25608,1E+31,4,2,0,30,1,0
25761,44.1176470588235,4,2,0,30,1,0
25784,352.941176470588,4,2,0,30,1,0
25961,-200,4,2,0,30,0,0
26049,-400,4,2,0,30,0,0
26226,-200,4,2,0,30,0,0
26314,-400,4,2,0,30,0,0
26490,-66.6666666666667,4,2,0,30,0,0
26534,-100,4,2,0,30,0,0
26843,-80,4,2,0,30,0,0
27196,-66.6666666666667,4,2,0,30,0,0
27549,-57.1428571428571,4,2,0,30,0,0
28078,-100,4,2,0,30,0,0
28431,1E+31,4,2,0,30,1,0
28584,44.1176470588235,4,2,0,30,1,0
28607,352.941176470588,4,2,0,30,1,0
28784,-200,4,2,0,30,0,0
28872,-400,4,2,0,30,0,0
29049,-200,4,2,0,30,0,0
29137,-400,4,2,0,30,0,0
29314,-66.6666666666667,4,2,0,30,0,0
29358,-100,4,2,0,30,0,0
29843,1E+31,4,2,0,30,1,0
29996,44.1176470588235,4,2,0,30,1,0
30019,352.941176470588,4,2,0,30,1,0
30195,-200,4,2,0,30,0,0
30725,-66.6666666666667,4,2,0,30,0,0
30769,-100,4,2,0,30,0,0
31078,352.941176470588,4,2,0,30,1,0
31078,-95.2380952380952,4,2,0,30,0,0
31430,-90.9090909090909,4,2,0,30,0,0
31783,-86.9565217391304,4,2,0,30,0,0
32136,-83.3333333333333,4,2,0,30,0,0
32489,-80,4,2,0,30,0,0
32842,-76.9230769230769,4,2,0,30,0,0
33195,-74.0740740740741,4,2,0,30,0,0
33548,-71.4285714285714,4,2,0,30,0,0
33901,-100,4,2,0,30,0,0
34606,-1000,4,2,0,30,0,0
34959,-100,4,2,0,30,0,0
35136,-1000,4,2,0,30,0,0
35489,-100,4,2,0,30,0,0
36018,-400,4,2,0,30,0,0
36371,-25,4,2,0,30,0,0
36459,-400,4,2,0,30,0,0
36703,-10,4,2,0,30,0,0
36724,-100,4,2,0,30,0,0
37430,-1000,4,2,0,30,0,0
37783,-100,4,2,0,30,0,0
37959,-1000,4,2,0,30,0,0
38312,-100,4,2,0,30,0,0
38842,-10,4,2,0,30,0,0
38886,-400,4,2,0,30,0,0
39173,-66.6666666666667,4,2,0,30,0,0
39195,-10,4,2,0,30,0,0
39239,-400,4,2,0,30,0,0
39526,-66.6666666666667,4,2,0,30,0,0
39548,-100,4,2,0,30,0,0
40253,-1000,4,2,0,30,0,0
40606,-100,4,2,0,30,0,0
40783,-1000,4,2,0,30,0,0
41136,-100,4,2,0,30,0,0
41665,-400,4,2,0,30,0,0
41997,-10,4,2,0,30,0,0
42018,-25,4,2,0,30,0,0
42106,-400,4,2,0,30,0,0
42350,-10,4,2,0,30,0,0
42371,-142.857142857143,4,2,0,30,0,0
42724,-200,4,2,0,30,0,0
43077,-333.333333333333,4,2,0,30,0,0
43430,-1000,4,2,0,30,0,0
43783,-250,4,2,0,30,0,0
44136,-142.857142857143,4,2,0,30,0,0
44489,-100,4,2,0,30,0,0
44842,-76.9230769230769,4,2,0,30,0,0
45195,-100,4,2,0,30,0,0
45548,-10,4,2,0,30,0,0
45680,-100,4,2,0,30,0,0
46254,-10,4,2,0,30,0,0
46386,-100,4,2,0,30,0,0
46960,-10,4,2,0,30,0,0
47092,-100,4,2,0,30,0,0
47666,-57.1428571428571,4,2,0,30,0,0
47754,-400,4,2,0,30,0,0
47842,-51.2820512820513,4,2,0,30,0,0
47930,-400,4,2,0,30,0,0
48019,-100,4,2,0,30,0,0
48372,-10,4,2,0,30,0,0
48504,-100,4,2,0,30,0,0
49077,-10,4,2,0,30,0,0
49209,-100,4,2,0,30,0,0
49783,-10,4,2,0,30,0,0
49915,-100,4,2,0,30,0,0
50136,-54.054054054054,4,2,0,30,0,0
50224,-400,4,2,0,30,0,0
50312,-51.2820512820513,4,2,0,30,0,0
50400,-400,4,2,0,30,0,0
50489,-48.780487804878,4,2,0,30,0,0
50577,-400,4,2,0,30,0,0
50665,-46.5116279069767,4,2,0,30,0,0
50753,-400,4,2,0,30,0,0
50842,-100,4,2,0,30,0,0
51195,-10,4,2,0,30,0,0
51327,-100,4,2,0,30,0,0
51901,-10,4,2,0,30,0,0
52033,-100,4,2,0,30,0,0
52607,-10,4,2,0,30,0,0
52739,-100,4,2,0,30,0,0
53313,-57.1428571428571,4,2,0,30,0,0
53401,-400,4,2,0,30,0,0
53489,-54.054054054054,4,2,0,30,0,0
53577,-400,4,2,0,30,0,0
53666,-100,4,2,0,30,0,0
54019,-10,4,2,0,30,0,0
54151,-100,4,2,0,30,0,0
54725,-10,4,2,0,30,0,0
54857,-100,4,2,0,30,0,0
55430,-10,4,2,0,30,0,0
55562,-100,4,2,0,30,0,0
55783,-54.054054054054,4,2,0,30,0,0
55871,-400,4,2,0,30,0,0
55959,-51.2820512820513,4,2,0,30,0,0
56047,-400,4,2,0,30,0,0
56136,-48.780487804878,4,2,0,30,0,0
56224,-400,4,2,0,30,0,0
56312,-46.5116279069767,4,2,0,30,0,0
56400,-400,4,2,0,30,0,0
56489,-100,4,2,0,30,0,0
56842,-10,4,2,0,30,0,0
56974,-100,4,2,0,30,0,0
57548,-10,4,2,0,30,0,0
57680,-100,4,2,0,30,0,0
58254,-10,4,2,0,30,0,0
58386,-100,4,2,0,30,0,0
58960,-57.1428571428571,4,2,0,30,0,0
59048,-400,4,2,0,30,0,0
59136,-54.054054054054,4,2,0,30,0,0
59224,-400,4,2,0,30,0,0
59313,-100,4,2,0,30,0,0
59666,-10,4,2,0,30,0,0
59798,-100,4,2,0,30,0,0
60372,-10,4,2,0,30,0,0
60504,-100,4,2,0,30,0,0
61077,-10,4,2,0,30,0,0
61209,-100,4,2,0,30,0,0
61430,-54.054054054054,4,2,0,30,0,0
61518,-400,4,2,0,30,0,0
61606,-51.2820512820513,4,2,0,30,0,0
61694,-400,4,2,0,30,0,0
61783,-48.780487804878,4,2,0,30,0,0
61871,-400,4,2,0,30,0,0
61959,-46.5116279069767,4,2,0,30,0,0
62047,-400,4,2,0,30,0,0
62136,-100,4,2,0,30,0,0
62489,-10,4,2,0,30,0,0
62621,-100,4,2,0,30,0,0
63195,-10,4,2,0,30,0,0
63327,-100,4,2,0,30,0,0
63901,-10,4,2,0,30,0,0
64033,-100,4,2,0,30,0,0
64607,-10,4,2,0,30,0,0
64695,-100,4,2,0,30,0,0
64960,-71.4285714285714,4,2,0,30,0,0
65313,-55.5555555555556,4,2,0,30,0,0
65666,-45.4545454545455,4,2,0,30,0,0
66019,-38.4615384615385,4,2,0,30,0,0
66372,-33.3333333333333,4,2,0,30,0,0
66725,-29.4117647058824,4,2,0,30,0,0
67077,-26.3157894736842,4,2,0,30,0,0
67430,-100,4,2,0,30,0,0
67783,-1000,4,2,0,30,0,0
68136,-133.333333333333,4,2,0,30,0,0
68313,-400,4,2,0,30,0,0
68489,-200,4,2,0,30,0,0
70607,-1000,4,2,0,30,0,0
70960,-100,4,2,0,30,0,0
71137,-400,4,2,0,30,0,0
71313,-133.333333333333,4,2,0,30,0,0
73430,-1000,4,2,0,30,0,0
73783,-80,4,2,0,30,0,0
73960,-400,4,2,0,30,0,0
74136,-100,4,2,0,30,0,0
76254,-1000,4,2,0,30,0,0
76607,-80,4,2,0,30,0,0
76784,-1000,4,2,0,30,0,0
76960,-90.9090909090909,4,2,0,30,0,0
77666,-666.666666666667,4,2,0,30,0,0
78725,-10,4,2,0,30,0,0
78747,-100,4,2,0,30,0,0

[HitObjects]
448,192,20,128,0,373:0:0:0:0:
448,192,550,128,0,726:0:0:0:0:
64,192,726,1,0,0:0:0:0:
192,192,903,1,0,0:0:0:0:
64,192,1079,1,0,0:0:0:0:
192,192,1256,1,0,0:0:0:0:
64,192,1432,1,0,0:0:0:0:
320,192,1608,1,0,0:0:0:0:
64,192,1785,1,0,0:0:0:0:
320,192,1961,1,0,0:0:0:0:
64,192,2138,1,0,0:0:0:0:
448,192,2314,1,0,0:0:0:0:
64,192,2491,1,0,0:0:0:0:
448,192,2667,1,0,0:0:0:0:
64,192,2844,128,0,3197:0:0:0:0:
64,192,3373,128,0,3550:0:0:0:0:
448,192,3550,1,0,0:0:0:0:
320,192,3726,1,0,0:0:0:0:
448,192,3903,1,0,0:0:0:0:
320,192,4079,1,0,0:0:0:0:
448,192,4256,1,0,0:0:0:0:
192,192,4432,1,0,0:0:0:0:
448,192,4608,1,0,0:0:0:0:
192,192,4785,1,0,0:0:0:0:
448,192,4961,1,0,0:0:0:0:
64,192,5138,1,0,0:0:0:0:
448,192,5314,1,0,0:0:0:0:
64,192,5491,1,0,0:0:0:0:
320,192,5667,128,0,6020:0:0:0:0:
192,192,6020,1,0,0:0:0:0:
320,192,6197,128,0,6373:0:0:0:0:
192,192,6373,1,0,0:0:0:0:
64,192,6550,1,0,0:0:0:0:
192,192,6726,1,0,0:0:0:0:
64,192,6903,1,0,0:0:0:0:
192,192,7079,1,0,0:0:0:0:
320,192,7256,1,0,0:0:0:0:
192,192,7432,1,0,0:0:0:0:
320,192,7608,1,0,0:0:0:0:
192,192,7785,1,0,0:0:0:0:
448,192,7961,1,0,0:0:0:0:
192,192,8138,1,0,0:0:0:0:
448,192,8314,1,0,0:0:0:0:
320,192,8491,128,0,9903:0:0:0:0:
192,192,8491,128,0,8844:0:0:0:0:
64,192,8844,1,0,0:0:0:0:
192,192,9020,128,0,9197:0:0:0:0:
64,192,9197,1,0,0:0:0:0:
448,192,9373,1,0,0:0:0:0:
64,192,9550,1,0,0:0:0:0:
448,192,9726,1,0,0:0:0:0:
64,192,9903,1,0,0:0:0:0:
192,192,10079,1,0,0:0:0:0:
320,192,10256,1,0,0:0:0:0:
448,192,10432,1,0,0:0:0:0:
64,192,10608,1,0,0:0:0:0:
192,192,10785,1,0,0:0:0:0:
320,192,10961,1,0,0:0:0:0:
448,192,10961,1,0,0:0:0:0:
320,192,11314,1,0,0:0:0:0:
64,192,11491,1,0,0:0:0:0:
448,192,11667,1,0,0:0:0:0:
192,192,11844,1,0,0:0:0:0:
320,192,12020,128,0,12373:0:0:0:0:
192,192,12373,1,0,0:0:0:0:
448,192,12550,128,0,12903:0:0:0:0:
64,192,12903,1,0,0:0:0:0:
320,192,13079,1,0,0:0:0:0:
192,192,13256,1,0,0:0:0:0:
448,192,13432,128,0,14138:0:0:0:0:
192,192,13785,128,0,14138:0:0:0:0:
64,192,14138,1,0,0:0:0:0:
192,192,14314,1,0,0:0:0:0:
448,192,14491,1,0,0:0:0:0:
320,192,14667,1,0,0:0:0:0:
448,192,14844,128,0,15197:0:0:0:0:
192,192,15197,1,0,0:0:0:0:
64,192,15373,128,0,15726:0:0:0:0:
320,192,15726,1,0,0:0:0:0:
192,192,15903,1,0,0:0:0:0:
64,192,16079,1,0,0:0:0:0:
320,192,16256,1,0,0:0:0:0:
448,192,16256,128,0,16961:0:0:0:0:
192,192,16608,128,0,16961:0:0:0:0:
64,192,16961,1,0,0:0:0:0:
192,192,17138,1,0,0:0:0:0:
320,192,17314,1,0,0:0:0:0:
64,192,17491,1,0,0:0:0:0:
320,192,17667,128,0,18020:0:0:0:0:
192,192,18020,1,0,0:0:0:0:
448,192,18197,128,0,18550:0:0:0:0:
64,192,18550,1,0,0:0:0:0:
320,192,18726,1,0,0:0:0:0:
64,192,18903,1,0,0:0:0:0:
448,192,19079,128,0,19785:0:0:0:0:
320,192,19432,128,0,19785:0:0:0:0:
192,192,19785,1,0,0:0:0:0:
64,192,19873,1,0,0:0:0:0:
448,192,19961,1,0,0:0:0:0:
320,192,20050,1,0,0:0:0:0:
192,192,20138,1,0,0:0:0:0:
64,192,20226,1,0,0:0:0:0:
448,192,20314,1,0,0:0:0:0:
320,192,20403,1,0,0:0:0:0:
192,192,20491,1,0,0:0:0:0:
64,192,20579,1,0,0:0:0:0:
448,192,20667,1,0,0:0:0:0:
320,192,20756,1,0,0:0:0:0:
192,192,20844,1,0,0:0:0:0:
64,192,20932,1,0,0:0:0:0:
448,192,21020,1,0,0:0:0:0:
320,192,21108,1,0,0:0:0:0:
64,192,21197,1,0,0:0:0:0:
192,192,21285,1,0,0:0:0:0:
320,192,21373,1,0,0:0:0:0:
448,192,21461,1,0,0:0:0:0:
64,192,21550,1,0,0:0:0:0:
192,192,21638,1,0,0:0:0:0:
320,192,21726,1,0,0:0:0:0:
448,192,21814,1,0,0:0:0:0:
64,192,21903,1,0,0:0:0:0:
192,192,21991,1,0,0:0:0:0:
320,192,22079,1,0,0:0:0:0:
448,192,22167,1,0,0:0:0:0:
64,192,22256,1,0,0:0:0:0:
192,192,22344,1,0,0:0:0:0:
320,192,22432,1,0,0:0:0:0:
448,192,22520,1,0,0:0:0:0:
64,192,22608,1,0,0:0:0:0:
192,192,22697,1,0,0:0:0:0:
320,192,22785,1,0,0:0:0:0:
64,192,22960,1,0,0:0:0:0:
448,192,22960,1,0,0:0:0:0:
448,192,23136,1,0,0:0:0:0:
320,192,23224,1,0,0:0:0:0:
64,192,23401,1,0,0:0:0:0:
192,192,23489,1,0,0:0:0:0:
448,192,23665,1,0,0:0:0:0:
64,192,23842,1,0,0:0:0:0:
448,192,24018,1,0,0:0:0:0:
320,192,24107,1,0,0:0:0:0:
192,192,24195,1,0,0:0:0:0:
448,192,24371,1,0,0:0:0:0:
64,192,24371,1,0,0:0:0:0:
192,192,24548,1,0,0:0:0:0:
64,192,24636,1,0,0:0:0:0:
320,192,24724,1,0,0:0:0:0:
448,192,24813,1,0,0:0:0:0:
192,192,24901,1,0,0:0:0:0:
64,192,24989,1,0,0:0:0:0:
448,192,25077,1,0,0:0:0:0:
320,192,25254,1,0,0:0:0:0:
64,192,25430,1,0,0:0:0:0:
192,192,25519,1,0,0:0:0:0:
320,192,25607,1,0,0:0:0:0:
448,192,25783,1,0,0:0:0:0:
64,192,25783,1,0,0:0:0:0:
192,192,25960,1,0,0:0:0:0:
320,192,26048,1,0,0:0:0:0:
64,192,26225,1,0,0:0:0:0:
192,192,26313,1,0,0:0:0:0:
448,192,26489,1,0,0:0:0:0:
320,192,26666,1,0,0:0:0:0:
448,192,26842,1,0,0:0:0:0:
448,192,27019,1,0,0:0:0:0:
64,192,27195,1,0,0:0:0:0:
64,192,27372,1,0,0:0:0:0:
320,192,27548,1,0,0:0:0:0:
448,192,27548,1,0,0:0:0:0:
320,192,27725,1,0,0:0:0:0:
448,192,27725,1,0,0:0:0:0:
192,192,27901,1,0,0:0:0:0:
64,192,27901,1,0,0:0:0:0:
64,192,28078,1,0,0:0:0:0:
192,192,28078,1,0,0:0:0:0:
448,192,28254,1,0,0:0:0:0:
320,192,28342,1,0,0:0:0:0:
192,192,28431,1,0,0:0:0:0:
448,192,28607,1,0,0:0:0:0:
320,192,28607,1,0,0:0:0:0:
64,192,28783,1,0,0:0:0:0:
192,192,28871,1,0,0:0:0:0:
448,192,29048,1,0,0:0:0:0:
320,192,29136,1,0,0:0:0:0:
192,192,29312,1,0,0:0:0:0:
64,192,29312,1,0,0:0:0:0:
448,192,29489,1,0,0:0:0:0:
64,192,29665,1,0,0:0:0:0:
192,192,29754,1,0,0:0:0:0:
320,192,29842,1,0,0:0:0:0:
64,192,30018,1,0,0:0:0:0:
192,192,30018,1,0,0:0:0:0:
448,192,30195,1,0,0:0:0:0:
320,192,30283,1,0,0:0:0:0:
192,192,30371,1,0,0:0:0:0:
64,192,30460,1,0,0:0:0:0:
448,192,30548,1,0,0:0:0:0:
320,192,30636,1,0,0:0:0:0:
192,192,30724,1,0,0:0:0:0:
448,192,30901,1,0,0:0:0:0:
64,192,31077,1,0,0:0:0:0:
192,192,31166,1,0,0:0:0:0:
320,192,31254,1,0,0:0:0:0:
448,192,31342,1,0,0:0:0:0:
64,192,31430,1,0,0:0:0:0:
192,192,31519,1,0,0:0:0:0:
320,192,31607,1,0,0:0:0:0:
448,192,31695,1,0,0:0:0:0:
64,192,31783,1,0,0:0:0:0:
192,192,31872,1,0,0:0:0:0:
320,192,31960,1,0,0:0:0:0:
448,192,32048,1,0,0:0:0:0:
64,192,32136,1,0,0:0:0:0:
192,192,32225,1,0,0:0:0:0:
320,192,32313,1,0,0:0:0:0:
448,192,32401,1,0,0:0:0:0:
192,192,32489,1,0,0:0:0:0:
64,192,32578,1,0,0:0:0:0:
448,192,32666,1,0,0:0:0:0:
320,192,32754,1,0,0:0:0:0:
192,192,32842,1,0,0:0:0:0:
64,192,32930,1,0,0:0:0:0:
448,192,33019,1,0,0:0:0:0:
320,192,33107,1,0,0:0:0:0:
192,192,33195,1,0,0:0:0:0:
64,192,33283,1,0,0:0:0:0:
448,192,33372,1,0,0:0:0:0:
320,192,33460,1,0,0:0:0:0:
192,192,33548,1,0,0:0:0:0:
64,192,33636,1,0,0:0:0:0:
448,192,33725,1,0,0:0:0:0:
320,192,33813,1,0,0:0:0:0:
192,192,33901,1,0,0:0:0:0:
64,192,34078,1,0,0:0:0:0:
320,192,34254,1,0,0:0:0:0:
192,192,34430,1,0,0:0:0:0:
448,192,34607,128,0,34960:0:0:0:0:
192,192,34960,1,0,0:0:0:0:
64,192,35136,128,0,35489:0:0:0:0:
448,192,35489,1,0,0:0:0:0:
192,192,35666,1,0,0:0:0:0:
320,192,35842,1,0,0:0:0:0:
64,192,36019,128,0,36725:0:0:0:0:
320,192,36372,128,0,36725:0:0:0:0:
448,192,36725,1,0,0:0:0:0:
192,192,36901,1,0,0:0:0:0:
320,192,37078,1,0,0:0:0:0:
64,192,37254,1,0,0:0:0:0:
192,192,37430,128,0,37783:0:0:0:0:
320,192,37783,1,0,0:0:0:0:
448,192,37960,128,0,38313:0:0:0:0:
320,192,38313,1,0,0:0:0:0:
192,192,38489,1,0,0:0:0:0:
64,192,38666,1,0,0:0:0:0:
448,192,38842,128,0,39548:0:0:0:0:
320,192,38842,1,0,0:0:0:0:
64,192,39195,128,0,39548:0:0:0:0:
192,192,39548,1,0,0:0:0:0:
320,192,39725,1,0,0:0:0:0:
64,192,39901,1,0,0:0:0:0:
448,192,40077,1,0,0:0:0:0:
192,192,40254,128,0,40607:0:0:0:0:
320,192,40607,1,0,0:0:0:0:
64,192,40783,128,0,41136:0:0:0:0:
448,192,41136,1,0,0:0:0:0:
192,192,41313,1,0,0:0:0:0:
448,192,41489,1,0,0:0:0:0:
64,192,41666,128,0,42372:0:0:0:0:
320,192,42019,128,0,42372:0:0:0:0:
448,192,42372,1,0,0:0:0:0:
320,192,42460,1,0,0:0:0:0:
192,192,42548,1,0,0:0:0:0:
64,192,42636,1,0,0:0:0:0:
448,192,42725,1,0,0:0:0:0:
320,192,42813,1,0,0:0:0:0:
192,192,42901,1,0,0:0:0:0:
64,192,42989,1,0,0:0:0:0:
448,192,43077,1,0,0:0:0:0:
320,192,43166,1,0,0:0:0:0:
192,192,43254,1,0,0:0:0:0:
64,192,43342,1,0,0:0:0:0:
448,192,43430,1,0,0:0:0:0:
320,192,43519,1,0,0:0:0:0:
192,192,43607,1,0,0:0:0:0:
64,192,43695,1,0,0:0:0:0:
320,192,43783,1,0,0:0:0:0:
448,192,43872,1,0,0:0:0:0:
64,192,43960,1,0,0:0:0:0:
192,192,44048,1,0,0:0:0:0:
320,192,44136,1,0,0:0:0:0:
448,192,44225,1,0,0:0:0:0:
64,192,44313,1,0,0:0:0:0:
192,192,44401,1,0,0:0:0:0:
320,192,44489,1,0,0:0:0:0:
448,192,44577,1,0,0:0:0:0:
64,192,44666,1,0,0:0:0:0:
192,192,44754,1,0,0:0:0:0:
320,192,44842,1,0,0:0:0:0:
448,192,44930,1,0,0:0:0:0:
64,192,45019,1,0,0:0:0:0:
192,192,45107,1,0,0:0:0:0:
320,192,45195,128,0,45901:0:0:0:0:
64,192,45548,1,0,0:0:0:0:
448,192,45901,128,0,46607:0:0:0:0:
64,192,46254,128,0,46607:0:0:0:0:
192,192,46254,1,0,0:0:0:0:
320,192,46607,128,0,47313:0:0:0:0:
64,192,46960,1,0,0:0:0:0:
192,192,47313,128,0,48019:0:0:0:0:
448,192,47666,1,0,0:0:0:0:
448,192,47842,1,0,0:0:0:0:
64,192,48019,128,0,48725:0:0:0:0:
320,192,48019,1,0,0:0:0:0:
448,192,48372,1,0,0:0:0:0:
448,192,48725,128,0,49430:0:0:0:0:
64,192,49077,128,0,49430:0:0:0:0:
320,192,49077,1,0,0:0:0:0:
192,192,49430,128,0,50842:0:0:0:0:
64,192,49783,1,0,0:0:0:0:
448,192,50136,128,0,50842:0:0:0:0:
320,192,50136,1,0,0:0:0:0:
320,192,50313,1,0,0:0:0:0:
64,192,50489,1,0,0:0:0:0:
64,192,50666,1,0,0:0:0:0:
320,192,50842,128,0,51548:0:0:0:0:
64,192,51195,1,0,0:0:0:0:
448,192,51548,128,0,52254:0:0:0:0:
64,192,51901,128,0,52254:0:0:0:0:
192,192,51901,1,0,0:0:0:0:
320,192,52254,128,0,52960:0:0:0:0:
448,192,52607,1,0,0:0:0:0:
192,192,52960,128,0,53666:0:0:0:0:
64,192,53313,1,0,0:0:0:0:
64,192,53489,1,0,0:0:0:0:
448,192,53666,128,0,54372:0:0:0:0:
320,192,53666,1,0,0:0:0:0:
64,192,54019,1,0,0:0:0:0:
320,192,54372,128,0,55077:0:0:0:0:
192,192,54725,1,0,0:0:0:0:
64,192,55077,128,0,56489:0:0:0:0:
192,192,55430,1,0,0:0:0:0:
320,192,55783,1,0,0:0:0:0:
320,192,55960,1,0,0:0:0:0:
448,192,56136,1,0,0:0:0:0:
448,192,56313,1,0,0:0:0:0:
192,192,56489,128,0,57195:0:0:0:0:
448,192,56842,1,0,0:0:0:0:
64,192,57195,128,0,57901:0:0:0:0:
448,192,57548,128,0,57901:0:0:0:0:
320,192,57548,1,0,0:0:0:0:
192,192,57901,128,0,58607:0:0:0:0:
448,192,58254,1,0,0:0:0:0:
320,192,58607,128,0,59313:0:0:0:0:
64,192,58960,1,0,0:0:0:0:
64,192,59136,1,0,0:0:0:0:
448,192,59313,128,0,60019:0:0:0:0:
192,192,59313,1,0,0:0:0:0:
64,192,59666,1,0,0:0:0:0:
64,192,60019,128,0,60725:0:0:0:0:
448,192,60372,128,0,60725:0:0:0:0:
192,192,60372,1,0,0:0:0:0:
320,192,60725,128,0,62136:0:0:0:0:
448,192,61077,1,0,0:0:0:0:
64,192,61430,128,0,62136:0:0:0:0:
192,192,61430,1,0,0:0:0:0:
192,192,61607,1,0,0:0:0:0:
448,192,61783,1,0,0:0:0:0:
448,192,61960,1,0,0:0:0:0:
192,192,62136,128,0,62842:0:0:0:0:
448,192,62489,1,0,0:0:0:0:
64,192,62842,128,0,63548:0:0:0:0:
448,192,63195,128,0,63548:0:0:0:0:
320,192,63195,1,0,0:0:0:0:
192,192,63548,128,0,64254:0:0:0:0:
448,192,63901,128,0,64254:0:0:0:0:
64,192,64254,128,0,64960:0:0:0:0:
320,192,64607,128,0,64960:0:0:0:0:
192,192,64960,128,0,65313:0:0:0:0:
320,192,65313,128,0,65666:0:0:0:0:
448,192,65666,128,0,66019:0:0:0:0:
64,192,66019,128,0,66372:0:0:0:0:
448,192,66372,128,0,66725:0:0:0:0:
320,192,66725,128,0,67077:0:0:0:0:
192,192,67077,128,0,67430:0:0:0:0:
64,192,67430,128,0,67783:0:0:0:0:
448,192,67783,128,0,68136:0:0:0:0:
448,192,68313,128,0,68489:0:0:0:0:
64,192,68489,1,0,0:0:0:0:
192,192,68666,1,0,0:0:0:0:
64,192,68842,1,0,0:0:0:0:
192,192,69019,1,0,0:0:0:0:
64,192,69195,1,0,0:0:0:0:
320,192,69372,1,0,0:0:0:0:
64,192,69548,1,0,0:0:0:0:
320,192,69725,1,0,0:0:0:0:
64,192,69901,1,0,0:0:0:0:
448,192,70077,1,0,0:0:0:0:
64,192,70254,1,0,0:0:0:0:
448,192,70430,1,0,0:0:0:0:
64,192,70607,128,0,70960:0:0:0:0:
64,192,71136,128,0,71313:0:0:0:0:
448,192,71313,1,0,0:0:0:0:
320,192,71489,1,0,0:0:0:0:
448,192,71666,1,0,0:0:0:0:
320,192,71842,1,0,0:0:0:0:
448,192,72019,1,0,0:0:0:0:
192,192,72195,1,0,0:0:0:0:
448,192,72372,1,0,0:0:0:0:
192,192,72548,1,0,0:0:0:0:
448,192,72725,1,0,0:0:0:0:
64,192,72901,1,0,0:0:0:0:
448,192,73077,1,0,0:0:0:0:
64,192,73254,1,0,0:0:0:0:
320,192,73430,128,0,73783:0:0:0:0:
192,192,73783,1,0,0:0:0:0:
320,192,73960,128,0,74136:0:0:0:0:
192,192,74136,1,0,0:0:0:0:
64,192,74313,1,0,0:0:0:0:
192,192,74489,1,0,0:0:0:0:
64,192,74666,1,0,0:0:0:0:
192,192,74842,1,0,0:0:0:0:
320,192,75019,1,0,0:0:0:0:
192,192,75195,1,0,0:0:0:0:
320,192,75372,1,0,0:0:0:0:
192,192,75548,1,0,0:0:0:0:
448,192,75725,1,0,0:0:0:0:
192,192,75901,1,0,0:0:0:0:
448,192,76077,1,0,0:0:0:0:
320,192,76254,128,0,77666:0:0:0:0:
192,192,76254,128,0,76607:0:0:0:0:
64,192,76607,1,0,0:0:0:0:
192,192,76783,128,0,76960:0:0:0:0:
64,192,76960,1,0,0:0:0:0:
448,192,77136,1,0,0:0:0:0:
64,192,77313,1,0,0:0:0:0:
448,192,77489,1,0,0:0:0:0:
64,192,77666,1,0,0:0:0:0:
192,192,77842,1,0,0:0:0:0:
320,192,78019,1,0,0:0:0:0:
448,192,78195,1,0,0:0:0:0:
64,192,78372,1,0,0:0:0:0:
192,192,78548,1,0,0:0:0:0:
320,192,78725,1,0,0:0:0:0:
448,192,78725,1,0,0:0:0:0:
64,192,78901,1,0,0:0:0:0:
