osu file format v14

[General]
AudioFilename: bgm_event1.mp3
AudioLeadIn: 0
PreviewTime: 33814
Countdown: 1
SampleSet: Soft
StackLeniency: 0.7
Mode: 0
LetterboxInBreaks: 1
WidescreenStoryboard: 0

[Editor]
DistanceSpacing: 0.8
BeatDivisor: 4
GridSize: 8
TimelineZoom: 1

[Metadata]
Title:Enemy Appearance!
TitleUnicode:Enemy Appearance!
Artist:Hyadain
ArtistUnicode:Hyadain
Creator:ExpertBOT
Version:Jump!!!!!
Source:Kaku-San-Sei Million Arthur
Tags:SquareEnix
BeatmapID:524415
BeatmapSetID:224729

[Difficulty]
HPDrainRate:6
CircleSize:4
OverallDifficulty:7
ApproachRate:9
SliderMultiplier:1.20000000596046
SliderTickRate:1

[Events]
//Background and Video events
0,0,"BG.jpg",0,0
//Break Periods
2,28455,30478
//Storyboard Layer 0 (Background)
//Storyboard Layer 1 (Fail)
//Storyboard Layer 2 (Pass)
//Storyboard Layer 3 (Foreground)
//Storyboard Sound Samples

[TimingPoints]
20,352.941176470588,4,2,0,100,1,0
16255,-200,4,2,0,100,0,0
16961,-100,4,2,0,100,0,0
22608,-66.6666666666667,4,2,0,100,0,0
33902,-66.6666666666667,4,2,0,100,0,1
45196,-66.6666666666667,4,2,0,100,0,0
67608,-133.333333333333,4,2,0,30,0,0
67784,-100,4,2,0,30,0,0

[Colours]
Combo1 : 16,222,239
Combo2 : 0,255,255
Combo3 : 128,233,255
Combo4 : 1,191,254

[HitObjects]
88,292,20,6,2,P|128:192|192:180,1,180.000000894069
376,340,1431,5,0,0:0:0:0:
472,200,1784,1,0,0:0:0:0:
332,108,2137,1,0,0:0:0:0:
228,248,2490,1,0,0:0:0:0:
124,60,2843,2,2,B|92:64|36:100|48:152|112:160|168:136,1,180.000000894069
224,72,4255,5,0,0:0:0:0:
304,152,4608,1,0,0:0:0:0:
208,232,4961,1,0,0:0:0:0:
300,296,5314,1,0,0:0:0:0:
48,100,5667,5,2,0:0:0:0:
96,100,5843,1,0,0:0:0:0:
144,100,6019,1,0,0:0:0:0:
192,100,6196,1,0,0:0:0:0:
192,148,6372,5,2,0:0:0:0:
240,148,6549,1,0,0:0:0:0:
288,148,6725,1,0,0:0:0:0:
336,148,6902,1,0,0:0:0:0:
248,240,7255,5,2,0:0:0:0:
364,296,7608,1,0,0:0:0:0:
364,296,7696,1,0,0:0:0:0:
364,296,7784,2,0,P|420:264|444:192,2,120.000000596046,0|0|0,0:0|0:0|0:0,0:0:0:0:
260,304,8667,1,2,0:0:0:0:
164,260,8843,5,0,0:0:0:0:
284,72,9019,1,0,0:0:0:0:
72,176,9196,1,2,0:0:0:0:
400,172,9372,1,0,0:0:0:0:
72,64,9549,1,0,0:0:0:0:
392,324,9725,1,0,0:0:0:0:
72,64,9902,1,0,0:0:0:0:
392,324,10078,1,0,0:0:0:0:
72,64,10255,1,0,0:0:0:0:
392,324,10431,1,0,0:0:0:0:
72,124,10608,5,0,0:0:0:0:
392,256,10784,1,0,0:0:0:0:
72,188,10961,1,0,0:0:0:0:
392,196,11137,1,0,0:0:0:0:
380,76,11314,5,2,0:0:0:0:
96,76,11490,1,2,0:0:0:0:
96,320,11667,1,2,0:0:0:0:
376,312,11843,1,2,0:0:0:0:
328,180,12019,2,4,P|284:132|228:132,1,120.000000596046
132,56,12549,5,2,0:0:0:0:
316,336,12725,1,2,0:0:0:0:
228,36,12902,1,2,0:0:0:0:
212,360,13078,1,2,0:0:0:0:
328,52,13255,1,2,0:0:0:0:
116,352,13431,2,2,P|80:296|104:248,1,120.000000596046
144,184,13961,1,4,0:0:0:0:
236,160,14137,1,0,0:0:0:0:
268,248,14314,1,0,0:0:0:0:
172,272,14490,1,0,0:0:0:0:
192,64,14667,5,0,0:0:0:0:
352,200,14843,1,0,0:0:0:0:
192,360,15019,1,0,0:0:0:0:
36,228,15196,1,0,0:0:0:0:
344,40,15372,5,4,0:0:0:0:
364,352,15549,1,0,0:0:0:0:
16,384,15725,1,0,0:0:0:0:
0,64,15902,1,0,0:0:0:0:
444,56,16078,1,0,0:0:0:0:
352,152,16255,6,2,L|288:152,1,60.000000298023
12,204,16961,5,6,0:0:0:0:
140,324,17137,5,0,0:0:0:0:
44,176,17314,5,0,0:0:0:0:
176,300,17490,5,0,0:0:0:0:
80,148,17667,5,0,0:0:0:0:
212,276,18019,5,0,0:0:0:0:
112,124,18196,5,6,0:0:0:0:
244,256,18549,5,0,0:0:0:0:
152,104,18725,5,0,0:0:0:0:
276,236,18901,5,0,0:0:0:0:
180,88,19078,5,0,0:0:0:0:
312,216,19431,5,6,0:0:0:0:
376,64,19784,5,0,0:0:0:0:
376,148,19872,1,0,0:0:0:0:
376,228,19961,1,0,0:0:0:0:
372,304,20049,2,0,L|324:296,5,30.0000001490115,0|0|0|0|0|0,0:0|0:0|0:0|0:0|0:0|0:0,0:0:0:0:
280,308,20578,5,0,0:0:0:0:
208,308,20667,1,0,0:0:0:0:
136,284,20755,1,0,0:0:0:0:
80,236,20843,2,0,L|52:264,4,30.0000001490115,0|0|0|0|0,0:0|0:0|0:0|0:0|0:0,0:0:0:0:
84,156,21284,5,0,0:0:0:0:
96,140,21372,1,0,0:0:0:0:
112,124,21461,1,0,0:0:0:0:
128,112,21549,1,0,0:0:0:0:
144,104,21637,1,0,0:0:0:0:
164,96,21725,1,0,0:0:0:0:
180,88,21814,1,0,0:0:0:0:
196,84,21902,1,0,0:0:0:0:
212,84,21990,5,0,0:0:0:0:
232,84,22078,1,0,0:0:0:0:
248,92,22167,1,0,0:0:0:0:
264,100,22255,1,0,0:0:0:0:
280,112,22343,1,0,0:0:0:0:
292,128,22431,1,0,0:0:0:0:
300,144,22519,1,0,0:0:0:0:
304,156,22608,6,2,L|372:224,1,90.0000038802622,0|0,0:0|0:0,0:0:0:0:
80,316,23137,6,0,L|116:284,1,45.0000019401311
140,268,23314,1,4,0:0:0:0:
172,188,23490,1,0,0:0:0:0:
176,180,23667,1,0,0:0:0:0:
180,172,23843,1,0,0:0:0:0:
300,320,24019,5,0,0:0:0:0:
336,308,24108,1,0,0:0:0:0:
364,288,24196,1,0,0:0:0:0:
304,180,24372,1,0,0:0:0:0:
372,76,24548,1,0,0:0:0:0:
336,64,24637,1,0,0:0:0:0:
300,56,24725,1,0,0:0:0:0:
224,56,24902,1,4,0:0:0:0:
212,56,25078,1,0,0:0:0:0:
200,60,25255,1,0,0:0:0:0:
60,156,25431,5,0,0:0:0:0:
60,156,25519,1,0,0:0:0:0:
60,156,25608,1,0,0:0:0:0:
60,156,25784,1,0,0:0:0:0:
60,156,25961,1,0,0:0:0:0:
60,156,26049,1,0,0:0:0:0:
60,156,26137,1,0,0:0:0:0:
60,156,26314,1,4,0:0:0:0:
60,156,26490,1,0,0:0:0:0:
60,156,26666,1,0,0:0:0:0:
432,192,26843,5,2,0:0:0:0:
256,28,27019,1,2,0:0:0:0:
68,196,27196,1,2,0:0:0:0:
256,352,27372,1,2,0:0:0:0:
256,192,27549,12,4,28255,0:0:0:0:
256,192,31078,12,2,33196,0:0:0:0:
224,152,33902,5,4,0:0:0:0:
304,240,34078,1,0,0:0:0:0:
256,104,34255,1,0,0:0:0:0:
260,288,34431,1,0,0:0:0:0:
288,88,34608,1,2,0:0:0:0:
208,312,34961,1,0,0:0:0:0:
344,84,35137,5,6,0:0:0:0:
148,312,35490,1,0,0:0:0:0:
392,104,35667,1,0,0:0:0:0:
96,288,35843,1,0,0:0:0:0:
436,140,36019,1,0,0:0:0:0:
64,236,36372,1,0,0:0:0:0:
48,64,36725,5,2,0:0:0:0:
56,328,36902,1,0,0:0:0:0:
448,328,37078,1,0,0:0:0:0:
448,64,37255,1,0,0:0:0:0:
48,64,37431,1,2,0:0:0:0:
48,320,37784,1,0,0:0:0:0:
448,328,37961,1,2,0:0:0:0:
448,64,38314,1,0,0:0:0:0:
48,64,38490,1,0,0:0:0:0:
48,320,38667,1,0,0:0:0:0:
108,188,38843,6,2,B|132:144|132:144|148:184|148:184|160:152|160:152|184:176|184:176|220:176|220:176,1,180.000007760524
448,320,39549,5,2,0:0:0:0:
448,64,39725,1,0,0:0:0:0:
48,64,39902,1,0,0:0:0:0:
48,320,40078,1,0,0:0:0:0:
448,320,40255,1,2,0:0:0:0:
448,64,40608,1,0,0:0:0:0:
48,64,40784,1,0,0:0:0:0:
48,320,41137,1,0,0:0:0:0:
448,320,41314,1,0,0:0:0:0:
448,64,41490,1,0,0:0:0:0:
48,64,41667,1,2,0:0:0:0:
52,336,42020,1,0,0:0:0:0:
224,76,42372,5,4,0:0:0:0:
252,88,42461,1,0,0:0:0:0:
224,104,42549,1,0,0:0:0:0:
256,120,42637,1,0,0:0:0:0:
224,136,42725,1,0,0:0:0:0:
256,152,42814,1,0,0:0:0:0:
220,176,42902,1,0,0:0:0:0:
256,192,42990,1,0,0:0:0:0:
248,228,43078,6,4,L|272:272,1,45.0000019401311
256,232,43255,2,0,L|304:256,1,45.0000019401311
260,236,43431,2,0,L|304:212,1,45.0000019401311
256,232,43608,2,0,L|280:192,1,45.0000019401311
264,232,43784,2,0,L|252:184,1,45.0000019401311
264,240,43961,2,0,L|212:212,1,45.0000019401311
240,256,44137,6,4,L|196:280,1,45.0000019401311
300,296,44314,2,4,L|296:352,1,45.0000019401311
360,264,44490,2,4,L|416:280,1,45.0000019401311
376,172,44667,2,4,L|436:148,1,45.0000019401311
316,68,44843,2,4,L|352:16,1,45.0000019401311
184,84,45019,2,4,L|168:36,1,45.0000019401311
112,168,45196,6,0,B|88:236|144:292|228:256,2,180.000007760524,0|0|0,0:0|0:0|0:0,0:0:0:0:
132,148,45990,1,0,0:0:0:0:
132,148,46078,1,0,0:0:0:0:
228,84,46255,5,0,0:0:0:0:
344,164,46431,1,0,0:0:0:0:
260,256,46608,1,0,0:0:0:0:
260,256,46696,1,0,0:0:0:0:
260,256,46784,1,0,0:0:0:0:
156,300,46961,1,2,0:0:0:0:
88,228,47137,1,0,0:0:0:0:
88,228,47225,1,0,0:0:0:0:
88,228,47314,6,0,B|88:152|112:88|164:72,1,180.000007760524
240,64,47843,1,2,0:0:0:0:
312,52,48019,6,0,P|392:108|432:196,1,180.000007760524
400,272,48549,1,2,0:0:0:0:
312,320,48725,2,0,P|216:332|116:276,1,180.000007760524
80,232,49255,1,2,0:0:0:0:
92,156,49431,5,4,0:0:0:0:
100,148,49519,1,0,0:0:0:0:
108,144,49608,1,0,0:0:0:0:
120,136,49696,1,0,0:0:0:0:
128,132,49784,1,0,0:0:0:0:
136,128,49872,1,0,0:0:0:0:
144,120,49961,1,0,0:0:0:0:
152,116,50049,1,0,0:0:0:0:
164,112,50137,6,0,L|192:152,1,45.0000019401311
296,300,50314,2,0,L|268:260,1,45.0000019401311
272,68,50490,2,0,L|304:116,1,45.0000019401311
396,264,50667,2,0,L|356:200,1,45.0000019401311
328,148,50843,5,4,0:0:0:0:
276,180,51019,1,0,0:0:0:0:
224,200,51196,1,0,0:0:0:0:
196,152,51372,1,0,0:0:0:0:
172,100,51549,1,4,0:0:0:0:
224,72,51725,1,0,0:0:0:0:
280,56,51902,1,0,0:0:0:0:
304,96,52078,1,0,0:0:0:0:
428,268,52255,5,4,0:0:0:0:
308,312,52431,1,0,0:0:0:0:
168,348,52608,1,0,0:0:0:0:
116,236,52784,1,0,0:0:0:0:
72,104,52961,1,0,0:0:0:0:
212,68,53137,1,4,0:0:0:0:
352,24,53314,1,0,0:0:0:0:
392,148,53490,1,0,0:0:0:0:
128,228,53667,6,2,L|172:240,15,45.0000019401311,0|0|0|0|0|0|0|0|0|0|0|0|0|0|0|0,0:0|0:0|0:0|0:0|0:0|0:0|0:0|0:0|0:0|0:0|0:0|0:0|0:0|0:0|0:0|0:0,0:0:0:0:
236,248,55078,6,2,L|292:248,13,45.0000019401311,0|0|0|0|0|0|0|0|0|0|0|0|0|0,0:0|0:0|0:0|0:0|0:0|0:0|0:0|0:0|0:0|0:0|0:0|0:0|0:0|0:0,0:0:0:0:
320,248,56490,2,2,B|388:196|384:136|328:64,2,180.000007760524,0|0|0,0:0|0:0|0:0,0:0:0:0:
192,236,57372,1,2,0:0:0:0:
152,204,57461,1,0,0:0:0:0:
140,152,57549,1,0,0:0:0:0:
248,56,57725,1,0,0:0:0:0:
364,104,57902,5,0,0:0:0:0:
428,224,58078,1,2,0:0:0:0:
424,256,58167,1,0,0:0:0:0:
416,292,58255,1,0,0:0:0:0:
280,348,58431,5,0,0:0:0:0:
140,336,58608,1,2,0:0:0:0:
108,324,58696,1,0,0:0:0:0:
84,296,58784,1,0,0:0:0:0:
68,268,58872,1,0,0:0:0:0:
56,236,58961,1,0,0:0:0:0:
48,72,59137,1,0,0:0:0:0:
160,64,59314,6,0,L|256:64|364:64,1,180.000007760524,0|0,0:0|0:0,0:0:0:0:
340,320,60019,2,0,L|156:320,1,180.000007760524
408,112,60725,6,0,L|408:296,1,180.000007760524
88,292,61431,2,0,L|88:104,1,180.000007760524
220,324,62137,5,2,0:0:0:0:
220,324,62490,1,0,0:0:0:0:
312,56,62843,5,2,0:0:0:0:
312,56,63196,1,0,0:0:0:0:
88,248,63549,5,2,0:0:0:0:
228,328,63725,1,2,0:0:0:0:
364,296,63902,1,2,0:0:0:0:
424,176,64078,1,2,0:0:0:0:
364,56,64255,1,2,0:0:0:0:
224,24,64431,1,2,0:0:0:0:
96,84,64608,1,2,0:0:0:0:
88,248,64784,1,2,0:0:0:0:
228,324,64961,6,2,L|284:332,15,45.0000019401311,0|0|0|0|0|0|0|0|0|0|0|0|0|0|0|0,0:0|0:0|0:0|0:0|0:0|0:0|0:0|0:0|0:0|0:0|0:0|0:0|0:0|0:0|0:0|0:0,0:0:0:0:
296,324,66372,5,2,0:0:0:0:
328,320,66461,1,2,0:0:0:0:
352,304,66549,1,2,0:0:0:0:
380,288,66637,1,2,0:0:0:0:
412,260,66725,1,2,0:0:0:0:
436,220,66814,1,2,0:0:0:0:
440,164,66902,1,2,0:0:0:0:
424,104,66990,5,2,0:0:0:0:
364,60,67078,1,2,0:0:0:0:
280,48,67167,1,2,0:0:0:0:
192,52,67255,1,2,0:0:0:0:
108,104,67343,1,2,0:0:0:0:
56,176,67431,1,2,0:0:0:0:
64,280,67519,1,2,0:0:0:0:
136,340,67608,6,6,L|188:340,1,45.0000019401311
