osu file format v14

[General]
AudioFilename: audio.mp3
AudioLeadIn: 0
PreviewTime:1730
Countdown: 1
SampleSet: Soft
StackLeniency: 0.7
Mode: 0
LetterboxInBreaks: 0
WidescreenStoryboard: 1
SkinPreference:Default

[Editor]
Bookmarks:16379,23490,30601,37712,44823,51934,59045,66156,73268,80379,87490,94601,97286,101712,108823
DistanceSpacing: 0.3
BeatDivisor: 4
GridSize: 16
TimelineZoom: 2.899999

[Metadata]
Title:CRASH!! (Let's Do It)
TitleUnicode:CRASH!! (Let's Do It)
Artist:Hyadain
ArtistUnicode:ヒャダイン
Creator:Aranel
Version:NORMAL!!
Source:Mega Man 2
Tags:gay megaman capcom japanese vgm video game pop remix クラッシュマン clashman rockman rock man The Mystery of Dr. Willy bloxi
BeatmapID:3325907
BeatmapSetID:1626624

[Difficulty]
HPDrainRate:3
CircleSize:3
OverallDifficulty:5
ApproachRate:5
SliderMultiplier:1.28
SliderTickRate:1

[Events]
//Background and Video events
Video,0,"video.mp4"
0,0,"bg.png",0,0
//Break Periods
//Storyboard Layer 0 (Background)
//Storyboard Layer 1 (Fail)
//Storyboard Layer 2 (Pass)
//Storyboard Layer 3 (Foreground)
//Storyboard Layer 4 (Overlay)
//Storyboard Sound Samples

[TimingPoints]
1842,444.444444444444,4,2,1,60,1,0
16064,-100,4,2,1,80,0,1
30286,-100,4,2,1,60,0,0
44508,-100,4,2,1,70,0,0
58730,-100,4,2,1,80,0,1
87175,-100,4,2,1,70,0,0
101397,-100,4,2,1,60,0,0
108508,-100,4,2,1,50,0,0
115175,-100,4,2,1,70,0,0
116397,-100,4,2,1,5,0,0

[Colours]
Combo1 : 36,24,140
Combo2 : 224,252,160
Combo3 : 136,112,0
Combo4 : 32,56,236
SliderBorder : 255,255,255

[HitObjects]
256,192,16065,6,0,L|384:192,1,128,6|8,1:2|0:2,0:0:0:0:
384,64,16954,1,2,1:2:0:0:
256,64,17397,1,10,0:2:0:0:
128,64,17842,2,0,L|128:192,1,128,0|8,1:0|0:2,0:0:0:0:
128,256,18509,1,2,0:2:0:0:
128,320,18731,2,0,L|256:320,1,128,2|10,1:2|0:2,0:0:0:0:
256,256,19398,1,2,0:2:0:0:
256,192,19620,6,0,L|128:192,1,128,0|8,1:0|0:2,0:0:0:0:
128,64,20508,1,2,1:2:0:0:
256,64,20953,1,10,0:2:0:0:
384,64,21397,2,0,L|384:192,1,128,0|10,1:0|0:2,0:0:0:0:
384,320,22286,1,0,1:0:0:0:
320,320,22508,1,10,0:1:0:0:
256,320,22730,1,10,0:1:0:0:
256,192,23175,6,0,L|128:192,1,128,6|8,1:2|0:2,0:0:0:0:
128,64,24064,1,2,1:2:0:0:
256,64,24508,1,10,0:2:0:0:
384,64,24952,2,0,L|384:192,1,128,0|8,1:0|0:2,0:0:0:0:
384,256,25619,1,2,0:2:0:0:
384,320,25841,2,0,L|256:320,1,128,2|10,1:2|0:2,0:0:0:0:
256,256,26508,1,2,0:2:0:0:
256,192,26730,6,0,L|384:192,1,128,0|8,1:0|0:2,0:0:0:0:
384,64,27619,1,2,1:2:0:0:
256,64,28064,1,10,0:2:0:0:
128,64,28508,2,0,L|128:128,1,64,2|2,1:2|1:2,0:0:0:0:
128,192,28953,2,0,L|128:272,1,64,2|2,1:2|1:2,0:0:0:0:
128,320,29397,1,2,1:2:0:0:
384,320,30286,6,0,B|384:192|384:192|256:192,2,256,2|2|2,1:2|1:2|1:2,0:0:0:0:
256,320,32508,1,8,0:2:0:0:
128,320,32953,1,2,1:2:0:0:
128,192,33397,1,10,0:2:0:0:
128,64,33841,6,0,B|256:64|256:64|256:192,2,256,2|0|0,1:2|1:2|1:0,0:0:0:0:
128,192,36063,1,8,0:2:0:0:
256,320,36730,5,8,0:1:0:0:
256,320,36953,1,8,0:1:0:0:
256,192,37397,6,0,B|256:64|256:64|384:64,2,256,2|2|2,1:2|1:2|1:2,0:0:0:0:
384,192,39619,1,8,0:2:0:0:
384,320,40064,1,2,1:2:0:0:
256,320,40508,1,10,0:2:0:0:
256,192,40953,6,0,B|256:64|256:64|128:64,2,256,2|0|0,1:2|1:2|1:0,0:0:0:0:
128,192,43175,1,8,0:2:0:0:
256,320,43841,5,10,0:1:0:0:
256,320,44064,1,10,0:1:0:0:
128,320,44508,6,0,L|128:192,1,128,2|10,1:2|0:2,0:0:0:0:
128,64,45397,2,0,L|256:64,1,128,2|10,1:2|0:2,0:0:0:0:
384,64,46286,2,0,B|384:192|384:192|256:192|256:192|256:336,1,384,2|10,1:2|0:2,0:0:0:0:
384,320,48064,6,0,L|384:192,1,128,2|10,1:2|0:2,0:0:0:0:
384,64,48953,2,0,L|256:64,1,128,0|8,1:2|0:2,0:0:0:0:
128,64,49842,2,0,B|128:192|128:192|256:192|256:192|256:336,1,384,0|8,1:0|0:1,0:0:0:0:
128,320,51619,5,2,1:2:0:0:
128,192,52064,1,10,0:2:0:0:
256,192,52508,2,0,B|256:64|256:64|128:64,2,256,2|2|2,1:2|1:2|1:2,0:0:0:0:
256,320,54730,1,10,0:2:0:0:
384,320,55175,5,2,1:2:0:0:
384,192,55620,1,10,0:2:0:0:
256,192,56064,2,0,B|256:64|256:64|384:64,1,256,0|0,1:2|1:0,0:0:0:0:
384,192,57397,1,8,0:2:0:0:
256,192,57841,1,0,1:0:0:0:
128,192,58286,1,10,0:0:0:0:
128,320,58730,6,0,L|256:320,1,128,6|12,1:1|0:0,0:0:0:0:
384,320,59619,1,2,1:2:0:0:
384,192,60064,1,10,0:2:0:0:
256,192,60508,2,0,L|128:192,1,128,0|8,1:0|0:2,0:0:0:0:
128,128,61175,1,2,0:2:0:0:
128,64,61397,2,0,L|256:64,1,128,2|10,1:2|0:2,0:0:0:0:
320,64,62064,1,2,0:2:0:0:
384,64,62286,6,0,L|384:192,1,128,2|8,1:2|0:2,0:0:0:0:
384,320,63175,1,2,1:2:0:0:
256,320,63620,1,10,0:2:0:0:
128,320,64064,2,0,L|128:192,1,128,0|8,1:0|0:2,0:0:0:0:
128,64,64953,2,0,L|192:64,1,64,0|10,1:0|0:1,0:0:0:0:
256,64,65397,1,10,0:1:0:0:
384,64,65841,6,0,L|384:192,1,128,2|12,1:2|0:0,0:0:0:0:
256,192,66730,1,2,1:2:0:0:
128,192,67175,1,10,0:2:0:0:
128,320,67619,2,0,L|256:320,1,128,0|8,1:0|0:2,0:0:0:0:
320,320,68286,1,2,0:2:0:0:
384,320,68508,2,0,L|384:192,1,128,2|10,1:2|0:2,0:0:0:0:
320,192,69175,1,2,0:2:0:0:
256,192,69397,6,0,L|112:192,1,128,2|8,1:2|0:2,0:0:0:0:
128,64,70286,1,2,1:2:0:0:
256,64,70731,1,10,0:2:0:0:
256,192,71175,2,0,L|256:320,1,128,0|8,1:0|0:2,0:0:0:0:
384,320,72064,2,0,L|384:240,1,64,0|10,1:0|0:1,0:0:0:0:
384,192,72508,1,10,0:1:0:0:
384,64,72953,6,0,L|256:64,1,128,6|12,1:1|0:0,0:0:0:0:
192,64,73620,1,2,0:2:0:0:
128,64,73842,1,2,1:2:0:0:
128,192,74287,1,10,0:2:0:0:
256,192,74731,2,0,L|384:192,1,128,0|8,1:0|0:2,0:0:0:0:
384,256,75398,1,2,0:2:0:0:
384,320,75620,2,0,L|256:320,1,128,2|10,1:2|0:2,0:0:0:0:
192,320,76287,1,2,0:2:0:0:
128,320,76509,6,0,L|128:192,1,128,2|8,1:2|0:2,0:0:0:0:
128,128,77176,1,2,0:2:0:0:
128,64,77398,1,2,1:2:0:0:
256,64,77841,1,10,0:2:0:0:
384,64,78286,2,0,L|384:192,1,128,0|8,1:0|0:2,0:0:0:0:
384,320,79175,2,0,L|320:320,1,64,0|10,1:0|0:1,0:0:0:0:
256,320,79619,1,10,0:1:0:0:
128,320,80064,6,0,L|128:192,1,128,2|12,1:2|0:0,0:0:0:0:
192,192,80730,1,2,0:2:0:0:
256,192,80953,1,2,1:2:0:0:
384,192,81397,1,10,0:2:0:0:
384,64,81841,2,0,L|256:64,1,128,0|8,1:0|0:2,0:0:0:0:
192,64,82509,1,2,0:2:0:0:
128,64,82731,2,0,L|128:192,1,128,2|10,1:2|0:2,0:0:0:0:
192,192,83398,1,2,0:2:0:0:
256,192,83620,6,0,L|400:192,1,128,2|8,1:2|0:2,0:0:0:0:
384,256,84287,1,2,0:2:0:0:
384,320,84509,1,2,1:2:0:0:
256,320,84954,1,10,0:2:0:0:
256,192,85398,2,0,L|256:64,1,128,0|8,1:0|0:2,0:0:0:0:
192,64,86064,1,2,1:2:0:0:
128,64,86287,2,0,L|128:144,1,64,0|10,1:0|0:1,0:0:0:0:
128,192,86731,1,10,0:1:0:0:
128,320,87175,6,0,L|400:320,2,256,4|2|2,1:2|1:2|1:2,0:0:0:0:
128,192,89397,1,10,0:0:0:0:
256,192,89841,2,0,L|336:192,1,64,2|2,1:2|0:2,0:0:0:0:
384,192,90286,1,10,0:2:0:0:
384,64,90730,6,0,L|112:64,2,256,4|2|2,1:2|1:2|1:2,0:0:0:0:
384,192,92952,1,10,0:0:0:0:
256,192,93397,1,2,1:2:0:0:
192,192,93619,1,10,0:2:0:0:
128,192,93841,1,10,0:2:0:0:
128,64,94286,6,0,L|400:64,2,256,4|2|2,1:2|1:2|1:2,0:0:0:0:
128,192,96508,1,10,0:0:0:0:
256,192,96953,2,0,L|336:192,1,64,2|2,1:2|0:2,0:0:0:0:
384,192,97398,1,10,0:2:0:0:
384,320,97841,6,0,L|112:320,1,256,4|2,1:2|1:2,0:0:0:0:
128,192,99175,1,10,0:2:0:0:
256,192,99619,2,0,L|256:80,2,96,2|8|8,1:2|0:3|0:3,0:0:0:0:
256,320,100730,5,10,0:1:0:0:
256,320,100953,1,10,0:1:0:0:
384,320,101397,6,0,B|384:192|384:192|256:192,1,256,2|2,1:2|1:2,0:0:0:0:
128,192,102730,1,10,0:2:0:0:
128,320,103175,2,0,L|256:320,1,128,0|10,1:2|0:0,0:0:0:0:
384,320,104064,1,2,1:2:0:0:
384,192,104508,1,10,0:0:0:0:
384,64,104953,6,0,B|256:64|256:64|256:192,1,256,2|2,1:2|1:2,0:0:0:0:
256,320,106286,1,10,0:2:0:0:
128,320,106731,2,0,L|128:176,1,128,0|10,1:2|0:0,0:0:0:0:
256,64,107841,5,10,0:1:0:0:
256,64,108064,1,10,0:1:0:0:
384,64,108508,6,0,B|384:320|384:320|128:320|128:320,1,512,2|0,0:0|0:0,0:0:0:0:
128,64,111175,2,0,L|256:64,1,128,2|2,0:0|0:0,0:0:0:0:
384,64,112064,1,2,0:0:0:0:
384,320,112953,2,0,L|128:320,1,256,2|2,0:0|1:2,0:0:0:0:
128,192,114286,1,2,1:2:0:0:
256,192,114730,1,2,1:2:0:0:
256,192,114953,1,8,1:1:0:0:
256,192,115175,1,14,1:1:0:0:
256,192,115286,12,0,116397,0:0:0:0:
