osu file format v14

[General]
AudioFilename: audio.mp3
AudioLeadIn: 0
PreviewTime: 1730
Countdown: 1
SampleSet: Soft
StackLeniency: 0.7
Mode: 0
LetterboxInBreaks: 0
WidescreenStoryboard: 1
SkinPreference:Default

[Editor]
Bookmarks: 16379,23490,30601,37712,44823,51934,59045,66156,73268,80379,87490,94601,97286,101712,108823
DistanceSpacing: 1
BeatDivisor: 4
GridSize: 8
TimelineZoom: 2.899999

[Metadata]
Title:CRASH!! (Let's Do It)
TitleUnicode:CRASH!! (Let's Do It)
Artist:Hyadain
ArtistUnicode:ヒャダイン
Creator:Aranel
Version:INSANE!!
Source:Mega Man 2
Tags:gay megaman capcom japanese vgm video game pop remix クラッシュマン clashman rockman rock man The Mystery of Dr. Willy bloxi
BeatmapID:3321937
BeatmapSetID:1626624

[Difficulty]
HPDrainRate:6
CircleSize:6
OverallDifficulty:7
ApproachRate:7
SliderMultiplier:1.92
SliderTickRate:1

[Events]
//Background and Video events
Video,0,"video.mp4"
0,0,"bg.png",0,0
//Break Periods
//Storyboard Layer 0 (Background)
//Storyboard Layer 1 (Fail)
//Storyboard Layer 2 (Pass)
//Storyboard Layer 3 (Foreground)
//Storyboard Layer 4 (Overlay)
//Storyboard Sound Samples

[TimingPoints]
1842,444.444444444444,4,2,1,60,1,0
16064,-100,4,2,1,80,0,1
30286,-100,4,2,1,60,0,0
44508,-100,4,2,1,70,0,0
58730,-100,4,2,1,80,0,1
87175,-100,4,2,1,70,0,0
101397,-100,4,2,1,60,0,0
108508,-100,4,2,1,50,0,0
115175,-100,4,2,1,70,0,0
116397,-100,4,2,1,5,0,0

[Colours]
Combo1 : 36,24,140
Combo2 : 224,252,160
Combo3 : 136,112,0
Combo4 : 32,56,236
SliderBorder : 255,255,255

[HitObjects]
480,32,16064,6,0,L|288:32,1,192,6|8,1:2|0:2,0:0:0:0:
192,32,16730,1,2,0:2:0:0:
192,128,16953,1,2,1:2:0:0:
384,128,17397,1,10,0:2:0:0:
384,272,17730,5,2,1:2:0:0:
384,176,17953,1,2,0:2:0:0:
384,176,18064,1,2,1:2:0:0:
384,224,18175,1,2,0:2:0:0:
384,224,18286,1,8,0:2:0:0:
288,224,18508,1,2,0:2:0:0:
192,224,18730,1,2,1:2:0:0:
64,80,19175,1,10,0:2:0:0:
160,80,19397,1,2,0:2:0:0:
256,80,19619,6,0,L|448:80,1,192,0|8,1:0|0:2,0:0:0:0:
448,80,20286,1,2,0:2:0:0:
448,176,20508,1,2,1:2:0:0:
448,368,20953,1,10,0:2:0:0:
304,368,21286,5,2,1:2:0:0:
304,272,21508,1,2,0:2:0:0:
304,272,21619,1,2,1:2:0:0:
304,320,21730,1,2,0:2:0:0:
304,320,21841,1,10,0:2:0:0:
304,224,22064,1,2,0:2:0:0:
112,224,22508,5,10,0:1:0:0:
112,224,22730,1,10,0:1:0:0:
32,32,23175,6,0,L|224:32,1,192,6|8,1:2|0:2,0:0:0:0:
320,32,23841,1,2,0:2:0:0:
320,128,24064,1,2,1:2:0:0:
128,128,24508,1,10,0:2:0:0:
128,272,24841,5,2,1:2:0:0:
128,176,25064,1,2,0:2:0:0:
128,176,25175,1,2,1:2:0:0:
128,224,25286,1,2,0:2:0:0:
128,224,25397,1,8,0:2:0:0:
224,224,25619,1,2,0:2:0:0:
320,224,25841,1,2,1:2:0:0:
448,80,26286,1,10,0:2:0:0:
352,80,26508,1,2,0:2:0:0:
256,80,26730,6,0,L|64:80,1,192,0|8,1:0|0:2,0:0:0:0:
64,80,27397,1,2,0:2:0:0:
64,176,27619,1,2,1:2:0:0:
64,368,28064,1,10,0:2:0:0:
256,192,28508,12,2,29397,1:2:0:0:
256,192,29619,5,2,0:1:0:0:
256,192,29841,1,2,0:1:0:0:
120,384,30286,6,0,B|256:384|256:384|256:328,1,192,2|10,1:2|0:2,0:0:0:0:
256,192,31064,1,2,0:2:0:0:
256,192,31175,1,2,1:2:0:0:
160,192,31397,1,2,0:2:0:0:
64,192,31619,1,10,0:2:0:0:
64,192,31730,1,2,0:2:0:0:
64,192,31841,1,2,0:2:0:0:
64,192,31953,1,2,1:2:0:0:
64,48,32286,1,2,1:2:0:0:
480,48,33175,5,2,0:2:0:0:
480,144,33397,1,10,0:2:0:0:
416,72,33619,1,2,0:2:0:0:
416,168,33841,1,2,1:2:0:0:
416,360,34286,1,10,0:2:0:0:
272,360,34619,1,2,0:2:0:0:
272,360,34730,1,0,1:2:0:0:
272,264,34953,1,2,0:2:0:0:
104,360,35397,2,0,B|8:360|8:360|8:264,2,192,2|2|0,0:2|1:2|1:2,0:0:0:0:
104,264,36508,1,0,1:2:0:0:
104,168,36730,5,8,0:1:0:0:
8,264,36953,5,8,0:1:0:0:
104,0,37397,6,0,B|256:0|256:0|312:0,1,192,2|10,1:2|0:2,0:0:0:0:
296,144,38175,1,2,0:2:0:0:
296,144,38286,1,2,1:2:0:0:
200,144,38508,1,2,0:2:0:0:
200,240,38730,1,10,0:2:0:0:
200,240,38841,1,2,0:2:0:0:
200,240,38953,1,2,0:2:0:0:
200,240,39064,1,2,1:2:0:0:
56,240,39397,1,2,0:2:0:0:
456,240,40286,5,2,0:2:0:0:
456,144,40508,1,10,0:2:0:0:
392,216,40730,1,2,0:2:0:0:
392,120,40952,1,2,1:2:0:0:
200,120,41397,1,10,0:2:0:0:
208,264,41730,1,2,0:2:0:0:
208,264,41841,1,0,1:2:0:0:
112,264,42064,1,2,0:2:0:0:
304,264,42508,2,0,B|304:336|304:336|176:336|176:336,2,192,2|2|0,0:2|1:2|1:1,0:0:0:0:
304,168,43619,1,0,1:2:0:0:
400,168,43841,6,0,L|400:224,1,48,10|0,0:1|0:0,0:0:0:0:
400,288,44064,5,10,0:1:0:0:
240,64,44508,6,0,B|96:64|96:64|96:120,1,192,2|10,1:2|0:2,0:0:0:0:
96,256,45286,1,2,0:2:0:0:
96,256,45397,1,2,1:2:0:0:
0,256,45619,1,2,0:2:0:0:
0,160,45841,1,10,0:2:0:0:
0,160,45953,1,2,0:2:0:0:
0,160,46064,1,2,0:2:0:0:
0,160,46176,1,2,1:2:0:0:
144,160,46508,2,0,B|240:160|240:160|240:256|240:256|240:312|240:312|192:312,1,288,2|2,0:2|1:2,0:0:0:0:
104,312,47397,5,2,0:2:0:0:
104,216,47619,1,10,0:2:0:0:
40,288,47841,1,2,0:2:0:0:
40,192,48063,1,2,1:2:0:0:
40,0,48508,1,10,0:2:0:0:
144,112,48841,1,2,0:2:0:0:
144,112,48953,1,0,1:2:0:0:
144,208,49175,1,2,0:2:0:0:
336,208,49619,2,0,B|376:208|376:208|432:208|432:208|432:312,2,192,2|2|0,0:2|1:2|1:2,0:0:0:0:
336,304,50730,1,0,1:2:0:0:
432,304,50953,5,8,0:1:0:0:
336,208,51175,5,8,0:1:0:0:
176,304,51619,6,0,B|80:304|80:304|80:208,1,192,2|10,1:2|0:2,0:0:0:0:
224,208,52397,1,2,0:2:0:0:
224,208,52508,1,2,1:2:0:0:
224,112,52730,1,2,0:2:0:0:
128,112,52953,1,10,0:2:0:0:
32,112,53175,1,2,0:2:0:0:
32,112,53286,1,2,1:2:0:0:
32,240,53619,1,2,0:2:0:0:
480,304,54508,5,2,0:2:0:0:
480,208,54730,1,10,0:2:0:0:
416,280,54952,1,2,0:2:0:0:
416,184,55175,1,2,1:2:0:0:
224,184,55619,1,10,0:2:0:0:
224,40,55953,1,2,0:2:0:0:
224,40,56064,1,0,1:2:0:0:
320,40,56286,1,2,0:2:0:0:
320,232,56730,1,2,0:2:0:0:
224,232,56953,6,0,L|160:232,1,48,0|4,1:0|0:3,0:0:0:0:
176,344,57175,2,0,L|176:280,1,48,4|4,0:3|0:3,0:0:0:0:
64,296,57397,2,0,L|128:296,1,48,8|4,0:2|0:3,0:0:0:0:
112,184,57619,2,0,L|112:232,1,48,4|4,0:3|0:3,0:0:0:0:
0,232,57841,2,0,L|48:232,1,48,0|8,1:0|0:3,0:0:0:0:
48,120,58064,2,0,L|48:168,2,48,10|8|10,0:3|0:3|0:0,0:0:0:0:
224,40,58730,6,0,B|176:40|176:40|176:192,1,192,6|12,1:1|0:0,0:0:0:0:
272,184,59397,1,2,0:2:0:0:
368,184,59619,1,2,1:2:0:0:
368,376,60064,1,10,0:2:0:0:
224,376,60397,5,2,1:2:0:0:
224,280,60619,1,2,0:2:0:0:
272,280,60730,1,2,1:2:0:0:
224,280,60841,1,2,0:2:0:0:
272,280,60953,1,8,0:2:0:0:
176,280,61175,1,2,0:2:0:0:
176,184,61397,1,2,1:2:0:0:
368,184,61841,1,10,0:2:0:0:
368,88,62064,1,2,0:2:0:0:
272,88,62286,6,0,B|224:88|224:88|224:184|224:184|160:184,1,192,2|8,1:2|0:2,0:0:0:0:
80,184,62953,1,2,0:2:0:0:
80,88,63175,1,2,1:2:0:0:
80,280,63619,1,10,0:2:0:0:
224,280,63953,5,2,1:2:0:0:
328,280,64175,1,2,0:2:0:0:
376,280,64286,1,2,1:2:0:0:
328,280,64397,1,2,0:2:0:0:
376,280,64508,1,8,0:2:0:0:
472,280,64730,1,2,0:2:0:0:
472,88,65175,5,10,0:1:0:0:
472,280,65397,1,10,0:1:0:0:
288,40,65841,6,0,B|336:40|336:40|336:192,1,192,2|12,1:2|0:0,0:0:0:0:
240,184,66508,1,2,0:2:0:0:
144,184,66730,1,2,1:2:0:0:
144,376,67175,1,10,0:2:0:0:
288,376,67508,5,2,1:2:0:0:
288,280,67730,1,2,0:2:0:0:
240,280,67841,1,2,1:2:0:0:
288,280,67952,1,2,0:2:0:0:
240,280,68064,1,8,0:2:0:0:
336,280,68286,1,2,0:2:0:0:
336,184,68508,1,2,1:2:0:0:
144,184,68952,1,10,0:2:0:0:
144,88,69175,1,2,0:2:0:0:
240,88,69397,6,0,B|288:88|288:88|288:184|288:184|352:184,1,192,2|8,1:2|0:2,0:0:0:0:
432,184,70064,1,2,0:2:0:0:
432,88,70286,1,2,1:2:0:0:
432,280,70730,1,10,0:2:0:0:
288,280,71064,5,2,0:2:0:0:
288,280,71175,1,0,1:0:0:0:
240,280,71286,1,2,0:2:0:0:
240,280,71397,1,2,1:2:0:0:
192,280,71508,1,2,0:2:0:0:
192,280,71619,1,8,0:2:0:0:
144,280,71730,1,0,0:0:0:0:
144,280,71841,1,2,1:2:0:0:
40,88,72286,5,10,0:1:0:0:
40,280,72508,5,10,0:1:0:0:
200,192,72953,6,0,B|200:128|200:128|256:128|256:128|256:40,1,192,6|12,1:1|0:0,0:0:0:0:
160,56,73620,1,2,0:2:0:0:
256,56,73842,1,2,1:2:0:0:
256,248,74287,1,10,0:2:0:0:
400,248,74620,5,2,1:2:0:0:
400,152,74842,1,2,0:2:0:0:
352,152,74953,1,2,1:2:0:0:
400,152,75065,1,2,0:2:0:0:
352,152,75176,1,8,0:2:0:0:
448,152,75398,1,2,0:2:0:0:
448,56,75620,1,2,1:2:0:0:
256,56,76065,1,10,0:2:0:0:
160,56,76287,1,2,0:2:0:0:
64,56,76509,6,0,B|64:192|64:192|128:192,1,192,2|8,1:2|0:2,0:0:0:0:
216,192,77176,1,2,0:2:0:0:
216,288,77398,1,2,1:2:0:0:
24,288,77842,1,10,0:2:0:0:
168,288,78176,5,2,1:2:0:0:
72,288,78398,1,2,0:2:0:0:
120,288,78509,1,2,1:2:0:0:
72,288,78620,1,2,0:2:0:0:
120,288,78731,1,8,0:2:0:0:
120,384,78953,1,2,0:2:0:0:
120,192,79397,5,10,0:1:0:0:
120,384,79619,1,10,0:1:0:0:
312,192,80064,6,0,B|312:128|312:128|256:128|256:128|256:40,1,192,2|12,1:2|0:0,0:0:0:0:
352,56,80731,1,2,0:2:0:0:
256,56,80953,1,2,1:2:0:0:
256,248,81398,1,10,0:2:0:0:
112,248,81731,5,2,1:2:0:0:
112,152,81953,1,2,0:2:0:0:
160,152,82064,1,2,1:2:0:0:
112,152,82176,1,2,0:2:0:0:
160,152,82287,1,8,0:2:0:0:
64,152,82509,1,2,0:2:0:0:
64,56,82731,1,2,1:2:0:0:
256,56,83176,1,10,0:2:0:0:
352,56,83398,1,2,0:2:0:0:
448,56,83620,6,0,B|448:192|448:192|384:192,1,192,2|8,1:2|0:2,0:0:0:0:
296,192,84287,1,2,0:2:0:0:
296,288,84509,1,2,1:2:0:0:
488,288,84953,1,10,0:2:0:0:
344,288,85286,5,2,0:2:0:0:
344,288,85397,1,0,1:0:0:0:
392,288,85508,1,2,0:2:0:0:
392,288,85619,1,2,1:2:0:0:
440,288,85730,1,2,0:2:0:0:
440,288,85841,1,8,0:2:0:0:
488,288,85952,1,0,0:0:0:0:
488,288,86063,1,2,1:2:0:0:
392,192,86508,5,10,0:1:0:0:
392,384,86730,1,10,0:1:0:0:
256,192,87175,5,4,1:2:0:0:
256,48,87397,1,0,0:0:0:0:
400,48,87619,1,10,0:2:0:0:
256,48,87841,1,0,1:2:0:0:
112,48,88064,1,2,1:2:0:0:
256,48,88286,1,2,0:2:0:0:
256,192,88508,1,10,0:2:0:0:
256,48,88730,1,2,0:2:0:0:
256,192,88953,2,0,B|176:192|176:192|176:136|176:136|256:136|256:136|320:136|320:136|320:280,1,384,2|2,1:2|1:2,0:0:0:0:
320,336,90064,1,2,0:2:0:0:
416,336,90286,1,10,0:2:0:0:
416,336,90397,1,2,0:2:0:0:
256,192,90730,5,4,1:2:0:0:
256,48,90952,1,0,0:0:0:0:
112,48,91174,1,10,0:2:0:0:
256,48,91396,1,0,1:2:0:0:
400,48,91619,1,2,1:2:0:0:
256,48,91841,1,2,0:2:0:0:
256,192,92063,1,10,0:2:0:0:
256,48,92285,1,2,0:2:0:0:
256,192,92508,2,0,B|336:192|336:192|336:136|336:136|256:136|256:136|192:136|192:136|192:280,1,384,2|2,1:2|1:2,0:0:0:0:
192,336,93619,1,10,0:2:0:0:
96,336,93841,1,10,0:2:0:0:
96,336,93952,1,2,0:2:0:0:
256,192,94286,5,4,1:2:0:0:
400,192,94508,1,0,0:0:0:0:
400,48,94730,1,10,0:2:0:0:
256,48,94953,1,0,1:2:0:0:
112,48,95175,1,2,1:2:0:0:
112,192,95397,1,2,0:2:0:0:
112,336,95619,1,10,0:2:0:0:
256,336,95841,1,2,0:2:0:0:
256,192,96064,2,0,B|176:192|176:192|176:248|176:248|256:248|256:248|320:248|320:248|320:104,1,384,2|2,1:2|1:2,0:0:0:0:
320,48,97175,1,2,0:2:0:0:
416,48,97397,1,10,0:2:0:0:
416,48,97508,1,2,0:2:0:0:
256,192,97841,5,4,1:2:0:0:
112,192,98063,1,0,0:0:0:0:
112,48,98285,1,10,0:2:0:0:
256,48,98508,1,0,1:2:0:0:
400,48,98730,1,2,1:2:0:0:
400,192,98952,1,2,0:2:0:0:
400,336,99174,1,10,0:2:0:0:
256,336,99396,1,2,0:2:0:0:
112,336,99619,5,2,1:2:0:0:
256,192,99953,1,8,0:3:0:0:
400,336,100286,1,8,0:3:0:0:
256,192,100730,5,10,0:1:0:0:
256,48,100953,5,10,0:1:0:0:
448,48,101397,5,2,1:2:0:0:
448,336,102064,1,2,1:2:0:0:
352,336,102286,2,0,B|288:336|288:336|288:208,1,192,2|10,1:2|0:2,0:0:0:0:
288,64,103064,5,2,1:2:0:0:
384,64,103286,1,2,0:2:0:0:
384,112,103397,1,2,1:2:0:0:
384,64,103508,1,2,0:0:0:0:
384,112,103619,1,10,0:0:0:0:
384,208,103841,1,2,1:2:0:0:
384,304,104064,1,2,1:2:0:0:
192,304,104508,1,10,0:0:0:0:
192,208,104730,1,2,0:0:0:0:
192,112,104953,1,2,1:2:0:0:
64,336,105619,5,2,1:2:0:0:
160,336,105841,2,0,B|224:336|224:336|224:208,1,192,2|10,1:2|0:2,0:0:0:0:
224,64,106619,1,2,1:2:0:0:
128,64,106841,1,2,0:2:0:0:
128,112,106952,1,2,1:2:0:0:
128,64,107063,1,2,0:0:0:0:
128,112,107174,1,10,0:0:0:0:
128,208,107396,1,2,1:2:0:0:
320,208,107841,5,10,0:1:0:0:
320,208,108064,1,10,0:1:0:0:
256,64,108508,5,2,0:0:0:0:
256,320,109175,1,2,0:0:0:0:
256,320,109397,2,0,B|256:176|256:176|200:176,1,192,2|2,0:0|0:0,0:0:0:0:
208,320,110175,5,2,0:0:0:0:
208,320,110397,2,0,L|264:320,1,48,2|2,0:0|0:0,0:0:0:0:
256,320,110619,2,0,L|256:264,1,48,2|2,0:0|0:0,0:0:0:0:
256,176,110953,1,2,0:0:0:0:
160,176,111175,1,2,0:0:0:0:
352,176,111619,1,2,0:0:0:0:
352,272,111841,1,2,0:0:0:0:
352,368,112064,1,2,0:0:0:0:
64,368,112730,5,2,0:0:0:0:
64,272,112953,1,2,0:0:0:0:
256,272,113397,1,2,0:0:0:0:
256,128,113730,1,2,0:0:0:0:
160,128,113953,1,2,0:0:0:0:
160,224,114175,1,2,0:0:0:0:
160,224,114286,1,2,1:2:0:0:
160,320,114508,1,2,1:2:0:0:
352,320,114953,5,8,1:1:0:0:
256,192,115175,5,14,1:1:0:0:
256,192,115286,12,0,116397,0:0:0:0:
