osu file format v14

[General]
AudioFilename: audio.mp3
AudioLeadIn: 0
PreviewTime: 1730
Countdown: 1
SampleSet: Soft
StackLeniency: 0.7
Mode: 0
LetterboxInBreaks: 0
WidescreenStoryboard: 1
SkinPreference:Default

[Editor]
Bookmarks: 16379,23490,30601,37712,44823,51934,59045,66156,73268,80379,87490,94601,97286,101712,108823
DistanceSpacing: 0.8
BeatDivisor: 4
GridSize: 8
TimelineZoom: 2.899999

[Metadata]
Title:CRASH!! (Let's Do It)
TitleUnicode:CRASH!! (Let's Do It)
Artist:Hyadain
ArtistUnicode:ヒャダイン
Creator:Aranel
Version:HARD!!
Source:Mega Man 2
Tags:gay megaman capcom japanese vgm video game pop remix クラッシュマン clashman rockman rock man The Mystery of Dr. Willy bloxi
BeatmapID:3322443
BeatmapSetID:1626624

[Difficulty]
HPDrainRate:6
CircleSize:5
OverallDifficulty:6
ApproachRate:6
SliderMultiplier:1.92
SliderTickRate:1

[Events]
//Background and Video events
Video,0,"video.mp4"
0,0,"bg.png",0,0
//Break Periods
//Storyboard Layer 0 (Background)
//Storyboard Layer 1 (Fail)
//Storyboard Layer 2 (Pass)
//Storyboard Layer 3 (Foreground)
//Storyboard Layer 4 (Overlay)
//Storyboard Sound Samples

[TimingPoints]
1842,444.444444444444,4,2,1,60,1,0
16064,-100,4,2,1,80,0,1
30286,-100,4,2,1,60,0,0
44508,-100,4,2,1,70,0,0
58730,-100,4,2,1,80,0,1
87175,-100,4,2,1,70,0,0
101397,-100,4,2,1,60,0,0
108508,-100,4,2,1,50,0,0
115175,-100,4,2,1,70,0,0
116397,-100,4,2,1,5,0,0

[Colours]
Combo1 : 36,24,140
Combo2 : 224,252,160
Combo3 : 136,112,0
Combo4 : 32,56,236
SliderBorder : 255,255,255

[HitObjects]
256,192,16064,6,0,B|312:232|368:172|448:192,1,192,6|8,1:2|0:2,0:0:0:0:
492,248,16730,1,2,0:2:0:0:
428,292,16953,2,0,B|332:196|428:116|428:116,1,192,2|10,1:2|0:2,0:0:0:0:
344,36,17730,2,0,L|248:36,1,96,2|2,1:2|0:2,0:0:0:0:
208,104,18175,2,0,L|160:104,1,48,2|8,0:2|0:2,0:0:0:0:
96,60,18508,1,2,0:2:0:0:
32,104,18730,1,2,1:2:0:0:
32,256,19175,1,10,0:2:0:0:
96,300,19397,1,2,0:2:0:0:
160,256,19619,6,0,B|224:240|280:336|372:352,1,192,0|8,1:0|0:2,0:0:0:0:
404,360,20286,1,2,0:2:0:0:
384,284,20508,1,2,1:2:0:0:
256,192,20953,1,10,0:2:0:0:
156,136,21286,2,0,B|112:68|208:44|208:44,1,96,2|2,1:2|0:2,0:0:0:0:
216,44,21619,2,0,B|252:60|256:108|256:108,2,48,2|2|10,1:2|0:2|0:2,0:0:0:0:
140,28,22064,1,2,0:2:0:0:
256,192,22508,5,10,0:1:0:0:
256,192,22730,1,10,0:1:0:0:
256,192,23175,6,0,B|200:232|144:172|64:192,1,192,6|8,1:2|0:2,0:0:0:0:
20,248,23841,1,2,0:2:0:0:
84,292,24064,2,0,B|180:196|84:116|84:116,1,192,2|10,1:2|0:2,0:0:0:0:
168,36,24841,2,0,L|264:36,1,96,2|2,1:2|0:2,0:0:0:0:
304,104,25286,2,0,L|352:104,1,48,2|8,0:2|0:2,0:0:0:0:
416,60,25619,1,2,0:2:0:0:
480,104,25841,1,2,1:2:0:0:
480,256,26286,1,10,0:2:0:0:
416,300,26508,1,2,0:2:0:0:
352,256,26730,6,0,B|288:240|232:336|140:352,1,192,0|8,1:0|0:2,0:0:0:0:
108,360,27397,1,2,0:2:0:0:
128,284,27619,1,2,1:2:0:0:
256,192,28064,1,10,0:2:0:0:
256,192,28508,12,2,29841,0:1:0:0:
432,220,30286,6,0,B|432:360|296:352,1,192,2|10,1:2|0:2,0:0:0:0:
220,308,31064,2,0,B|192:280|220:252|220:252,1,48,2|2,0:2|1:2,0:0:0:0:
256,192,31397,1,2,0:2:0:0:
192,136,31619,2,0,B|107:138|153:176|153:176,1,48,10|2,0:2|0:2,0:0:0:0:
106,164,31842,1,2,0:2:0:0:
68,184,31953,2,0,B|48:152|140:60|60:24,1,144,2|2,1:2|1:2,0:0:0:0:
434,46,33175,5,2,0:2:0:0:
452,132,33397,1,10,0:2:0:0:
372,160,33619,1,2,0:2:0:0:
332,236,33841,2,0,B|420:388|236:300,1,192,2|10,1:2|0:2,0:0:0:0:
152,248,34619,2,0,B|152:200|180:176,1,48,2|0,0:2|1:2,0:0:0:0:
228,148,34953,1,2,0:2:0:0:
96,36,35397,2,0,B|88:172|24:224,2,192,2|2|0,0:2|1:2|1:2,0:0:0:0:
256,192,36730,5,8,0:1:0:0:
256,192,36953,1,8,0:1:0:0:
80,220,37397,6,0,B|80:360|216:352,1,192,2|10,1:2|0:2,0:0:0:0:
292,308,38175,2,0,B|320:280|292:252|292:252,1,48,2|2,0:2|1:2,0:0:0:0:
256,192,38508,1,2,0:2:0:0:
320,136,38730,2,0,B|405:138|359:176|359:176,1,48,10|2,0:2|0:2,0:0:0:0:
406,164,38953,1,2,0:2:0:0:
444,184,39064,2,0,B|464:152|372:60|452:24,1,144,2|2,1:2|0:2,0:0:0:0:
78,46,40286,5,2,0:2:0:0:
60,132,40508,1,10,0:2:0:0:
140,160,40730,1,2,0:2:0:0:
180,236,40952,2,0,B|92:388|276:300,1,192,2|10,1:2|0:2,0:0:0:0:
360,248,41730,2,0,B|360:200|332:176,1,48,2|0,0:2|1:2,0:0:0:0:
284,148,42064,1,2,0:2:0:0:
416,36,42508,2,0,B|424:172|488:224,2,192,2|2|0,0:2|1:2|1:1,0:0:0:0:
256,192,43841,5,10,0:1:0:0:
256,192,44064,1,10,0:1:0:0:
80,112,44508,6,0,B|148:208|64:304,1,192,2|10,1:2|0:2,0:0:0:0:
152,380,45286,2,0,B|176:364|200:364|200:364,1,48,2|2,0:2|1:2,0:0:0:0:
284,372,45619,1,2,0:2:0:0:
360,328,45841,2,0,B|384:312|408:312|408:312,1,48,10|2,0:2|0:2,0:0:0:0:
476,360,46175,1,2,1:2:0:0:
508,236,46508,1,2,0:2:0:0:
168,176,47397,5,2,0:2:0:0:
140,96,47619,1,10,0:2:0:0:
56,116,47841,1,2,0:2:0:0:
84,196,48064,2,0,B|140:176|228:272|272:260,1,192,2|10,1:2|0:2,0:0:0:0:
380,216,48841,2,0,B|376:188|392:164|392:164,1,48,2|0,0:2|1:2,0:0:0:0:
348,92,49175,1,2,0:2:0:0:
184,36,49619,2,0,B|156:76|188:180|128:228,2,192,2|2|0,0:2|1:2|1:2,0:0:0:0:
256,192,50953,5,8,0:1:0:0:
256,192,51175,1,8,0:1:0:0:
432,112,51619,6,0,B|364:208|448:304,1,192,2|10,1:2|0:2,0:0:0:0:
360,380,52397,2,0,B|336:364|312:364|312:364,1,48,2|2,0:2|1:2,0:0:0:0:
228,372,52730,1,2,0:2:0:0:
152,328,52953,1,10,0:2:0:0:
80,372,53175,1,2,0:2:0:0:
80,372,53286,1,2,1:2:0:0:
16,264,53619,1,2,1:2:0:0:
344,176,54508,5,2,0:2:0:0:
372,96,54730,1,10,0:2:0:0:
456,116,54952,1,2,0:2:0:0:
428,196,55175,2,0,B|372:176|284:272|240:260,1,192,2|10,1:2|0:2,0:0:0:0:
132,216,55952,2,0,B|136:188|120:164|120:164,1,48,2|0,0:2|1:2,0:0:0:0:
164,92,56286,1,2,0:2:0:0:
328,36,56730,6,0,B|356:76|324:180|384:228,1,192,2|4,0:2|0:3,0:0:0:0:
420,292,57397,6,0,B|356:292|216:276|216:360,1,192,8|0,0:2|1:0,0:0:0:0:
233,318,57953,5,8,0:3:0:0:
233,318,58064,5,10,0:3:0:0:
233,318,58175,5,8,0:3:0:0:
233,318,58286,5,10,0:0:0:0:
256,192,58730,5,6,1:1:0:0:
256,192,59175,2,0,L|256:88,1,96,12|2,0:0|0:2,0:0:0:0:
184,32,59619,2,0,B|128:8|72:40,1,96,2|2,1:2|0:0,0:0:0:0:
32,104,60064,2,0,B|0:176|88:176,1,96,10|0,0:2|0:0,0:0:0:0:
112,184,60397,6,0,B|208:104|200:368|328:280,1,240,2|8,1:2|0:2,0:0:0:0:
376,256,61175,1,2,0:2:0:0:
304,192,61397,1,2,1:2:0:0:
320,96,61619,1,2,0:2:0:0:
408,64,61841,1,10,0:2:0:0:
488,120,62064,1,2,0:2:0:0:
488,216,62286,6,0,B|488:296|464:312|464:312,1,96,2|0,1:2|0:0,0:0:0:0:
368,304,62730,2,0,B|296:280|264:320,1,96,8|2,0:2|0:2,0:0:0:0:
192,360,63175,2,0,B|112:312|136:256,1,96,2|2,1:2|0:0,0:0:0:0:
104,200,63619,2,0,B|16:280|-8:176|-8:176,1,144,10|2,0:2|1:2,0:0:0:0:
56,104,64175,2,0,B|88:56|80:128,3,48,2|2|2|8,0:2|1:2|0:2|0:2,0:0:0:0:
104,200,64730,1,2,0:2:0:0:
200,368,65175,5,10,0:1:0:0:
200,368,65397,1,10,0:1:0:0:
256,192,65841,5,2,1:2:0:0:
256,192,66286,2,0,L|256:88,1,96,12|2,0:0|0:2,0:0:0:0:
328,32,66730,2,0,B|384:8|440:40,1,96,2|0,1:2|0:0,0:0:0:0:
480,104,67175,2,0,B|512:176|424:176,1,96,10|0,0:2|0:0,0:0:0:0:
400,184,67508,6,0,B|304:104|312:368|184:280,1,240,2|8,1:2|0:2,0:0:0:0:
136,256,68286,1,2,0:2:0:0:
208,192,68508,1,2,1:2:0:0:
192,96,68730,1,2,0:2:0:0:
104,64,68952,1,10,0:2:0:0:
24,120,69175,1,2,0:2:0:0:
24,216,69397,6,0,B|24:296|48:312|48:312,1,96,2|0,1:2|0:0,0:0:0:0:
144,304,69841,2,0,B|216:280|248:320,1,96,8|2,0:2|0:2,0:0:0:0:
320,360,70286,2,0,B|400:312|376:256,1,96,2|2,1:2|0:0,0:0:0:0:
408,200,70730,2,0,B|496:280|520:176|520:176,1,144,10|2,0:2|0:2,0:0:0:0:
456,104,71286,2,0,B|424:56|432:128,3,48,2|2|2|8,0:2|1:2|0:2|0:2,0:0:0:0:
408,200,71841,1,2,1:2:0:0:
312,368,72286,5,10,0:1:0:0:
312,368,72508,1,10,0:1:0:0:
256,192,72953,6,0,B|232:200|192:160|184:128,1,96,6|0,1:1|0:0,0:0:0:0:
280,120,73397,2,0,B|352:136|352:208,1,96,12|2,0:0|0:2,0:0:0:0:
312,264,73841,2,0,B|320:288|304:368,1,96,2|0,1:2|0:0,0:0:0:0:
206,359,74286,2,0,B|192:288|200:264,1,96,10|0,0:2|0:0,0:0:0:0:
224,224,74619,6,0,B|128:136|16:288|16:288,1,240,2|8,1:2|0:2,0:0:0:0:
56,368,75397,1,2,0:2:0:0:
128,304,75619,1,2,1:2:0:0:
208,360,75841,1,2,0:2:0:0:
296,328,76063,1,10,0:2:0:0:
320,232,76286,1,2,0:2:0:0:
224,224,76508,6,0,B|176:184|200:128|200:128,1,96,2|0,1:2|0:0,0:0:0:0:
296,136,76953,2,0,B|248:96|272:40|272:40,1,96,8|2,0:2|0:2,0:0:0:0:
368,48,77397,2,0,B|416:88|392:144|392:144,1,96,2|2,1:2|0:0,0:0:0:0:
296,136,77842,2,0,B|344:176|320:232|320:232,1,96,10|2,0:2|0:0,0:0:0:0:
296,264,78175,1,2,1:2:0:0:
368,328,78397,2,0,B|400:344|384:296|384:296,3,48,2|2|2|8,0:2|1:2|0:2|0:2,0:0:0:0:
464,248,78952,1,2,0:2:0:0:
392,72,79397,5,10,0:1:0:0:
392,72,79619,1,10,0:1:0:0:
256,192,80064,6,0,B|280:200|320:160|328:128,1,96,2|0,1:2|0:0,0:0:0:0:
232,120,80508,2,0,B|160:136|160:208,1,96,12|2,0:0|0:2,0:0:0:0:
200,264,80952,2,0,B|192:288|208:368,1,96,2|0,1:2|0:0,0:0:0:0:
305,359,81397,2,0,B|320:288|312:264,1,96,10|0,0:2|0:0,0:0:0:0:
288,224,81730,6,0,B|384:136|496:288|496:288,1,240,2|8,1:2|0:2,0:0:0:0:
456,368,82508,1,2,0:2:0:0:
384,304,82730,1,2,1:2:0:0:
304,360,82952,1,2,0:2:0:0:
216,328,83174,1,10,0:2:0:0:
192,232,83397,1,2,0:2:0:0:
288,224,83619,6,0,B|336:184|312:128|312:128,1,96,2|0,1:2|0:0,0:0:0:0:
216,136,84064,2,0,B|264:96|240:40|240:40,1,96,8|2,0:2|0:2,0:0:0:0:
144,48,84508,2,0,B|96:88|120:144|120:144,1,96,2|2,1:2|0:0,0:0:0:0:
216,136,84953,2,0,B|168:176|192:232|192:232,1,96,10|2,0:2|0:0,0:0:0:0:
216,264,85286,1,2,0:2:0:0:
144,328,85508,2,0,B|112:344|128:296|128:296,3,48,2|2|2|8,0:2|1:2|0:2|0:2,0:0:0:0:
48,248,86063,1,2,1:2:0:0:
120,72,86508,5,10,0:1:0:0:
120,72,86730,1,10,0:1:0:0:
288,168,87175,6,0,B|296:48|296:8|312:64|320:88|336:136|344:136|344:80|344:24|344:16|360:40|400:96|424:136,1,288,4|0,1:2|1:2,0:0:0:0:
360,176,88064,1,2,1:2:0:0:
328,256,88286,1,2,0:2:0:0:
264,312,88508,1,10,0:2:0:0:
178,339,88730,1,2,0:2:0:0:
91,326,88953,2,0,B|27:294|3:294|11:222|67:238|35:150|107:174|163:182|235:294|131:286|59:262,1,384,2|2,1:2|1:2,0:0:0:0:
256,8,90730,6,0,B|168:0|208:48|208:96|232:64|272:56|272:56|336:112|280:184,1,288,4|0,1:2|1:2,0:0:0:0:
256,232,91619,1,2,1:2:0:0:
288,312,91841,1,2,0:2:0:0:
368,336,92064,1,10,0:2:0:0:
456,320,92286,1,2,0:2:0:0:
496,240,92508,2,0,B|480:-16|360:200|360:200|416:176|456:192,1,384,2|2,1:2|1:2,0:0:0:0:
168,112,94286,6,0,B|160:-8|160:-48|144:8|136:32|120:80|112:80|112:24|112:-32|112:-40|96:-16|56:40|32:80,1,288,4|0,1:2|1:2,0:0:0:0:
88,128,95175,1,2,1:2:0:0:
32,192,95397,1,2,0:2:0:0:
88,256,95619,1,10,0:2:0:0:
72,344,95841,1,2,0:2:0:0:
152,376,96064,2,0,B|168:120|288:336|288:336|232:312|192:328,1,384,2|2,1:2|1:2,0:0:0:0:
512,168,97841,6,0,B|496:232|512:384|497:380|497:380|488:384|392:152|385:156|385:156|376:152|384:304|369:364,1,672,4|2,1:2|0:2,0:0:0:0:
288,384,99619,1,2,1:2:0:0:
208,288,99953,1,8,0:3:0:0:
96,232,100286,1,8,0:3:0:0:
144,72,100730,5,10,0:1:0:0:
144,72,100953,1,10,0:1:0:0:
256,192,101397,5,2,1:2:0:0:
440,56,102064,1,2,1:2:0:0:
440,56,102286,2,0,B|472:152|456:256|456:256,1,192,2|10,1:2|0:2,0:0:0:0:
360,312,103064,2,0,B|128:392|400:232|112:344,1,240,2|10,1:2|0:0,0:0:0:0:
88,288,103841,1,2,1:2:0:0:
72,216,104064,1,2,1:2:0:0:
168,96,104508,1,10,0:0:0:0:
184,168,104730,1,2,0:0:0:0:
256,192,104953,5,2,1:2:0:0:
72,56,105620,1,2,1:2:0:0:
72,56,105842,2,0,B|40:152|56:256|56:256,1,192,2|10,1:2|0:2,0:0:0:0:
152,312,106620,2,0,B|384:392|112:232|400:344,1,240,2|10,1:2|0:0,0:0:0:0:
424,288,107397,1,2,1:2:0:0:
424,136,107841,5,10,0:1:0:0:
424,136,108064,1,10,0:1:0:0:
256,192,108508,6,0,B|256:0|112:0|112:280,1,384,2|2,0:0|0:0,0:0:0:0:
208,368,109841,2,0,B|280:336|368:344|368:344,1,144,2|2,0:0|0:0,0:0:0:0:
416,312,110397,2,0,B|440:264|432:208|432:208,1,96,2|2,0:0|0:0,0:0:0:0:
416,184,110730,2,0,B|449:117|504:168|504:168,2,96,2|2|2,0:0|0:0|0:0,0:0:0:0:
296,88,111619,2,0,B|294:89|336:32|376:96,2,96,2|2|2,0:0|0:0|0:0,0:0:0:0:
80,184,112730,5,2,0:0:0:0:
80,184,112953,2,0,B|-16:48|128:0|128:0,1,192,2|2,0:0|0:0,0:0:0:0:
208,16,113730,2,0,B|256:24|256:112|256:112,1,96,2|2,0:0|0:0,0:0:0:0:
288,160,114175,2,0,B|272:200|216:192|216:192,1,48,2|2,0:0|1:2,0:0:0:0:
184,152,114508,2,0,B|112:167|152:271|152:271,1,96,2|2,1:2|1:2,0:0:0:0:
184,288,114953,1,8,1:1:0:0:
256,192,115175,5,14,1:1:0:0:
256,192,115286,12,0,116397,0:0:0:0:
