osu file format v14

[General]
AudioFilename: audio.mp3
AudioLeadIn: 0
PreviewTime: 1730
Countdown: 1
SampleSet: Soft
StackLeniency: 0.7
Mode: 0
LetterboxInBreaks: 0
SkinPreference:Default
WidescreenStoryboard: 1

[Editor]
Bookmarks: 16379,23490,30601,37712,44823,51934,59045,66156,73268,80379,87490,94601,97286,101712,108823
DistanceSpacing: 1
BeatDivisor: 4
GridSize: 8
TimelineZoom: 2.899999

[Metadata]
Title:CRASH!! (Let's Do It)
TitleUnicode:CRASH!! (Let's Do It)
Artist:Hyadain
ArtistUnicode:ヒャダイン
Creator:Aranel
Version:LIGHT INSANE!!
Source:Mega Man 2
Tags:gay megaman capcom japanese vgm video game pop remix クラッシュマン clashman rockman rock man The Mystery of Dr. Willy bloxi
BeatmapID:3409877
BeatmapSetID:1626624

[Difficulty]
HPDrainRate:6
CircleSize:5.5
OverallDifficulty:6
ApproachRate:7
SliderMultiplier:1.92
SliderTickRate:1

[Events]
//Background and Video events
Video,0,"video.mp4"
0,0,"bg.png",0,0
//Break Periods
//Storyboard Layer 0 (Background)
//Storyboard Layer 1 (Fail)
//Storyboard Layer 2 (Pass)
//Storyboard Layer 3 (Foreground)
//Storyboard Layer 4 (Overlay)
//Storyboard Sound Samples

[TimingPoints]
1842,444.444444444444,4,2,1,60,1,0
16064,-100,4,2,1,80,0,1
30286,-100,4,2,1,60,0,0
44508,-100,4,2,1,70,0,0
58730,-100,4,2,1,80,0,1
87175,-100,4,2,1,70,0,0
101397,-100,4,2,1,60,0,0
108508,-100,4,2,1,50,0,0
115175,-100,4,2,1,70,0,0
116397,-100,4,2,1,5,0,0

[Colours]
Combo1 : 36,24,140
Combo2 : 224,252,160
Combo3 : 136,112,0
Combo4 : 32,56,236
SliderBorder : 255,255,255

[HitObjects]
256,384,16064,6,0,L|256:191,1,192,6|8,1:2|0:2,0:0:0:0:
256,96,16730,1,2,0:2:0:0:
256,0,16953,2,0,B|160:0|160:96|255:96,1,192,2|10,1:2|0:2,0:0:0:0:
400,96,17730,1,2,1:2:0:0:
400,192,17953,1,2,0:2:0:0:
400,192,18064,1,2,1:2:0:0:
400,240,18175,1,2,0:2:0:0:
400,240,18286,1,8,0:2:0:0:
304,240,18508,1,2,0:2:0:0:
304,144,18730,1,2,1:2:0:0:
496,144,19175,1,10,0:2:0:0:
496,240,19397,1,2,0:2:0:0:
494,335,19619,6,0,B|416:336|416:224|336:224|345:225,1,192,0|8,1:0|0:2,0:0:0:0:
256,192,20286,1,2,0:2:0:0:
166,225,20508,2,0,B|176:224|96:224|96:336|16:336,1,192,2|10,1:2|0:2,0:0:0:0:
16,192,21286,5,2,1:2:0:0:
16,96,21508,1,2,0:2:0:0:
16,96,21619,1,2,1:2:0:0:
64,96,21730,1,2,0:2:0:0:
64,96,21841,1,10,0:2:0:0:
160,96,22064,1,2,0:2:0:0:
352,96,22508,5,10,0:1:0:0:
352,96,22730,1,10,0:1:0:0:
256,384,23175,6,0,L|256:191,1,192,6|8,1:2|0:2,0:0:0:0:
256,96,23841,1,2,0:2:0:0:
256,0,24064,2,0,B|352:0|352:96|257:96,1,192,2|10,1:2|0:2,0:0:0:0:
112,96,24841,1,2,1:2:0:0:
112,192,25064,1,2,0:2:0:0:
112,192,25175,1,2,1:2:0:0:
112,240,25286,1,2,0:2:0:0:
112,240,25397,1,8,0:2:0:0:
208,240,25619,1,2,0:2:0:0:
208,144,25841,1,2,1:2:0:0:
16,144,26286,1,10,0:2:0:0:
16,240,26508,1,2,0:2:0:0:
18,335,26730,6,0,B|96:336|96:224|176:224|167:225,1,192,0|8,1:0|0:2,0:0:0:0:
256,192,27397,1,2,0:2:0:0:
346,225,27619,2,0,B|336:224|416:224|416:336|496:336,1,192,2|10,1:2|0:2,0:0:0:0:
256,192,28508,12,2,29397,1:2:0:0:
256,192,29619,5,2,0:1:0:0:
256,192,29841,1,2,0:1:0:0:
256,192,30286,6,0,B|352:192|352:288|257:288,1,192,2|10,1:2|0:2,0:0:0:0:
112,288,31064,1,2,0:2:0:0:
112,288,31175,1,2,1:2:0:0:
112,192,31397,1,2,0:2:0:0:
112,96,31619,1,10,0:2:0:0:
80,96,31730,1,2,0:2:0:0:
48,96,31841,1,2,0:2:0:0:
16,96,31953,2,0,B|40:192|120:192|120:192,1,144,2|2,0:2|0:2,0:0:0:0:
496,96,33175,6,0,P|400:96|400:96,2,96,2|10|2,0:2|0:2|0:2,0:0:0:0:
496,192,33841,2,0,B|400:192|400:192|400:88,1,192,2|10,1:2|0:2,0:0:0:0:
256,96,34619,1,2,0:2:0:0:
256,96,34730,1,0,1:2:0:0:
256,192,34953,1,2,0:2:0:0:
256,384,35397,1,2,0:2:0:0:
448,384,35841,2,0,L|344:384,1,96,2|8,0:2|0:2,0:0:0:0:
160,384,36508,1,0,1:2:0:0:
64,384,36730,2,0,L|168:384,1,96,8|8,0:1|0:1,0:0:0:0:
256,192,37397,6,0,B|160:192|160:288|255:288,1,192,2|10,1:2|0:2,0:0:0:0:
400,288,38175,1,2,0:2:0:0:
400,288,38286,1,2,1:2:0:0:
400,192,38508,1,2,0:2:0:0:
400,96,38730,1,10,0:2:0:0:
432,96,38841,1,2,0:2:0:0:
464,96,38952,1,2,0:2:0:0:
496,96,39064,2,0,B|472:192|392:192|392:192,1,144,2|2,0:2|0:2,0:0:0:0:
16,96,40286,6,0,P|112:96|112:96,2,96,2|10|2,0:2|0:2|0:2,0:0:0:0:
16,192,40952,2,0,B|112:192|112:192|112:88,1,192,2|10,1:2|0:2,0:0:0:0:
256,96,41730,1,2,0:2:0:0:
256,96,41841,1,0,1:2:0:0:
256,192,42064,1,2,0:2:0:0:
256,384,42508,1,2,0:2:0:0:
64,384,42952,2,0,L|168:384,1,96,2|8,0:2|0:2,0:0:0:0:
352,384,43619,1,0,1:2:0:0:
448,384,43841,6,0,L|392:384,1,48,10|0,0:1|0:0,0:0:0:0:
352,384,44064,1,10,0:1:0:0:
256,192,44508,6,0,B|256:48|160:48,1,192,2|10,1:2|0:2,0:0:0:0:
16,48,45286,1,2,0:2:0:0:
16,48,45397,1,2,1:2:0:0:
16,144,45619,1,2,0:2:0:0:
112,144,45841,1,10,0:2:0:0:
112,144,45953,1,2,0:2:0:0:
112,144,46064,1,2,0:2:0:0:
112,144,46176,1,2,0:2:0:0:
112,288,46508,2,0,B|208:288|208:288|208:384|208:384|304:384,1,288,2|2,0:2|1:2,0:0:0:0:
400,384,47397,5,2,0:2:0:0:
400,288,47619,1,10,0:2:0:0:
496,288,47841,1,2,0:2:0:0:
496,192,48064,2,0,B|496:96|496:96|400:96,1,192,2|10,1:2|0:2,0:0:0:0:
256,96,48841,1,2,0:2:0:0:
256,96,48953,1,0,1:2:0:0:
256,192,49175,1,2,0:2:0:0:
256,384,49619,2,0,B|240:328|272:256|256:192,2,192,2|2|0,0:2|0:2|1:1,0:0:0:0:
256,384,50730,5,0,1:2:0:0:
256,384,50841,1,2,0:0:0:0:
256,288,51064,1,2,0:0:0:0:
256,288,51175,1,8,0:1:0:0:
256,384,51397,1,0,0:0:0:0:
256,192,51619,6,0,B|256:48|352:48,1,192,2|10,1:2|0:2,0:0:0:0:
496,48,52397,1,2,0:2:0:0:
496,48,52508,1,2,1:2:0:0:
496,144,52730,1,2,0:2:0:0:
400,48,52952,1,10,0:2:0:0:
400,144,53175,1,2,0:2:0:0:
400,144,53287,1,2,0:2:0:0:
400,288,53619,2,0,B|304:288|304:288|304:384|304:384|208:384,1,288,2|2,0:2|1:2,0:0:0:0:
112,384,54508,5,2,0:2:0:0:
112,288,54730,1,10,0:2:0:0:
16,288,54952,1,2,0:2:0:0:
16,192,55175,2,0,B|16:96|16:96|112:96,1,192,2|10,1:2|0:2,0:0:0:0:
256,96,55952,1,2,0:2:0:0:
256,96,56064,1,0,1:2:0:0:
255,193,56286,2,0,B|240:256|272:328|256:384,1,192,2|2,0:2|0:2,0:0:0:0:
256,192,56953,12,10,58286,0:0:0:0:
256,192,58730,6,0,B|160:192|160:96|255:96,1,192,6|12,1:1|0:0,0:0:0:0:
352,96,59397,1,2,0:2:0:0:
448,96,59619,1,2,1:2:0:0:
448,288,60064,1,10,0:2:0:0:
304,288,60397,5,2,1:2:0:0:
304,192,60619,1,2,0:2:0:0:
304,192,60730,1,2,1:2:0:0:
352,192,60841,1,2,0:2:0:0:
352,192,60953,1,8,0:2:0:0:
352,288,61175,1,2,0:2:0:0:
256,288,61397,1,2,1:2:0:0:
256,96,61841,1,10,0:2:0:0:
160,96,62064,1,2,0:2:0:0:
64,96,62286,6,0,B|64:288,1,192,2|8,1:2|0:2,0:0:0:0:
160,288,62953,1,2,0:2:0:0:
256,288,63175,1,2,1:2:0:0:
256,96,63619,1,10,0:2:0:0:
112,96,63953,5,2,1:2:0:0:
112,192,64175,1,2,0:2:0:0:
112,192,64286,1,2,1:2:0:0:
160,192,64397,1,2,0:2:0:0:
160,192,64508,1,8,0:2:0:0:
64,192,64730,1,2,0:2:0:0:
64,384,65175,5,10,0:1:0:0:
64,192,65397,1,10,0:1:0:0:
256,192,65841,6,0,B|352:192|352:96|257:96,1,192,2|12,1:2|0:0,0:0:0:0:
160,96,66508,1,2,0:2:0:0:
64,96,66730,1,2,1:2:0:0:
64,288,67175,1,10,0:2:0:0:
208,288,67508,5,2,1:2:0:0:
208,192,67730,1,2,0:2:0:0:
208,192,67841,1,2,1:2:0:0:
160,192,67952,1,2,0:2:0:0:
160,192,68064,1,8,0:2:0:0:
160,288,68286,1,2,0:2:0:0:
256,288,68508,1,2,1:2:0:0:
256,96,68952,1,10,0:2:0:0:
352,96,69175,1,2,0:2:0:0:
448,96,69397,6,0,B|448:288,1,192,2|8,1:2|0:2,0:0:0:0:
352,288,70064,1,2,0:2:0:0:
256,288,70286,1,2,1:2:0:0:
256,96,70730,1,10,0:2:0:0:
400,96,71064,6,0,L|448:96,1,48,2|0,0:2|1:0,0:0:0:0:
496,96,71286,1,2,0:2:0:0:
496,96,71397,1,2,1:2:0:0:
496,96,71508,1,2,0:2:0:0:
496,96,71619,2,0,L|496:152,1,48,8|0,0:2|0:0,0:0:0:0:
496,192,71841,1,2,1:2:0:0:
400,384,72286,5,10,0:1:0:0:
400,192,72508,1,10,0:1:0:0:
400,192,72953,6,0,B|496:192|496:192|496:296,1,192,6|12,1:1|0:0,0:0:0:0:
400,288,73620,1,2,0:2:0:0:
304,288,73842,1,2,1:2:0:0:
304,96,74287,1,10,0:2:0:0:
448,96,74620,5,2,1:2:0:0:
448,0,74842,1,2,0:2:0:0:
448,0,74953,1,2,1:2:0:0:
400,0,75065,1,2,0:2:0:0:
400,0,75176,1,8,0:2:0:0:
304,0,75398,1,2,0:2:0:0:
208,0,75620,1,2,1:2:0:0:
16,0,76064,1,10,0:2:0:0:
112,0,76287,1,2,0:2:0:0:
208,0,76509,6,0,B|208:144|208:144|160:144,1,192,2|8,1:2|0:2,0:0:0:0:
64,144,77176,1,2,0:2:0:0:
64,240,77398,1,2,1:2:0:0:
256,240,77842,1,10,0:2:0:0:
256,384,78176,5,2,1:2:0:0:
160,384,78398,1,2,0:2:0:0:
160,384,78509,1,2,1:2:0:0:
160,336,78620,1,2,0:2:0:0:
160,336,78731,1,8,0:2:0:0:
160,240,78953,1,2,0:2:0:0:
160,48,79397,5,10,0:1:0:0:
352,48,79619,1,10,0:1:0:0:
112,192,80064,6,0,B|16:192|16:192|16:296,1,192,2|12,1:2|0:0,0:0:0:0:
112,288,80731,1,2,0:2:0:0:
208,288,80953,1,2,1:2:0:0:
208,96,81398,1,10,0:2:0:0:
64,96,81731,5,2,1:2:0:0:
64,0,81953,1,2,0:2:0:0:
64,0,82064,1,2,1:2:0:0:
112,0,82176,1,2,0:2:0:0:
112,0,82287,1,8,0:2:0:0:
208,0,82509,1,2,0:2:0:0:
304,0,82731,1,2,1:2:0:0:
496,0,83175,1,10,0:2:0:0:
400,0,83398,1,2,0:2:0:0:
304,0,83620,6,0,B|304:144|304:144|352:144,1,192,2|8,1:2|0:2,0:0:0:0:
448,144,84287,1,2,0:2:0:0:
448,240,84509,1,2,1:2:0:0:
256,240,84953,1,10,0:2:0:0:
64,240,85286,6,0,L|112:240,1,48,2|0,0:2|1:0,0:0:0:0:
160,240,85508,1,2,0:2:0:0:
160,240,85619,1,2,1:2:0:0:
160,240,85730,1,2,0:2:0:0:
160,240,85841,2,0,L|216:240,1,48,8|0,0:2|0:0,0:0:0:0:
256,240,86063,1,2,1:2:0:0:
352,48,86508,5,10,0:1:0:0:
160,48,86730,1,10,0:1:0:0:
160,48,87175,5,4,1:2:0:0:
0,192,87619,1,10,0:2:0:0:
160,336,87953,1,2,0:0:0:0:
160,336,88064,1,2,1:2:0:0:
160,336,88286,1,2,0:2:0:0:
352,48,88730,1,2,0:2:0:0:
352,48,88953,1,2,1:2:0:0:
432,120,89175,1,8,0:3:0:0:
512,192,89397,1,10,0:0:0:0:
432,264,89620,1,8,0:3:0:0:
352,336,89841,1,2,1:2:0:0:
256,336,90064,1,2,0:2:0:0:
160,336,90286,1,10,0:2:0:0:
160,336,90397,1,2,0:2:0:0:
352,48,90730,5,4,1:2:0:0:
512,192,91174,1,10,0:2:0:0:
352,336,91508,1,2,0:0:0:0:
352,336,91619,1,2,1:2:0:0:
352,336,91841,1,2,0:2:0:0:
160,48,92285,1,2,0:2:0:0:
160,48,92508,1,2,1:2:0:0:
80,120,92730,1,8,0:3:0:0:
0,192,92952,1,10,0:0:0:0:
80,264,93175,1,8,0:3:0:0:
160,336,93396,1,2,1:2:0:0:
352,336,93619,1,10,0:2:0:0:
256,336,93841,1,10,0:2:0:0:
256,336,93952,1,2,0:2:0:0:
256,48,94286,5,4,1:2:0:0:
416,192,94730,1,10,0:2:0:0:
256,336,95064,1,2,0:0:0:0:
256,336,95175,1,2,1:2:0:0:
256,336,95397,1,2,0:2:0:0:
96,192,95841,1,2,0:2:0:0:
96,192,96064,1,2,1:2:0:0:
176,120,96286,1,8,0:3:0:0:
256,48,96508,1,10,0:0:0:0:
336,120,96730,1,8,0:3:0:0:
416,192,96953,1,2,1:2:0:0:
512,192,97175,1,2,0:2:0:0:
416,192,97397,1,10,0:2:0:0:
416,192,97508,1,2,0:2:0:0:
256,48,97841,5,4,1:2:0:0:
96,192,98285,1,10,0:2:0:0:
256,336,98619,1,2,0:0:0:0:
256,336,98730,1,2,1:2:0:0:
256,336,98952,1,2,0:2:0:0:
416,192,99396,1,2,0:2:0:0:
416,192,99619,5,2,1:2:0:0:
256,48,99953,5,8,0:3:0:0:
96,192,100286,5,8,0:3:0:0:
256,336,100730,5,10,0:1:0:0:
256,336,100953,5,10,0:1:0:0:
256,192,101397,5,2,1:2:0:0:
256,192,101841,1,8,0:2:0:0:
256,192,102064,1,2,0:0:0:0:
256,192,102286,2,0,B|160:192|160:96|255:96,1,192,2|10,1:2|0:2,0:0:0:0:
400,96,103064,5,2,1:2:0:0:
496,96,103286,1,2,0:2:0:0:
496,96,103397,1,2,1:2:0:0:
496,96,103508,1,2,0:0:0:0:
496,96,103619,1,10,0:0:0:0:
496,192,103841,1,2,1:2:0:0:
400,192,104064,1,2,1:2:0:0:
400,384,104508,1,10,0:0:0:0:
496,384,104730,1,2,0:0:0:0:
496,288,104953,1,2,1:2:0:0:
208,288,105619,5,2,0:0:0:0:
208,288,105841,2,0,B|72:288|64:192,1,192,2|10,1:2|0:2,0:0:0:0:
64,40,106619,1,2,1:2:0:0:
160,40,106841,1,2,0:2:0:0:
160,40,106952,1,2,1:2:0:0:
160,40,107063,1,2,0:0:0:0:
160,40,107174,1,10,0:0:0:0:
256,40,107396,1,2,1:2:0:0:
440,40,107841,5,10,0:1:0:0:
440,40,108064,1,10,0:1:0:0:
256,192,108508,5,2,0:0:0:0:
256,192,109175,1,2,0:0:0:0:
256,192,109397,2,0,B|352:192|352:96|257:96,1,192,2|2,0:0|0:0,0:0:0:0:
112,96,110175,5,2,0:0:0:0:
16,96,110397,1,2,0:0:0:0:
16,192,110619,1,2,0:0:0:0:
16,192,110730,1,2,0:0:0:0:
112,192,110952,1,2,0:0:0:0:
16,192,111175,1,2,0:0:0:0:
16,384,111619,1,2,0:0:0:0:
112,384,111842,1,2,0:0:0:0:
208,384,112064,1,2,0:0:0:0:
496,384,112730,5,2,0:0:0:0:
496,384,112952,2,0,B|496:288|496:288|400:288,1,192,2|2,0:0|0:0,0:0:0:0:
256,288,113730,1,2,0:0:0:0:
256,192,113952,1,2,0:0:0:0:
256,96,114175,1,2,0:0:0:0:
256,96,114285,1,2,1:2:0:0:
256,192,114507,1,2,1:2:0:0:
256,288,114730,1,2,1:2:0:0:
352,192,114953,5,8,1:1:0:0:
160,192,115175,1,14,1:1:0:0:
256,192,115286,12,0,116397,0:0:0:0:
