osu file format v14

[General]
AudioFilename: audio.mp3
AudioLeadIn: 0
PreviewTime: 1730
Countdown: 1
SampleSet: Soft
StackLeniency: 0.7
Mode: 0
LetterboxInBreaks: 0
SkinPreference:Default
WidescreenStoryboard: 1

[Editor]
Bookmarks: 16379,23490,30601,37712,44823,51934,59045,66156,73268,80379,87490,94601,101712,108823
DistanceSpacing: 1
BeatDivisor: 4
GridSize: 8
TimelineZoom: 2.899999

[Metadata]
Title:CRASH!! (Let's Do It)
TitleUnicode:CRASH!! (Let's Do It)
Artist:Hyadain
ArtistUnicode:ヒャダイン
Creator:Aranel
Version:CRASH!!
Source:Mega Man 2
Tags:gay megaman capcom japanese vgm video game pop remix クラッシュマン clashman rockman rock man The Mystery of Dr. Willy bloxi
BeatmapID:3322444
BeatmapSetID:1626624

[Difficulty]
HPDrainRate:7
CircleSize:5
OverallDifficulty:8
ApproachRate:8
SliderMultiplier:2.56
SliderTickRate:1

[Events]
//Background and Video events
Video,0,"video.mp4"
0,0,"bg.png",0,0
//Break Periods
//Storyboard Layer 0 (Background)
//Storyboard Layer 1 (Fail)
//Storyboard Layer 2 (Pass)
//Storyboard Layer 3 (Foreground)
//Storyboard Layer 4 (Overlay)
//Storyboard Sound Samples

[TimingPoints]
1842,444.444444444444,4,2,1,60,1,0
16064,-100,4,2,1,80,0,1
30286,-100,4,2,1,60,0,0
44508,-100,4,2,1,70,0,0
58730,-100,4,2,1,80,0,1
87175,-100,4,2,1,70,0,0
101397,-100,4,2,1,60,0,0
108508,-100,4,2,1,50,0,0
115175,-100,4,2,1,70,0,0
116397,-100,4,2,1,5,0,0

[Colours]
Combo1 : 36,24,140
Combo2 : 224,252,160
Combo3 : 136,112,0
Combo4 : 32,56,236
SliderBorder : 255,255,255

[HitObjects]
32,56,14175,5,0,1:0:0:0:
32,56,14286,1,2,0:0:0:0:
144,96,14508,1,2,1:2:0:0:
256,56,14730,1,2,0:0:0:0:
368,96,14953,1,2,1:2:0:0:
480,56,15175,1,2,1:2:0:0:
256,56,15619,1,2,1:3:0:0:
32,56,16064,6,0,B|160:56|160:184|160:184,1,192,6|0,1:2|0:0,0:0:0:0:
160,240,16508,2,0,L|96:240,1,64,8|0,0:2|0:0,0:0:0:0:
96,304,16730,2,0,L|160:304,1,64,2|0,0:2|0:0,0:0:0:0:
160,368,16953,1,2,1:2:0:0:
256,280,17175,1,2,0:0:0:0:
256,280,17286,1,2,0:0:0:0:
256,280,17397,1,10,0:2:0:0:
352,368,17619,5,0,0:0:0:0:
352,368,17730,2,0,L|504:368,1,128,2|2,1:2|0:2,0:0:0:0:
416,304,18064,2,0,L|352:304,1,64,2|2,1:2|0:2,0:0:0:0:
352,240,18286,2,0,L|416:240,2,64,8|0|2,0:2|0:0|0:2,0:0:0:0:
256,144,18730,1,2,1:2:0:0:
192,128,18841,1,2,0:2:0:0:
176,64,18953,1,2,0:2:0:0:
224,24,19064,1,2,0:2:0:0:
288,24,19175,1,10,0:2:0:0:
336,64,19286,1,2,0:2:0:0:
320,128,19398,1,2,0:2:0:0:
256,144,19508,1,2,0:2:0:0:
192,128,19619,6,0,B|144:128|152:256|152:256,1,128,0|0,1:0|0:0,0:0:0:0:
152,304,19953,1,0,0:0:0:0:
152,368,20064,1,8,0:2:0:0:
256,304,20286,1,2,0:2:0:0:
152,240,20508,1,2,1:2:0:0:
88,240,20619,1,2,0:0:0:0:
40,192,20730,1,2,0:0:0:0:
40,192,20841,1,2,0:0:0:0:
40,192,20953,1,10,0:2:0:0:
88,144,21064,1,2,0:0:0:0:
152,144,21175,1,2,0:0:0:0:
200,192,21286,6,0,B|256:192|256:80|256:80,1,128,2|2,1:2|0:2,0:0:0:0:
256,24,21619,2,0,P|168:24|168:24,1,64,2|2,1:2|0:2,0:0:0:0:
128,24,21841,1,10,0:2:0:0:
256,24,22064,1,2,0:2:0:0:
384,24,22286,1,0,1:0:0:0:
352,172,22508,5,10,0:1:0:0:
160,172,22730,1,10,0:1:0:0:
480,56,23175,6,0,B|352:56|352:184|352:184,1,192,6|0,1:2|0:0,0:0:0:0:
352,240,23619,2,0,L|416:240,1,64,8|0,0:2|0:0,0:0:0:0:
416,304,23841,2,0,L|352:304,1,64,2|0,0:2|0:0,0:0:0:0:
352,368,24064,1,2,1:2:0:0:
256,280,24286,1,2,0:0:0:0:
256,280,24397,1,2,0:0:0:0:
256,280,24508,1,10,0:2:0:0:
160,368,24730,5,0,0:0:0:0:
160,368,24841,2,0,L|8:368,1,128,2|2,1:2|0:2,0:0:0:0:
96,304,25175,2,0,L|160:304,1,64,2|2,1:2|0:2,0:0:0:0:
160,240,25397,2,0,L|96:240,2,64,8|0|2,0:2|0:0|0:2,0:0:0:0:
256,144,25841,1,2,1:2:0:0:
320,128,25952,1,2,0:2:0:0:
336,64,26064,1,2,0:2:0:0:
288,24,26175,1,2,0:2:0:0:
224,24,26286,1,10,0:2:0:0:
176,64,26397,1,2,0:2:0:0:
192,128,26509,1,2,0:2:0:0:
256,144,26619,1,2,0:2:0:0:
320,128,26730,6,0,B|368:128|360:256|360:256,1,128,0|0,1:0|0:0,0:0:0:0:
360,304,27064,1,0,0:0:0:0:
360,368,27175,1,8,0:2:0:0:
256,304,27397,1,2,0:2:0:0:
360,240,27619,1,2,1:2:0:0:
424,240,27730,1,2,0:0:0:0:
472,192,27841,1,2,0:0:0:0:
424,144,27953,1,2,0:0:0:0:
360,144,28064,1,10,0:2:0:0:
256,192,28508,12,2,29397,1:2:0:0:
256,192,29619,5,2,0:1:0:0:
256,192,29841,1,2,0:1:0:0:
17,364,30286,6,0,B|88:364|88:280|88:280|160:280|160:192,1,256,2|10,1:2|0:2,0:0:0:0:
160,8,31064,1,2,0:2:0:0:
96,8,31175,1,2,1:2:0:0:
96,136,31397,1,2,0:2:0:0:
224,136,31619,1,10,0:2:0:0:
288,136,31730,1,2,0:2:0:0:
256,80,31841,1,2,0:2:0:0:
256,16,31953,1,2,1:2:0:0:
256,192,32286,6,0,L|256:256,2,64,2|2|8,0:2|0:2|0:2,0:0:0:0:
352,192,32730,2,0,L|352:256,2,64,2|0|2,1:2|0:0|1:2,0:0:0:0:
480,192,33175,1,2,0:2:0:0:
416,80,33397,1,10,0:2:0:0:
352,192,33619,1,2,0:2:0:0:
494,364,33841,6,0,B|423:364|424:280|424:280|352:280|352:192,1,256,2|10,1:2|0:2,0:0:0:0:
352,8,34619,1,2,0:2:0:0:
416,8,34730,1,0,1:2:0:0:
416,136,34952,1,2,0:2:0:0:
288,136,35174,1,10,0:2:0:0:
224,136,35285,1,2,0:2:0:0:
256,80,35396,1,2,0:2:0:0:
256,16,35508,1,2,1:2:0:0:
256,192,35841,6,0,L|256:256,2,64,2|2|10,1:2|0:0|0:2,0:0:0:0:
160,192,36285,2,0,L|160:256,2,64,2|2|2,1:2|0:0|1:2,0:0:0:0:
32,192,36730,1,8,0:2:0:0:
96,80,36953,1,8,0:2:0:0:
256,384,37397,5,2,1:2:0:0:
328,264,37619,1,2,0:0:0:0:
392,248,37730,1,2,0:0:0:0:
456,264,37841,1,10,0:2:0:0:
328,200,38064,1,2,1:2:0:0:
392,184,38175,1,2,0:2:0:0:
456,200,38286,1,2,1:2:0:0:
328,136,38508,5,2,0:2:0:0:
392,120,38619,1,2,0:0:0:0:
456,136,38730,1,10,0:2:0:0:
456,136,38841,1,2,0:2:0:0:
392,120,38952,1,2,0:2:0:0:
328,136,39063,1,2,1:2:0:0:
184,136,39286,5,2,0:2:0:0:
120,120,39397,1,2,1:2:0:0:
56,136,39508,1,2,0:2:0:0:
56,136,39619,1,8,0:2:0:0:
120,120,39730,1,0,0:0:0:0:
184,136,39841,1,2,1:2:0:0:
56,200,40064,5,2,1:2:0:0:
120,184,40175,1,2,0:2:0:0:
184,200,40286,1,2,0:2:0:0:
56,264,40509,1,10,0:2:0:0:
120,248,40620,1,2,0:2:0:0:
184,264,40731,1,2,0:2:0:0:
256,384,40953,5,2,1:2:0:0:
328,264,41175,2,0,L|328:200,1,64
368,144,41397,1,10,0:2:0:0:
256,0,41619,2,0,L|256:72,1,64,0|2,1:0|0:2,0:0:0:0:
256,128,41841,1,2,1:2:0:0:
184,264,42064,2,0,L|184:200,1,64,2|0,0:2|0:0,0:0:0:0:
144,144,42286,1,10,0:2:0:0:
352,320,42508,5,2,0:2:0:0:
408,288,42619,1,2,1:2:0:0:
160,320,42841,1,2,0:0:0:0:
104,288,42952,1,2,1:2:0:0:
256,192,43175,1,10,0:2:0:0:
256,256,43286,1,2,0:0:0:0:
256,320,43397,1,2,1:2:0:0:
256,192,43619,5,0,1:0:0:0:
128,192,43842,1,10,0:1:0:0:
384,192,44064,1,10,0:1:0:0:
96,366,44508,6,0,B|40:366|40:278|40:278|128:278|128:190|128:190,1,256,6|10,1:2|0:2,0:0:0:0:
48,192,45285,1,2,0:2:0:0:
48,192,45396,1,2,1:2:0:0:
152,312,45619,1,2,0:2:0:0:
208,88,45841,1,10,0:2:0:0:
256,40,45953,1,2,0:2:0:0:
304,88,46064,1,2,0:2:0:0:
256,136,46175,1,2,1:2:0:0:
256,344,46508,5,2,0:2:0:0:
256,280,46619,1,2,0:2:0:0:
296,232,46730,1,8,0:2:0:0:
256,344,46953,1,2,1:2:0:0:
256,280,47064,1,2,0:2:0:0:
216,232,47175,1,2,1:2:0:0:
256,40,47397,5,2,0:2:0:0:
192,152,47619,1,10,0:2:0:0:
320,152,47841,1,2,0:2:0:0:
416,366,48064,6,0,B|472:366|472:278|472:278|384:278|384:190|384:190,1,256,2|10,1:2|0:2,0:0:0:0:
464,192,48841,1,2,0:2:0:0:
464,192,48952,1,2,1:2:0:0:
360,312,49175,1,2,0:2:0:0:
256,192,49397,5,8,0:2:0:0:
288,136,49509,1,2,0:0:0:0:
256,192,49620,1,2,0:2:0:0:
224,136,49731,1,2,1:2:0:0:
344,96,49953,5,2,0:0:0:0:
344,96,50064,1,2,1:2:0:0:
168,96,50286,1,10,0:2:0:0:
168,96,50397,1,2,0:0:0:0:
168,96,50509,1,2,1:2:0:0:
256,256,50731,5,0,1:0:0:0:
408,72,50953,1,10,0:1:0:0:
104,72,51175,1,10,0:1:0:0:
480,352,51619,6,0,B|480:224|368:224|368:224|368:288,1,256,6|10,1:2|0:2,0:0:0:0:
144,285,52397,2,0,P|144:208|144:208,1,64,2|2,0:2|1:2,0:0:0:0:
424,189,52730,1,2,0:2:0:0:
368,157,52841,1,2,0:0:0:0:
312,189,52953,1,10,0:2:0:0:
368,285,53175,6,0,P|368:208|368:208,1,64,2|2,0:2|1:2,0:0:0:0:
88,189,53508,1,2,0:2:0:0:
144,157,53619,1,2,1:2:0:0:
200,189,53731,1,2,0:2:0:0:
144,221,53841,1,8,0:2:0:0:
256,160,54064,1,2,1:2:0:0:
368,221,54286,1,2,1:2:0:0:
256,384,54508,5,2,0:2:0:0:
200,256,54730,1,10,0:2:0:0:
312,256,54953,1,2,0:2:0:0:
32,352,55175,6,0,B|32:224|144:224|144:224|144:288,1,256,2|10,1:2|0:2,0:0:0:0:
368,285,55953,2,0,P|368:208|368:208,1,64,2|2,0:2|1:2,0:0:0:0:
88,189,56286,1,2,0:2:0:0:
144,157,56397,1,2,0:0:0:0:
200,184,56509,1,10,0:2:0:0:
144,285,56731,2,0,P|144:208|144:208,1,64,2|0,0:2|0:0,0:0:0:0:
144,352,56953,5,0,1:0:0:0:
88,320,57064,1,4,0:3:0:0:
144,285,57175,1,4,1:3:0:0:
200,320,57286,1,4,0:3:0:0:
256,352,57397,1,8,1:2:0:0:
312,320,57508,1,4,0:3:0:0:
368,285,57619,1,4,1:3:0:0:
424,320,57730,1,4,0:3:0:0:
368,352,57841,5,0,1:0:0:0:
312,320,57953,1,8,0:3:0:0:
256,288,58064,1,10,0:3:0:0:
200,320,58175,1,8,0:3:0:0:
144,352,58286,1,10,0:0:0:0:
256,352,58508,2,0,L|256:248,1,64,2|2,0:0|0:0,0:0:0:0:
256,192,58730,6,0,B|264:56|128:88|128:88,1,192,6|0,1:1|0:0,0:0:0:0:
64,96,59174,2,0,L|48:168,1,64,12|0,0:0|0:0,0:0:0:0:
106,214,59397,2,0,L|120:152,1,64,2|0,0:2|0:0,0:0:0:0:
80,32,59619,1,2,1:2:0:0:
32,224,59841,1,2,0:0:0:0:
88,280,59953,1,2,0:0:0:0:
144,336,60064,1,10,0:2:0:0:
50,158,60285,5,0,0:0:0:0:
106,214,60397,2,0,L|139:65,1,128,2|2,1:2|0:2,0:0:0:0:
162,270,60730,2,0,L|175:207,1,64,2|2,1:2|0:2,0:0:0:0:
200,136,60953,2,0,L|213:73,2,64,8|0|2,0:2|0:0|0:2,0:0:0:0:
144,336,61396,5,2,1:2:0:0:
88,280,61508,1,2,0:2:0:0:
32,224,61619,1,2,0:2:0:0:
50,158,61730,1,2,0:2:0:0:
106,214,61841,1,10,0:2:0:0:
162,270,61953,1,2,0:2:0:0:
180,204,62064,1,2,0:2:0:0:
124,148,62176,1,2,0:2:0:0:
68,92,62286,1,2,1:2:0:0:
144,336,62730,5,8,0:2:0:0:
32,224,62953,1,2,0:2:0:0:
180,204,63174,5,2,1:2:0:0:
208,144,63285,1,2,0:0:0:0:
208,79,63396,1,2,0:0:0:0:
224,16,63507,1,2,0:0:0:0:
288,16,63619,1,10,0:2:0:0:
304,79,63730,1,2,0:0:0:0:
304,144,63841,1,2,0:0:0:0:
332,204,63953,6,0,L|299:55,1,128,2|2,1:2|0:2,0:0:0:0:
406,214,64286,2,0,L|392:152,1,64,2|2,1:2|0:2,0:0:0:0:
480,224,64507,1,8,0:2:0:0:
444,92,64730,1,2,0:2:0:0:
304,79,64953,5,0,1:0:0:0:
368,336,65175,1,10,0:1:0:0:
444,92,65397,1,10,0:1:0:0:
256,192,65841,6,0,B|248:56|384:88|384:88,1,192,2|0,1:2|0:0,0:0:0:0:
448,96,66285,2,0,L|464:168,1,64,12|0,0:0|0:0,0:0:0:0:
406,214,66508,2,0,L|392:152,1,64,2|0,0:2|0:0,0:0:0:0:
432,32,66730,1,2,1:2:0:0:
480,224,66952,1,2,0:0:0:0:
424,280,67064,1,2,0:0:0:0:
368,336,67175,1,10,0:2:0:0:
462,158,67396,5,0,0:0:0:0:
406,214,67508,2,0,L|373:65,1,128,2|2,1:2|0:2,0:0:0:0:
350,270,67841,2,0,L|337:207,1,64,2|2,1:2|0:2,0:0:0:0:
312,136,68064,2,0,L|299:73,2,64,8|0|2,0:2|0:0|0:2,0:0:0:0:
368,336,68507,5,2,1:2:0:0:
424,280,68619,1,2,0:2:0:0:
480,224,68730,1,2,0:2:0:0:
462,158,68841,1,2,0:2:0:0:
406,214,68952,1,10,0:2:0:0:
350,270,69064,1,2,0:2:0:0:
332,204,69175,1,2,0:2:0:0:
388,148,69287,1,2,0:2:0:0:
444,92,69397,1,2,1:2:0:0:
368,336,69841,5,8,0:2:0:0:
480,224,70064,1,2,0:2:0:0:
332,204,70285,5,2,1:2:0:0:
304,144,70396,1,2,0:0:0:0:
304,79,70507,1,2,0:0:0:0:
288,16,70618,1,2,0:0:0:0:
224,16,70730,1,10,0:2:0:0:
208,79,70841,1,2,0:0:0:0:
208,144,70952,1,2,0:0:0:0:
180,204,71064,6,0,L|213:55,1,128,2|2,0:2|0:2,0:0:0:0:
106,213,71397,2,0,L|120:151,1,64,2|2,1:2|0:2,0:0:0:0:
32,224,71618,1,8,0:2:0:0:
68,92,71841,1,2,1:2:0:0:
208,79,72064,5,0,1:0:0:0:
144,336,72286,1,10,0:1:0:0:
68,92,72508,1,10,0:1:0:0:
256,124,72953,6,0,B|329:175|329:175|296:272|296:272,1,192,6|0,1:1|0:0,0:0:0:0:
418,300,73397,2,0,L|440:240,1,64,12|0,0:0|0:0,0:0:0:0:
316,211,73619,2,0,L|295:272,1,64,2|0,0:2|0:0,0:0:0:0:
480,315,73841,2,0,L|501:254,1,64,2|0,1:2|0:0,0:0:0:0:
378,224,74064,2,0,L|357:285,1,64
320,384,74286,1,10,0:2:0:0:
440,240,74508,5,0,0:0:0:0:
440,240,74619,2,0,L|483:119,1,128,2|2,1:2|0:2,0:0:0:0:
316,211,74953,2,0,L|337:150,1,64,2|2,1:2|0:2,0:0:0:0:
461,179,75175,2,0,L|440:240,1,64,8|0,0:2|0:0,0:0:0:0:
296,271,75397,2,0,L|317:210,1,64,2|0,0:2|0:0,0:0:0:0:
360,91,75619,5,2,1:2:0:0:
422,105,75730,1,2,0:2:0:0:
399,164,75841,1,2,0:2:0:0:
337,150,75952,1,2,0:2:0:0:
316,211,76064,1,10,0:2:0:0:
378,225,76175,1,2,0:2:0:0:
358,285,76286,1,2,0:2:0:0:
296,272,76397,1,2,0:2:0:0:
276,331,76508,1,2,1:2:0:0:
484,120,76953,5,8,0:2:0:0:
418,300,77175,1,2,0:2:0:0:
337,150,77397,5,2,1:2:0:0:
304,96,77508,1,2,0:0:0:0:
336,40,77619,1,2,0:0:0:0:
288,0,77730,1,2,0:0:0:0:
224,0,77841,1,10,0:2:0:0:
176,40,77952,1,2,0:0:0:0:
208,96,78063,1,2,0:0:0:0:
172,150,78175,6,0,L|216:271,1,128,2|2,1:2|0:2,0:0:0:0:
93,300,78508,2,0,L|72:240,1,64,2|2,1:2|0:2,0:0:0:0:
194,210,78730,2,0,L|216:271,1,64,8|0,0:2|0:0,0:0:0:0:
32,315,78952,2,0,L|10:254,1,64,2|0,0:2|0:0,0:0:0:0:
132,224,79175,6,0,L|154:284,1,64,0|0,1:0|0:0,0:0:0:0:
53,375,79397,2,0,L|31:314,1,64,10|0,0:1|0:0,0:0:0:0:
192,384,79619,1,10,0:1:0:0:
256,124,80064,6,0,B|182:175|182:175|216:272|216:272,1,192,2|0,1:2|0:0,0:0:0:0:
93,300,80508,2,0,L|72:240,1,64,12|0,0:0|0:0,0:0:0:0:
194,210,80730,2,0,L|216:271,1,64,2|0,0:2|0:0,0:0:0:0:
32,315,80952,2,0,L|10:254,1,64,2|0,1:2|0:0,0:0:0:0:
133,224,81175,2,0,L|155:285,1,64
192,384,81397,1,10,0:2:0:0:
72,240,81619,5,0,0:0:0:0:
72,240,81730,2,0,L|28:119,1,128,2|2,1:2|0:2,0:0:0:0:
196,211,82064,2,0,L|174:150,1,64,2|2,1:2|0:2,0:0:0:0:
50,179,82286,2,0,L|72:240,1,64,8|0,0:2|0:0,0:0:0:0:
216,271,82508,2,0,L|194:210,1,64,2|0,0:2|0:0,0:0:0:0:
152,91,82730,5,2,1:2:0:0:
90,105,82841,1,2,0:2:0:0:
113,164,82952,1,2,0:2:0:0:
175,150,83063,1,2,0:2:0:0:
196,211,83175,1,10,0:2:0:0:
134,225,83286,1,2,0:2:0:0:
154,285,83397,1,2,0:2:0:0:
216,272,83508,1,2,0:2:0:0:
236,331,83619,1,2,1:2:0:0:
28,120,84064,5,8,0:2:0:0:
94,300,84286,1,2,0:2:0:0:
175,150,84508,5,2,1:2:0:0:
208,96,84619,1,2,0:0:0:0:
176,40,84730,1,2,0:0:0:0:
224,0,84841,1,2,0:0:0:0:
288,0,84952,1,10,0:2:0:0:
336,40,85063,1,2,0:0:0:0:
304,96,85174,1,2,0:0:0:0:
339,150,85286,6,0,L|296:271,1,128,2|2,0:2|0:2,0:0:0:0:
418,300,85619,2,0,L|440:240,1,64,2|2,1:2|0:2,0:0:0:0:
317,210,85841,2,0,L|296:271,1,64,8|0,0:2|0:0,0:0:0:0:
480,315,86063,2,0,L|501:254,1,64,2|0,1:2|0:0,0:0:0:0:
380,224,86286,6,0,L|358:284,1,64,0|0,1:0|0:0,0:0:0:0:
459,375,86508,2,0,L|480:314,1,64,10|0,0:1|0:0,0:0:0:0:
320,384,86730,1,10,0:1:0:0:
64,128,87175,6,0,L|64:256,1,128,4|0,1:2|0:0,0:0:0:0:
64,256,87508,1,0,0:0:0:0:
128,256,87619,2,0,L|128:128,1,128,10|0,0:2|0:0,0:0:0:0:
128,128,87952,1,2,0:0:0:0:
192,128,88064,2,0,L|192:256,1,128,2|2,1:2|0:2,0:0:0:0:
192,256,88397,1,2,0:0:0:0:
256,256,88508,2,0,L|256:128,1,128,10|2,0:2|0:2,0:0:0:0:
256,128,88841,1,8,0:3:0:0:
320,128,88953,2,0,L|320:256,1,128,2|8,1:2|0:3,0:0:0:0:
320,256,89287,1,0,0:0:0:0:
384,256,89398,2,0,L|384:128,1,128,10|8,0:0|0:3,0:0:0:0:
384,128,89731,1,0,0:0:0:0:
448,128,89842,2,0,L|448:256,2,128,2|2|10,1:2|0:2|0:2,0:0:0:0:
448,128,90397,1,2,0:2:0:0:
448,128,90730,6,0,L|448:256,1,128,4|0,1:2|0:0,0:0:0:0:
448,256,91063,1,0,0:0:0:0:
384,256,91174,2,0,L|384:128,1,128,10|0,0:2|0:0,0:0:0:0:
384,128,91507,1,2,0:0:0:0:
320,128,91619,2,0,L|320:256,1,128,2|2,1:2|0:2,0:0:0:0:
320,256,91952,1,2,0:0:0:0:
256,256,92063,2,0,L|256:128,1,128,10|2,0:2|0:2,0:0:0:0:
256,128,92396,1,8,0:3:0:0:
192,128,92508,2,0,L|192:256,1,128,2|8,1:2|0:3,0:0:0:0:
192,256,92842,1,0,0:0:0:0:
128,256,92953,2,0,L|128:128,1,128,10|8,0:0|0:3,0:0:0:0:
128,128,93286,1,0,0:0:0:0:
64,128,93397,2,0,L|64:256,2,128,2|10|10,1:2|0:2|0:2,0:0:0:0:
64,128,93952,1,2,0:2:0:0:
320,0,94286,6,0,L|192:0,1,128,4|0,1:2|0:0,0:0:0:0:
192,0,94619,1,0,0:0:0:0:
192,64,94730,2,0,L|320:64,1,128,10|0,0:2|0:0,0:0:0:0:
320,64,95063,1,0,0:0:0:0:
320,128,95175,2,0,L|192:128,1,128,2|2,1:2|0:2,0:0:0:0:
192,128,95508,1,2,0:0:0:0:
192,192,95619,2,0,L|320:191,1,128,10|2,0:2|0:2,0:0:0:0:
320,191,95952,1,8,0:3:0:0:
320,256,96064,2,0,L|192:256,1,128,2|8,1:2|0:3,0:0:0:0:
192,256,96398,1,0,0:0:0:0:
192,320,96509,2,0,L|320:320,1,128,10|8,0:0|0:3,0:0:0:0:
320,320,96842,1,0,0:0:0:0:
320,384,96953,2,0,L|192:384,2,128,2|2|10,1:2|0:2|0:2,0:0:0:0:
320,384,97508,1,2,0:2:0:0:
320,384,97841,6,0,L|192:384,1,128,4|0,1:2|0:0,0:0:0:0:
192,384,98174,1,0,0:0:0:0:
192,320,98285,2,0,L|320:320,1,128,10|0,0:2|0:0,0:0:0:0:
320,320,98618,1,2,0:0:0:0:
320,256,98730,2,0,L|192:256,1,128,2|2,1:2|0:2,0:0:0:0:
192,256,99063,1,2,0:0:0:0:
192,192,99174,2,0,L|320:192,1,128,10|2,0:2|0:2,0:0:0:0:
320,192,99508,1,8,0:3:0:0:
392,216,99619,5,2,1:2:0:0:
248,384,99841,1,8,0:3:0:0:
248,384,99952,1,8,0:3:0:0:
120,216,100175,1,8,0:3:0:0:
120,216,100286,1,8,0:3:0:0:
392,216,100730,5,10,0:1:0:0:
120,216,100953,1,10,0:1:0:0:
256,0,101397,6,0,B|192:0|192:0|192:80|112:80|112:80|112:144|112:144|192:144|192:224,1,384,2|2,1:2|0:0,0:0:0:0:
120,216,102286,2,0,B|32:216|44:132|44:132,2,128,2|0|10,1:2|0:0|0:2,0:0:0:0:
392,216,103064,2,0,B|480:216|468:132|468:132,1,128,2|2,1:2|0:2,0:0:0:0:
400,144,103397,2,0,L|328:144,2,64,2|2|10,1:2|0:0|0:0,0:0:0:0:
400,144,103841,1,2,1:2:0:0:
400,280,104064,1,2,1:2:0:0:
112,280,104508,1,10,0:0:0:0:
112,144,104731,1,2,0:0:0:0:
256,0,104953,6,0,B|320:0|320:0|320:80|400:80|400:80|400:144|400:144|320:144|320:224,1,384,2|2,1:2|1:2,0:0:0:0:
392,216,105842,2,0,B|480:216|468:132|468:132,2,128,2|0|10,1:2|0:0|0:2,0:0:0:0:
120,216,106620,2,0,B|32:216|44:132|44:132,1,128,2|2,1:2|0:2,0:0:0:0:
112,144,106953,2,0,L|184:144,2,64,2|2|10,1:2|0:0|0:0,0:0:0:0:
112,144,107397,1,2,1:2:0:0:
256,352,107841,5,10,0:1:0:0:
256,352,108064,1,10,0:1:0:0:
256,32,108508,5,2,0:0:0:0:
192,32,109175,1,2,0:0:0:0:
128,32,109397,1,2,0:0:0:0:
128,96,109841,1,2,0:0:0:0:
128,160,110175,1,2,0:0:0:0:
128,224,110397,2,0,L|64:224,1,64,2|2,0:0|0:0,0:0:0:0:
128,288,110619,2,0,L|64:288,1,64,2|2,0:0|0:0,0:0:0:0:
128,352,110953,1,2,0:0:0:0:
192,352,111175,1,2,0:0:0:0:
192,288,111619,1,2,0:0:0:0:
256,288,111841,1,2,0:0:0:0:
256,352,112064,5,2,0:0:0:0:
320,352,112731,1,2,0:0:0:0:
384,352,112953,1,2,0:0:0:0:
384,288,113397,1,2,0:0:0:0:
384,224,113731,1,2,0:0:0:0:
384,160,113841,6,0,L|448:160,3,64,2|2|2|2,1:2|0:0|1:2|0:0,0:0:0:0:
384,96,114286,2,0,L|448:96,3,64,2|2|2|2,1:2|0:0|1:2|0:0,0:0:0:0:
384,32,114730,5,2,1:2:0:0:
128,32,114953,1,8,1:1:0:0:
256,252,115175,1,14,1:1:0:0:
256,192,115286,12,0,116397,0:0:0:0:
