osu file format v14

[General]
AudioFilename: phantomxghostxghoul.mp3
AudioLeadIn: 0
PreviewTime: 51795
Countdown: 0
SampleSet: Soft
StackLeniency: 0.7
Mode: 3
LetterboxInBreaks: 0
SpecialStyle: 0
WidescreenStoryboard: 0

[Editor]
Bookmarks: 7755,23115,38475,46155,53835,65355,69195,84555,99915,115275,130635,145995,161355,169035,176715,184395,207435,222795,230475,238155,241995
DistanceSpacing: 0.8
BeatDivisor: 4
GridSize: 32
TimelineZoom: 2.2

[Metadata]
Title:PHANTOM x GHOST x GHOUL MASHUP
TitleUnicode:PHANTOM x GHOST x GHOUL MASHUP
Artist:Huskyii/Camellia
ArtistUnicode:Huskyii/Camellia
Creator:millis70
Version:More than just spirits
Source:
Tags:
BeatmapID:4542048
BeatmapSetID:2155035

[Difficulty]
HPDrainRate:10
CircleSize:4
OverallDifficulty:9.2
ApproachRate:5
SliderMultiplier:1.50000000596046
SliderTickRate:1

[Events]
//Background and Video events
0,0,"phantom x ghost x ghoul.jpg",0,0
//Break Periods
//Storyboard Layer 0 (Background)
//Storyboard Layer 1 (Fail)
//Storyboard Layer 2 (Pass)
//Storyboard Layer 3 (Foreground)
//Storyboard Layer 4 (Overlay)
//Storyboard Sound Samples

[TimingPoints]
7755,240,4,2,2,50,1,0
23115,-100,4,2,1,50,0,0
84555,-100,4,2,1,50,0,1
99915,-100,4,2,1,50,0,0
161355,-100,4,2,1,50,0,1
168315,-100,4,2,1,50,0,0
169035,-100,4,2,1,50,0,1
176235,-100,4,2,1,50,0,0
176715,-100,4,2,1,50,0,1
182475,-100,4,2,1,50,0,0
184395,-100,4,2,1,50,0,1
187755,-100,4,2,1,50,0,0
188235,-100,4,2,1,50,0,1
191595,-100,4,2,1,50,0,0
192075,-100,4,2,1,50,0,1
195675,-100,4,2,1,50,0,0
222795,-100,4,2,1,50,0,1
224475,-100,4,2,1,50,0,0
224715,-100,4,2,1,50,0,1
226395,-100,4,2,1,50,0,0
226635,-100,4,2,1,50,0,1
230475,-100,4,2,1,50,0,0
242055,-100,4,2,2,50,0,0

[HitObjects]
64,192,5895,128,0,7755:0:0:0:0:
320,192,7755,1,2,0:0:0:0:
448,192,7755,1,0,0:0:0:0:
192,192,8235,1,8,0:0:0:0:
64,192,8475,1,2,0:0:0:0:
448,192,8475,1,0,0:0:0:0:
320,192,9195,1,8,0:0:0:0:
448,192,9195,1,0,0:0:0:0:
192,192,9675,1,2,0:0:0:0:
64,192,9675,1,0,0:0:0:0:
320,192,10155,1,8,0:0:0:0:
64,192,10395,1,0,0:0:0:0:
448,192,10395,1,2,0:0:0:0:
320,192,11115,1,8,0:0:0:0:
448,192,11115,1,0,0:0:0:0:
64,192,11595,1,0,0:0:0:0:
192,192,11595,1,2,0:0:0:0:
320,192,12075,1,8,0:0:0:0:
64,192,12315,1,0,0:0:0:0:
448,192,12315,1,2,0:0:0:0:
192,192,13035,1,8,0:0:0:0:
64,192,13035,1,0,0:0:0:0:
448,192,13515,1,2,0:0:0:0:
320,192,13515,1,0,0:0:0:0:
192,192,13995,1,8,0:0:0:0:
64,192,14235,1,2,0:0:0:0:
320,192,14235,1,0,0:0:0:0:
192,192,14955,1,0,0:0:0:0:
320,192,14955,1,8,0:0:0:0:
448,192,15435,1,2,0:0:0:0:
64,192,15435,1,0,0:0:0:0:
192,192,15555,1,0,0:0:0:0:
320,192,15675,1,0,0:0:0:0:
448,192,15795,1,0,0:0:0:0:
64,192,15915,1,0,0:0:0:0:
192,192,15915,1,8,0:0:0:0:
320,192,16035,1,0,0:0:0:0:
448,192,16155,1,2,0:0:0:0:
64,192,16155,1,0,0:0:0:0:
192,192,16275,1,0,0:0:0:0:
320,192,16395,1,0,0:0:0:0:
448,192,16515,1,0,0:0:0:0:
64,192,16635,1,0,0:0:0:0:
192,192,16635,1,8,0:0:0:0:
448,192,16755,1,0,0:0:0:0:
320,192,16875,1,2,0:0:0:0:
192,192,16875,1,0,0:0:0:0:
64,192,16995,1,0,0:0:0:0:
448,192,17115,1,0,0:0:0:0:
320,192,17115,1,2,0:0:0:0:
192,192,17175,1,2,0:0:0:0:
64,192,17235,1,2,0:0:0:0:
448,192,17235,1,0,0:0:0:0:
320,192,17295,1,0,0:0:0:0:
192,192,17355,1,2,0:0:0:0:
64,192,17355,1,0,0:0:0:0:
448,192,17475,1,0,0:0:0:0:
320,192,17595,1,0,0:0:0:0:
64,192,17715,1,0,0:0:0:0:
192,192,17835,1,0,0:0:0:0:
320,192,17835,1,8,0:0:0:0:
448,192,17955,1,0,0:0:0:0:
64,192,18075,1,0,0:0:0:0:
192,192,18075,1,2,0:0:0:0:
320,192,18195,1,0,0:0:0:0:
448,192,18315,1,0,0:0:0:0:
64,192,18435,1,0,0:0:0:0:
320,192,18555,1,8,0:0:0:0:
448,192,18555,1,0,0:0:0:0:
192,192,18675,1,0,0:0:0:0:
64,192,18795,1,2,0:0:0:0:
448,192,18795,1,0,0:0:0:0:
320,192,18915,1,0,0:0:0:0:
192,192,19035,1,2,0:0:0:0:
64,192,19035,1,0,0:0:0:0:
320,192,19155,1,2,0:0:0:0:
448,192,19155,1,0,0:0:0:0:
192,192,19275,1,2,0:0:0:0:
64,192,19275,1,0,0:0:0:0:
448,192,19395,1,0,0:0:0:0:
320,192,19515,1,0,0:0:0:0:
64,192,19635,1,0,0:0:0:0:
192,192,19755,1,8,0:0:0:0:
448,192,19755,1,0,0:0:0:0:
320,192,19875,1,0,0:0:0:0:
64,192,19995,1,0,0:0:0:0:
192,192,19995,1,2,0:0:0:0:
448,192,20115,1,0,0:0:0:0:
192,192,20235,1,0,0:0:0:0:
64,192,20355,1,0,0:0:0:0:
320,192,20475,1,8,0:0:0:0:
448,192,20475,1,0,0:0:0:0:
192,192,20595,1,0,0:0:0:0:
64,192,20715,1,2,0:0:0:0:
448,192,20715,1,0,0:0:0:0:
320,192,20835,1,0,0:0:0:0:
192,192,20955,1,2,0:0:0:0:
64,192,20955,1,0,0:0:0:0:
320,192,21075,1,2,0:0:0:0:
448,192,21075,1,0,0:0:0:0:
192,192,21195,1,8,0:0:0:0:
64,192,21195,1,0,0:0:0:0:
448,192,21315,1,0,0:0:0:0:
320,192,21435,1,0,0:0:0:0:
64,192,21555,1,0,0:0:0:0:
192,192,21555,1,2,0:0:0:0:
320,192,21675,1,8,0:0:0:0:
448,192,21675,1,0,0:0:0:0:
64,192,21795,1,0,0:0:0:0:
192,192,21915,1,0,0:0:0:0:
320,192,22035,1,0,0:0:0:0:
64,192,22155,1,2,0:0:0:0:
192,192,22155,128,0,22395:0:0:0:0:
320,192,22395,1,0,0:0:0:0:
448,192,22395,1,8,0:0:0:0:
64,192,22515,1,0,0:0:0:0:
192,192,22635,128,0,22755:0:0:0:0:
320,192,22635,128,2,22755:0:0:0:0:
64,192,22875,1,0,0:0:0:0:
192,192,22935,1,0,0:0:0:0:
448,192,22995,1,0,0:0:0:0:
320,192,23055,1,0,0:0:0:0:
192,192,23115,1,0,0:0:0:70:echo laugh.mp3
64,192,23115,128,0,23235:0:0:0:0:
448,192,23115,1,6,0:0:0:0:
320,192,23235,128,0,23355:0:0:0:0:
192,192,23355,128,0,23475:0:0:0:0:
448,192,23475,1,2,0:0:0:0:
320,192,23475,128,0,23595:0:0:0:0:
64,192,23595,1,8,0:0:0:0:
192,192,23595,128,0,23715:0:0:0:0:
448,192,23715,128,0,23835:0:0:0:0:
320,192,23835,1,2,0:0:0:0:
64,192,23835,128,0,23955:0:0:0:0:
192,192,23955,128,0,24075:0:0:0:0:
64,192,24075,128,0,24195:0:0:0:0:
448,192,24195,128,0,24315:0:0:0:0:
192,192,24315,128,0,24435:0:0:0:0:
448,192,24435,1,2,0:0:0:0:
320,192,24435,128,0,24555:0:0:0:0:
448,192,24555,1,8,0:0:0:0:
64,192,24555,128,0,24675:0:0:0:0:
320,192,24675,1,2,0:0:0:0:
192,192,24675,128,0,24795:0:0:0:0:
448,192,24795,128,0,24915:0:0:0:0:
320,192,24915,1,2,0:0:0:0:
64,192,24915,128,0,25035:0:0:0:0:
192,192,25035,1,2,0:0:0:0:
448,192,25035,128,0,25155:0:0:0:0:
64,192,25155,128,0,25275:0:0:0:0:
192,192,25275,128,0,25395:0:0:0:0:
448,192,25395,1,2,0:0:0:0:
320,192,25395,128,0,25515:0:0:0:0:
192,192,25515,1,8,0:0:0:0:
64,192,25515,1,0,0:0:0:0:
448,192,25515,128,0,25635:0:0:0:0:
320,192,25635,128,0,25755:0:0:0:0:
192,192,25755,1,2,0:0:0:0:
64,192,25755,128,0,25875:0:0:0:0:
448,192,25875,128,0,25995:0:0:0:0:
320,192,25995,128,0,26115:0:0:0:0:
192,192,26115,128,0,26235:0:0:0:0:
320,192,26235,1,2,0:0:0:0:
64,192,26235,128,0,26355:0:0:0:0:
448,192,26355,128,0,26475:0:0:0:0:
64,192,26475,1,0,0:0:0:0:
320,192,26475,1,8,0:0:0:0:
192,192,26475,128,0,26595:0:0:0:0:
448,192,26595,128,0,26715:0:0:0:0:
320,192,26715,128,0,26775:0:0:0:0:
64,192,26835,1,0,0:0:0:0:
192,192,26835,1,2,0:0:0:0:
448,192,26895,1,0,0:0:0:0:
320,192,26895,1,2,0:0:0:0:
192,192,26955,128,2,27075:0:0:0:0:
64,192,26955,128,0,27075:0:0:0:0:
320,192,27075,1,0,0:0:0:0:
64,192,27195,128,0,27315:0:0:0:0:
448,192,27195,128,0,27315:0:0:0:0:
192,192,27315,1,0,0:0:0:0:
320,192,27435,1,8,0:0:0:0:
64,192,27435,128,0,27555:0:0:0:0:
448,192,27435,128,0,27555:0:0:0:0:
192,192,27555,1,0,0:0:0:0:
320,192,27675,128,2,27795:0:0:0:0:
448,192,27675,128,0,27795:0:0:0:0:
64,192,27795,1,0,0:0:0:0:
192,192,27855,1,0,0:0:0:0:
320,192,27915,128,0,28035:0:0:0:0:
64,192,27915,128,0,28035:0:0:0:0:
448,192,28035,1,0,0:0:0:0:
192,192,28155,128,2,28275:0:0:0:0:
320,192,28155,128,0,28275:0:0:0:0:
64,192,28275,1,0,0:0:0:0:
448,192,28335,1,0,0:0:0:0:
320,192,28395,1,8,0:0:0:0:
64,192,28395,128,0,28515:0:0:0:0:
192,192,28395,128,0,28515:0:0:0:0:
448,192,28515,1,0,0:0:0:0:
192,192,28635,128,0,28755:0:0:0:0:
320,192,28635,128,0,28755:0:0:0:0:
448,192,28695,1,0,0:0:0:0:
64,192,28755,1,0,0:0:0:0:
448,192,28815,1,0,0:0:0:0:
192,192,28875,128,2,28995:0:0:0:0:
64,192,28875,128,0,28995:0:0:0:0:
320,192,28995,1,0,0:0:0:0:
64,192,29115,128,0,29235:0:0:0:0:
448,192,29115,128,0,29235:0:0:0:0:
192,192,29235,1,0,0:0:0:0:
64,192,29355,1,8,0:0:0:0:
320,192,29355,128,0,29475:0:0:0:0:
448,192,29355,128,0,29475:0:0:0:0:
192,192,29475,1,0,0:0:0:0:
64,192,29595,128,0,29715:0:0:0:0:
448,192,29595,128,2,29715:0:0:0:0:
320,192,29715,1,0,0:0:0:0:
192,192,29775,1,0,0:0:0:0:
320,192,29835,128,0,29955:0:0:0:0:
64,192,29835,128,0,29955:0:0:0:0:
192,192,29955,1,2,0:0:0:0:
448,192,29955,128,0,30075:0:0:0:0:
320,192,30075,128,0,30195:0:0:0:0:
192,192,30195,1,2,0:0:0:0:
64,192,30195,128,0,30315:0:0:0:0:
448,192,30315,1,0,0:0:0:0:
192,192,30315,1,8,0:0:0:0:
320,192,30315,128,0,30435:0:0:0:0:
448,192,30435,1,2,0:0:0:0:
64,192,30435,128,0,30555:0:0:0:0:
448,192,30555,1,0,0:0:0:0:
320,192,30555,1,2,0:0:0:0:
192,192,30615,1,2,0:0:0:0:
64,192,30675,1,2,0:0:0:0:
448,192,30675,1,0,0:0:0:0:
320,192,30735,1,2,0:0:0:0:
64,192,30795,1,0,0:0:0:0:
448,192,30795,1,6,0:0:0:0:
192,192,30795,128,0,30915:0:0:0:0:
320,192,30915,128,0,31035:0:0:0:0:
448,192,31035,128,0,31155:0:0:0:0:
64,192,31155,128,0,31275:0:0:0:0:
320,192,31275,1,8,0:0:0:0:
448,192,31275,1,0,0:0:0:0:
192,192,31275,128,0,31395:0:0:0:0:
64,192,31395,128,0,31515:0:0:0:0:
320,192,31515,1,2,0:0:0:0:
448,192,31515,128,0,31635:0:0:0:0:
192,192,31635,128,0,31755:0:0:0:0:
320,192,31755,128,0,31875:0:0:0:0:
448,192,31875,128,0,31995:0:0:0:0:
192,192,31995,1,2,0:0:0:0:
64,192,31995,128,0,32115:0:0:0:0:
320,192,32115,128,0,32235:0:0:0:0:
64,192,32235,1,0,0:0:0:0:
448,192,32235,1,8,0:0:0:0:
192,192,32235,128,0,32355:0:0:0:0:
320,192,32355,128,0,32475:0:0:0:0:
64,192,32475,128,0,32595:0:0:0:0:
192,192,32595,128,0,32715:0:0:0:0:
320,192,32715,1,2,0:0:0:0:
448,192,32715,128,0,32835:0:0:0:0:
64,192,32835,128,0,32955:0:0:0:0:
192,192,32955,128,0,33075:0:0:0:0:
64,192,33075,1,2,0:0:0:0:
448,192,33075,128,0,33195:0:0:0:0:
64,192,33195,1,8,0:0:0:0:
192,192,33195,128,0,33315:0:0:0:0:
320,192,33315,128,0,33435:0:0:0:0:
64,192,33435,1,2,0:0:0:0:
448,192,33435,128,0,33555:0:0:0:0:
192,192,33555,128,0,33675:0:0:0:0:
320,192,33675,128,0,33795:0:0:0:0:
64,192,33795,128,0,33915:0:0:0:0:
448,192,33915,128,0,34035:0:0:0:0:
192,192,34035,1,2,0:0:0:0:
320,192,34035,128,0,34155:0:0:0:0:
64,192,34155,1,8,0:0:0:0:
192,192,34155,128,0,34275:0:0:0:0:
320,192,34275,128,0,34395:0:0:0:0:
192,192,34395,1,2,0:0:0:0:
64,192,34395,1,0,0:0:0:0:
448,192,34455,1,2,0:0:0:0:
320,192,34515,1,2,0:0:0:0:
192,192,34515,1,0,0:0:0:0:
64,192,34575,1,2,0:0:0:0:
320,192,34635,128,2,34755:0:0:0:0:
448,192,34635,128,0,34755:0:0:0:0:
192,192,34755,128,0,34875:0:0:0:0:
448,192,34875,128,0,34995:0:0:0:0:
64,192,34875,128,0,34995:0:0:0:0:
320,192,34995,1,2,0:0:0:0:
192,192,34995,128,0,35115:0:0:0:0:
448,192,35115,1,0,0:0:0:0:
64,192,35115,1,8,0:0:0:0:
320,192,35115,128,0,35235:0:0:0:0:
192,192,35235,128,0,35355:0:0:0:0:
448,192,35355,128,0,35475:0:0:0:0:
320,192,35355,128,2,35475:0:0:0:0:
192,192,35475,1,0,0:0:0:0:
64,192,35535,1,0,0:0:0:0:
192,192,35595,128,0,35715:0:0:0:0:
448,192,35595,128,0,35715:0:0:0:0:
320,192,35715,128,0,35835:0:0:0:0:
64,192,35835,128,0,35955:0:0:0:0:
448,192,35835,128,0,35955:0:0:0:0:
320,192,35955,1,2,0:0:0:0:
192,192,35955,128,0,36075:0:0:0:0:
64,192,36075,1,8,0:0:0:0:
320,192,36075,128,0,36195:0:0:0:0:
448,192,36075,128,0,36195:0:0:0:0:
192,192,36195,1,0,0:0:0:0:
64,192,36315,1,0,0:0:0:0:
192,192,36315,1,2,0:0:0:0:
320,192,36375,1,2,0:0:0:0:
448,192,36435,1,2,0:0:0:0:
64,192,36435,1,0,0:0:0:0:
192,192,36495,1,2,0:0:0:0:
320,192,36555,1,2,0:0:0:0:
448,192,36555,1,0,0:0:0:0:
192,192,36615,1,0,0:0:0:0:
64,192,36675,1,0,0:0:0:0:
320,192,36735,1,0,0:0:0:0:
192,192,36795,1,0,0:0:0:0:
64,192,36855,1,0,0:0:0:0:
448,192,36915,1,0,0:0:0:0:
320,192,36975,1,0,0:0:0:0:
192,192,37035,1,8,0:0:0:0:
64,192,37035,1,0,0:0:0:0:
448,192,37035,1,0,0:0:0:0:
320,192,37095,1,0,0:0:0:0:
192,192,37155,1,0,0:0:0:0:
64,192,37215,1,0,0:0:0:0:
192,192,37275,1,0,0:0:0:0:
448,192,37275,1,2,0:0:0:0:
320,192,37335,1,0,0:0:0:0:
64,192,37395,1,0,0:0:0:0:
192,192,37455,1,0,0:0:0:0:
448,192,37515,1,0,0:0:0:0:
320,192,37515,1,2,0:0:0:0:
192,192,37575,1,0,0:0:0:0:
64,192,37635,1,0,0:0:0:0:
320,192,37635,1,8,0:0:0:0:
448,192,37635,1,0,0:0:0:0:
192,192,37695,1,0,0:0:0:0:
320,192,37755,1,0,0:0:0:0:
64,192,37815,1,0,0:0:0:0:
448,192,37875,1,0,0:0:0:0:
320,192,37935,1,0,0:0:0:0:
64,192,37995,1,0,0:0:0:0:
192,192,37995,1,2,0:0:0:0:
448,192,38055,1,0,0:0:0:0:
320,192,38115,1,0,0:0:0:0:
192,192,38175,1,0,0:0:0:0:
64,192,38235,1,0,0:0:0:0:
448,192,38235,1,2,0:0:0:0:
320,192,38295,1,0,0:0:0:0:
64,192,38355,1,0,0:0:0:0:
192,192,38415,1,0,0:0:0:0:
320,192,38475,128,6,38595:0:0:0:0:
448,192,38475,128,0,38715:0:0:0:0:
64,192,38475,128,0,38715:0:0:0:0:
192,192,38715,1,0,0:0:0:0:
320,192,38715,1,0,0:0:0:80:snare-dirty.mp3
64,192,38835,128,0,38955:0:0:0:0:
192,192,38835,128,2,38955:0:0:0:0:
448,192,38835,128,0,39075:0:0:0:0:
192,192,39075,1,0,0:0:0:80:snare-dirty.mp3
64,192,39075,1,0,0:0:0:0:
192,192,39195,128,0,39315:0:0:0:0:
320,192,39195,128,2,39315:0:0:0:0:
448,192,39195,128,0,39255:0:0:0:0:
448,192,39315,1,0,0:0:0:0:
64,192,39315,1,0,0:0:0:80:snare-dirty.mp3
320,192,39435,128,2,39555:0:0:0:0:
192,192,39435,128,0,39675:0:0:0:0:
64,192,39435,128,0,39675:0:0:0:0:
448,192,39675,1,0,0:0:0:0:
320,192,39675,1,0,0:0:0:80:snare-dirty.mp3
192,192,39795,128,2,40035:0:0:0:0:
64,192,39795,128,0,39915:0:0:0:0:
448,192,39795,128,0,39915:0:0:0:0:
448,192,40035,1,0,0:0:0:80:snare-dirty.mp3
64,192,40035,1,0,0:0:0:0:
320,192,40155,128,2,40275:0:0:0:0:
64,192,40155,128,0,40275:0:0:0:0:
192,192,40155,128,0,40215:0:0:0:0:
448,192,40275,1,0,0:0:0:0:
192,192,40275,1,0,0:0:0:80:snare-dirty.mp3
64,192,40395,128,0,40515:0:0:0:0:
320,192,40395,128,2,40635:0:0:0:0:
448,192,40395,128,0,40635:0:0:0:0:
192,192,40635,1,0,0:0:0:80:snare-dirty.mp3
64,192,40635,1,0,0:0:0:0:
192,192,40755,128,2,40995:0:0:0:0:
320,192,40755,128,0,40875:0:0:0:0:
448,192,40755,128,0,40995:0:0:0:0:
64,192,40995,1,0,0:0:0:0:
320,192,40995,1,0,0:0:0:80:snare-dirty.mp3
64,192,41115,128,0,41235:0:0:0:0:
448,192,41115,128,0,41235:0:0:0:0:
192,192,41115,128,2,41175:0:0:0:0:
320,192,41235,1,0,0:0:0:80:snare-dirty.mp3
192,192,41235,1,0,0:0:0:0:
64,192,41355,128,0,41415:0:0:0:0:
320,192,41355,128,2,41475:0:0:0:0:
448,192,41355,128,0,41475:0:0:0:0:
192,192,41475,1,0,0:0:0:80:snare-dirty.mp3
64,192,41475,1,0,0:0:0:0:
320,192,41595,1,0,0:0:0:80:snare-dirty.mp3
448,192,41595,1,0,0:0:0:0:
320,192,41715,128,2,41835:0:0:0:0:
192,192,41715,128,0,41955:0:0:0:0:
64,192,41715,128,0,41955:0:0:0:0:
448,192,41955,1,0,0:0:0:0:
320,192,41955,1,0,0:0:0:80:snare-dirty.mp3
64,192,42075,1,0,0:0:0:0:
192,192,42075,1,0,0:0:0:80:snare-dirty.mp3
320,192,42135,1,0,0:0:0:80:snare-dirty.mp3
448,192,42135,1,0,0:0:0:0:
192,192,42195,1,0,0:0:0:80:snare-dirty.mp3
64,192,42195,1,0,0:0:0:0:
320,192,42255,1,0,0:0:0:80:snare-dirty.mp3
448,192,42255,1,0,0:0:0:0:
192,192,42315,128,6,42435:0:0:0:0:
320,192,42315,128,0,42555:0:0:0:0:
64,192,42315,128,0,42555:0:0:0:0:
192,192,42555,1,0,0:0:0:80:snare-dirty.mp3
448,192,42555,1,0,0:0:0:0:
64,192,42675,128,0,42915:0:0:0:0:
320,192,42675,128,2,42795:0:0:0:0:
448,192,42675,128,0,42915:0:0:0:0:
192,192,42915,1,0,0:0:0:0:
320,192,42915,1,0,0:0:0:80:snare-dirty.mp3
64,192,43035,128,0,43155:0:0:0:0:
192,192,43035,128,0,43155:0:0:0:0:
448,192,43035,128,2,43095:0:0:0:0:
320,192,43155,1,0,0:0:0:80:snare-dirty.mp3
448,192,43155,1,0,0:0:0:0:
320,192,43275,128,0,43515:0:0:0:0:
192,192,43275,128,2,43395:0:0:0:0:
64,192,43275,128,0,43515:0:0:0:0:
448,192,43515,1,0,0:0:0:0:
192,192,43515,1,0,0:0:0:80:snare-dirty.mp3
448,192,43635,128,0,43875:0:0:0:0:
320,192,43635,128,2,43755:0:0:0:0:
64,192,43635,128,0,43875:0:0:0:0:
320,192,43875,1,0,0:0:0:0:
192,192,43875,1,0,0:0:0:80:snare-dirty.mp3
192,192,43995,128,0,44115:0:0:0:0:
448,192,43995,128,0,44115:0:0:0:0:
64,192,43995,128,2,44055:0:0:0:0:
320,192,44115,1,0,0:0:0:80:snare-dirty.mp3
64,192,44115,1,0,0:0:0:0:
192,192,44235,128,2,44355:0:0:0:0:
320,192,44235,128,0,44475:0:0:0:0:
448,192,44235,128,0,44475:0:0:0:0:
64,192,44475,1,0,0:0:0:0:
192,192,44475,1,0,0:0:0:80:snare-dirty.mp3
320,192,44595,128,2,44715:0:0:0:0:
448,192,44595,128,0,44835:0:0:0:0:
64,192,44595,128,0,44835:0:0:0:0:
192,192,44835,1,0,0:0:0:0:
320,192,44835,1,0,0:0:0:80:snare-dirty.mp3
192,192,44955,128,0,45075:0:0:0:0:
448,192,44955,128,0,45075:0:0:0:0:
64,192,44955,128,2,45015:0:0:0:0:
320,192,45075,1,0,0:0:0:80:snare-dirty.mp3
64,192,45075,1,0,0:0:0:0:
192,192,45195,128,0,45435:0:0:0:0:
320,192,45195,128,0,45435:0:0:0:0:
448,192,45195,128,2,45315:0:0:0:0:
64,192,45435,1,0,0:0:0:0:
448,192,45435,1,0,0:0:0:80:snare-dirty.mp3
64,192,45555,1,0,0:0:0:0:
192,192,45555,1,2,0:0:0:0:
320,192,45555,1,0,0:0:0:0:
448,192,45675,1,0,0:0:0:0:
320,192,45675,1,0,0:0:0:80:snare-dirty.mp3
192,192,45735,1,0,0:0:0:80:snare-dirty.mp3
64,192,45735,1,0,0:0:0:0:
320,192,45795,1,0,0:0:0:80:snare-dirty.mp3
448,192,45795,1,0,0:0:0:0:
192,192,45855,1,0,0:0:0:80:snare-dirty.mp3
64,192,45855,1,0,0:0:0:0:
320,192,45915,1,0,0:0:0:80:snare-dirty.mp3
448,192,45915,1,0,0:0:0:0:
192,192,45975,1,0,0:0:0:80:snare-dirty.mp3
64,192,45975,1,0,0:0:0:0:
320,192,46035,1,0,0:0:0:80:snare-dirty.mp3
448,192,46035,1,0,0:0:0:0:
192,192,46095,1,0,0:0:0:80:snare-dirty.mp3
64,192,46095,1,0,0:0:0:0:
320,192,46155,1,6,0:0:0:0:
448,192,46155,1,0,0:0:0:0:
64,192,46155,1,0,0:0:0:0:
192,192,46215,1,0,0:0:0:0:
64,192,46275,1,0,0:0:0:0:
448,192,46335,1,0,0:0:0:0:
320,192,46395,1,2,0:0:0:0:
192,192,46395,1,0,0:0:0:0:
64,192,46455,1,0,0:0:0:0:
448,192,46515,1,0,0:0:0:0:
320,192,46575,1,0,0:0:0:0:
192,192,46635,1,2,0:0:0:0:
64,192,46635,1,0,0:0:0:0:
448,192,46695,1,0,0:0:0:0:
320,192,46755,1,0,0:0:0:0:
192,192,46815,1,0,0:0:0:0:
448,192,46875,1,2,0:0:0:0:
64,192,46875,1,0,0:0:0:0:
192,192,46935,1,0,0:0:0:0:
320,192,46995,1,0,0:0:0:0:
192,192,47055,1,0,0:0:0:0:
448,192,47115,1,2,0:0:0:0:
64,192,47115,1,0,0:0:0:0:
320,192,47175,1,0,0:0:0:0:
192,192,47235,1,0,0:0:0:0:
320,192,47295,1,0,0:0:0:0:
448,192,47355,1,2,0:0:0:0:
64,192,47355,1,0,0:0:0:0:
192,192,47415,1,0,0:0:0:0:
320,192,47475,1,0,0:0:0:0:
448,192,47535,1,0,0:0:0:0:
192,192,47595,1,2,0:0:0:0:
64,192,47595,1,0,0:0:0:0:
320,192,47655,1,0,0:0:0:0:
448,192,47715,1,0,0:0:0:0:
64,192,47775,1,0,0:0:0:0:
192,192,47835,1,0,0:0:0:0:
320,192,47835,1,2,0:0:0:0:
448,192,47895,1,0,0:0:0:0:
64,192,47955,1,0,0:0:0:0:
192,192,48015,1,0,0:0:0:0:
320,192,48075,1,2,0:0:0:0:
448,192,48075,1,0,0:0:0:0:
64,192,48135,1,0,0:0:0:0:
192,192,48195,1,0,0:0:0:0:
320,192,48255,1,0,0:0:0:0:
64,192,48315,1,0,0:0:0:0:
448,192,48315,1,2,0:0:0:0:
192,192,48375,1,0,0:0:0:0:
320,192,48435,1,0,0:0:0:0:
192,192,48495,1,0,0:0:0:0:
64,192,48555,1,2,0:0:0:0:
448,192,48555,1,0,0:0:0:0:
320,192,48615,1,0,0:0:0:0:
192,192,48675,1,0,0:0:0:0:
320,192,48735,1,0,0:0:0:0:
64,192,48795,1,0,0:0:0:0:
448,192,48795,1,2,0:0:0:0:
192,192,48855,1,0,0:0:0:0:
320,192,48915,1,0,0:0:0:0:
192,192,48975,1,0,0:0:0:0:
64,192,49035,1,0,0:0:0:0:
448,192,49035,1,2,0:0:0:0:
320,192,49095,1,0,0:0:0:0:
192,192,49155,1,0,0:0:0:0:
64,192,49215,1,0,0:0:0:0:
320,192,49275,1,2,0:0:0:0:
448,192,49275,1,0,0:0:0:0:
192,192,49335,1,0,0:0:0:0:
64,192,49395,1,0,0:0:0:0:
448,192,49455,1,0,0:0:0:0:
320,192,49515,1,2,0:0:0:0:
192,192,49515,1,0,0:0:0:0:
64,192,49575,1,0,0:0:0:0:
448,192,49635,1,0,0:0:0:0:
320,192,49695,1,0,0:0:0:0:
192,192,49755,1,2,0:0:0:0:
64,192,49755,1,0,0:0:0:0:
448,192,49815,1,0,0:0:0:0:
320,192,49875,1,0,0:0:0:0:
192,192,49935,1,0,0:0:0:0:
64,192,49995,1,0,0:0:0:0:
448,192,49995,1,2,0:0:0:0:
320,192,50035,1,0,0:0:0:0:
192,192,50075,1,0,0:0:0:0:
64,192,50115,1,0,0:0:0:0:
448,192,50155,1,0,0:0:0:0:
320,192,50195,1,0,0:0:0:0:
64,192,50235,1,0,0:0:0:0:
192,192,50235,1,2,0:0:0:0:
448,192,50275,1,0,0:0:0:0:
320,192,50315,1,0,0:0:0:0:
192,192,50355,1,0,0:0:0:0:
64,192,50395,1,0,0:0:0:0:
448,192,50435,1,0,0:0:0:0:
320,192,50475,1,2,0:0:0:0:
192,192,50475,1,0,0:0:0:0:
64,192,50515,1,0,0:0:0:0:
448,192,50555,1,0,0:0:0:0:
320,192,50595,1,0,0:0:0:0:
64,192,50635,1,0,0:0:0:0:
192,192,50675,1,0,0:0:0:0:
448,192,50715,1,0,0:0:0:0:
320,192,50715,1,2,0:0:0:0:
64,192,50755,1,0,0:0:0:0:
192,192,50795,1,0,0:0:0:0:
448,192,50835,1,0,0:0:0:0:
320,192,50875,1,0,0:0:0:0:
192,192,50915,1,0,0:0:0:0:
64,192,50955,1,2,0:0:0:0:
448,192,50955,1,0,0:0:0:0:
320,192,50995,1,0,0:0:0:0:
192,192,51035,1,0,0:0:0:0:
64,192,51075,1,2,0:0:0:0:
448,192,51075,1,0,0:0:0:0:
320,192,51115,1,0,0:0:0:0:
192,192,51155,1,0,0:0:0:0:
64,192,51195,1,2,0:0:0:0:
448,192,51195,1,0,0:0:0:0:
320,192,51235,1,0,0:0:0:0:
192,192,51275,1,0,0:0:0:0:
64,192,51315,1,2,0:0:0:0:
448,192,51315,1,0,0:0:0:0:
320,192,51355,1,0,0:0:0:0:
192,192,51395,1,0,0:0:0:0:
64,192,51435,1,2,0:0:0:0:
448,192,51435,1,0,0:0:0:0:
320,192,51475,1,0,0:0:0:0:
192,192,51515,1,0,0:0:0:0:
64,192,51555,1,2,0:0:0:0:
448,192,51555,1,0,0:0:0:0:
320,192,51595,1,0,0:0:0:0:
192,192,51635,1,0,0:0:0:0:
64,192,51675,1,2,0:0:0:0:
448,192,51675,1,0,0:0:0:0:
320,192,51715,1,0,0:0:0:0:
192,192,51755,1,0,0:0:0:0:
64,192,51795,1,2,0:0:0:0:
448,192,51795,1,0,0:0:0:0:
320,192,51835,1,0,0:0:0:0:
192,192,51875,1,0,0:0:0:0:
64,192,51915,1,2,0:0:0:0:
448,192,51915,1,0,0:0:0:0:
320,192,52035,1,2,0:0:0:0:
448,192,52035,1,0,0:0:0:0:
320,192,52155,1,0,0:0:0:0:
192,192,52155,1,2,0:0:0:0:
192,192,52275,1,2,0:0:0:0:
64,192,52275,1,0,0:0:0:0:
64,192,52395,1,0,0:0:0:0:
320,192,52395,1,8,0:0:0:0:
448,192,52395,1,0,0:0:0:0:
448,192,52635,1,0,0:0:0:0:
192,192,52635,1,8,0:0:0:0:
64,192,52635,1,0,0:0:0:0:
320,192,52695,1,0,0:0:0:0:
192,192,52815,1,2,0:0:0:0:
64,192,52815,1,0,0:0:0:0:
448,192,52875,1,0,0:0:0:0:
320,192,52875,1,2,0:0:0:0:
320,192,52995,1,2,0:0:0:0:
192,192,52995,1,0,0:0:0:0:
448,192,53115,1,2,0:0:0:0:
64,192,53115,128,0,53475:0:0:0:0:
192,192,53235,128,0,53475:0:0:0:0:
320,192,53355,128,0,53595:0:0:0:0:
448,192,53475,128,0,53595:0:0:0:0:
192,192,53595,1,2,0:0:0:0:
64,192,53595,1,0,0:0:0:0:
320,192,53715,1,2,0:0:0:0:
448,192,53715,1,0,0:0:0:0:
192,192,53835,128,2,53955:0:0:0:0:
64,192,53835,128,0,53955:0:0:0:0:
448,192,53835,128,0,53955:0:0:0:0:
320,192,54075,128,0,54195:0:0:0:0:
448,192,54075,128,0,54195:0:0:0:0:
64,192,54075,128,0,54195:0:0:0:0:
64,192,54315,128,0,54435:0:0:0:0:
192,192,54315,128,0,54435:0:0:0:0:
320,192,54315,128,8,54435:0:0:0:0:
448,192,54315,128,0,54435:0:0:0:0:
64,192,54555,1,2,0:0:0:0:
448,192,54555,128,0,54615:0:0:0:0:
192,192,54615,128,0,54675:0:0:0:0:
320,192,54675,128,0,54735:0:0:0:0:
64,192,54735,128,0,54795:0:0:0:0:
448,192,54795,128,0,54855:0:0:0:0:
192,192,54855,128,0,54915:0:0:0:0:
64,192,54915,128,0,54975:0:0:0:0:
320,192,54975,128,0,55035:0:0:0:0:
192,192,55035,1,2,0:0:0:0:
448,192,55035,128,0,55095:0:0:0:0:
64,192,55095,128,0,55155:0:0:0:0:
320,192,55155,128,0,55215:0:0:0:0:
448,192,55215,128,0,55275:0:0:0:0:
64,192,55275,1,8,0:0:0:0:
192,192,55275,128,0,55335:0:0:0:0:
320,192,55335,128,0,55395:0:0:0:0:
448,192,55395,128,0,55455:0:0:0:0:
64,192,55455,128,0,55515:0:0:0:0:
192,192,55515,128,0,55575:0:0:0:0:
448,192,55575,128,0,55635:0:0:0:0:
320,192,55635,128,0,55695:0:0:0:0:
192,192,55695,128,0,55755:0:0:0:0:
448,192,55755,1,2,0:0:0:0:
64,192,55755,128,0,55815:0:0:0:0:
320,192,55815,128,0,55875:0:0:0:0:
192,192,55875,128,0,55935:0:0:0:0:
64,192,55935,128,0,55995:0:0:0:0:
448,192,55995,128,0,56115:0:0:0:0:
320,192,55995,128,0,56055:0:0:0:0:
320,192,56115,128,0,56235:0:0:0:0:
192,192,56115,128,0,56175:0:0:0:0:
64,192,56235,128,0,56355:0:0:0:0:
448,192,56235,128,0,56475:0:0:0:0:
192,192,56235,128,8,56295:0:0:0:0:
320,192,56355,128,0,56475:0:0:0:0:
192,192,56355,128,0,56415:0:0:0:0:
64,192,56475,128,0,56595:0:0:0:0:
192,192,56475,128,2,56595:0:0:0:0:
320,192,56595,128,0,56715:0:0:0:0:
64,192,56715,1,0,0:0:0:0:
192,192,56715,1,0,0:0:0:0:
448,192,56775,1,0,0:0:0:0:
320,192,56835,1,0,0:0:0:0:
64,192,56835,1,0,0:0:0:0:
192,192,56895,1,0,0:0:0:0:
320,192,56955,1,2,0:0:0:0:
448,192,56955,1,0,0:0:0:0:
64,192,57015,1,0,0:0:0:0:
192,192,57075,1,0,0:0:0:0:
448,192,57075,1,0,0:0:0:0:
320,192,57135,1,0,0:0:0:0:
192,192,57195,1,8,0:0:0:0:
64,192,57195,1,0,0:0:0:0:
448,192,57195,1,0,0:0:0:0:
320,192,57255,1,0,0:0:0:0:
448,192,57315,1,0,0:0:0:0:
64,192,57315,1,0,0:0:0:0:
192,192,57375,1,0,0:0:0:0:
320,192,57435,1,0,0:0:0:0:
64,192,57435,1,0,0:0:0:0:
448,192,57495,1,0,0:0:0:0:
192,192,57555,1,2,0:0:0:0:
64,192,57555,1,0,0:0:0:0:
320,192,57615,1,2,0:0:0:0:
448,192,57615,1,0,0:0:0:0:
192,192,57675,1,6,0:0:0:0:
64,192,57675,128,0,57915:0:0:0:0:
448,192,57675,128,0,57795:0:0:0:0:
320,192,57795,1,0,0:0:0:0:
192,192,57795,1,0,0:0:0:0:
320,192,57915,128,0,58035:0:0:0:0:
448,192,57915,128,0,58035:0:0:0:0:
192,192,58035,1,0,0:0:0:0:
64,192,58035,1,0,0:0:0:0:
64,192,58155,128,0,58275:0:0:0:0:
320,192,58155,128,8,58275:0:0:0:0:
448,192,58155,128,0,58275:0:0:0:0:
192,192,58395,1,2,0:0:0:0:
64,192,58395,1,0,0:0:0:0:
448,192,58395,1,0,0:0:0:0:
320,192,58515,1,0,0:0:0:0:
448,192,58515,1,0,0:0:0:0:
64,192,58575,1,0,0:0:0:0:
192,192,58635,1,0,0:0:0:0:
448,192,58635,1,0,0:0:0:0:
64,192,58755,1,0,0:0:0:0:
320,192,58875,1,2,0:0:0:0:
192,192,58875,1,0,0:0:0:0:
448,192,58875,1,0,0:0:0:0:
448,192,58995,1,0,0:0:0:0:
64,192,58995,1,0,0:0:0:0:
320,192,59055,1,0,0:0:0:0:
448,192,59115,1,0,0:0:0:0:
192,192,59115,1,8,0:0:0:0:
64,192,59115,1,0,0:0:0:0:
320,192,59235,1,0,0:0:0:0:
448,192,59355,1,0,0:0:0:0:
64,192,59355,1,0,0:0:0:0:
192,192,59475,1,0,0:0:0:0:
64,192,59475,1,0,0:0:0:0:
320,192,59595,1,2,0:0:0:0:
192,192,59595,1,0,0:0:0:0:
448,192,59595,1,0,0:0:0:0:
64,192,59715,1,0,0:0:0:0:
448,192,59715,1,0,0:0:0:0:
320,192,59775,1,0,0:0:0:0:
192,192,59835,1,0,0:0:0:0:
64,192,59835,1,0,0:0:0:0:
448,192,59955,1,0,0:0:0:0:
320,192,59955,1,0,0:0:0:0:
64,192,60015,1,0,0:0:0:0:
192,192,60075,1,0,0:0:0:0:
448,192,60075,1,0,0:0:0:0:
320,192,60075,1,8,0:0:0:0:
320,192,60195,1,0,0:0:0:0:
448,192,60315,1,0,0:0:0:0:
64,192,60315,1,0,0:0:0:0:
192,192,60315,1,2,0:0:0:0:
320,192,60435,1,0,0:0:0:0:
448,192,60435,1,0,0:0:0:0:
192,192,60495,1,0,0:0:0:0:
448,192,60555,1,0,0:0:0:0:
64,192,60555,1,0,0:0:0:0:
320,192,60675,1,0,0:0:0:0:
64,192,60795,1,0,0:0:0:0:
448,192,60795,1,0,0:0:0:0:
192,192,60795,1,2,0:0:0:0:
448,192,60915,1,0,0:0:0:0:
192,192,61035,1,0,0:0:0:0:
64,192,61035,1,0,0:0:0:0:
320,192,61035,1,8,0:0:0:0:
448,192,61035,1,0,0:0:0:0:
192,192,61155,1,0,0:0:0:0:
64,192,61155,1,0,0:0:0:0:
448,192,61275,1,0,0:0:0:0:
320,192,61275,1,0,0:0:0:0:
320,192,61395,1,0,0:0:0:0:
448,192,61395,1,0,0:0:0:0:
192,192,61515,128,2,61635:0:0:0:0:
64,192,61515,128,0,61635:0:0:0:0:
320,192,61635,128,0,61755:0:0:0:0:
448,192,61635,128,0,61755:0:0:0:0:
192,192,61755,128,0,61875:0:0:0:0:
64,192,61755,128,0,61875:0:0:0:0:
320,192,61875,1,2,0:0:0:0:
448,192,61875,1,0,0:0:0:0:
64,192,61995,1,8,0:0:0:0:
448,192,61995,128,0,62075:0:0:0:0:
320,192,62035,128,0,62115:0:0:0:0:
192,192,62075,128,0,62155:0:0:0:0:
64,192,62115,128,0,62195:0:0:0:0:
320,192,62235,1,2,0:0:0:0:
448,192,62235,1,0,0:0:0:0:
192,192,62355,1,0,0:0:0:0:
320,192,62415,1,0,0:0:0:0:
64,192,62475,1,0,0:0:0:0:
192,192,62535,1,0,0:0:0:0:
320,192,62595,1,0,0:0:0:0:
448,192,62655,1,0,0:0:0:0:
64,192,62715,1,0,0:0:0:0:
192,192,62775,1,0,0:0:0:0:
448,192,62835,1,0,0:0:0:0:
320,192,62835,1,2,0:0:0:0:
192,192,62955,1,8,0:0:0:0:
448,192,62955,1,0,0:0:0:0:
64,192,62955,1,0,0:0:0:0:
320,192,63015,1,0,0:0:0:0:
192,192,63075,1,2,0:0:0:0:
64,192,63075,1,0,0:0:0:0:
448,192,63135,1,0,0:0:0:0:
320,192,63195,1,0,0:0:0:0:
64,192,63255,1,0,0:0:0:0:
192,192,63315,1,2,0:0:0:0:
448,192,63315,1,0,0:0:0:0:
64,192,63435,1,0,0:0:0:0:
320,192,63435,1,2,0:0:0:0:
192,192,63495,1,0,0:0:0:0:
448,192,63555,1,0,0:0:0:0:
320,192,63615,1,0,0:0:0:0:
64,192,63675,1,0,0:0:0:0:
192,192,63735,1,0,0:0:0:0:
320,192,63795,1,2,0:0:0:0:
448,192,63795,1,0,0:0:0:0:
64,192,63915,1,0,0:0:0:0:
320,192,63915,1,8,0:0:0:0:
192,192,63915,1,0,0:0:0:0:
448,192,63975,1,0,0:0:0:0:
320,192,64035,1,0,0:0:0:0:
192,192,64095,1,0,0:0:0:0:
64,192,64155,1,0,0:0:0:0:
448,192,64155,1,2,0:0:0:0:
320,192,64215,1,0,0:0:0:0:
192,192,64275,1,0,0:0:0:0:
64,192,64455,1,0,0:0:0:0:
448,192,64515,1,0,0:0:0:0:
192,192,64575,1,0,0:0:0:0:
320,192,64635,1,0,0:0:0:0:
64,192,64695,1,0,0:0:0:0:
192,192,64755,1,2,0:0:0:0:
448,192,64755,1,0,0:0:0:0:
320,192,64815,1,0,0:0:0:0:
448,192,64875,1,0,0:0:0:0:
192,192,64875,1,8,0:0:0:0:
64,192,64875,1,0,0:0:0:0:
320,192,64935,1,0,0:0:0:0:
192,192,64995,1,0,0:0:0:0:
64,192,65055,1,0,0:0:0:0:
448,192,65115,1,2,0:0:0:0:
320,192,65175,1,2,0:0:0:0:
192,192,65235,1,2,0:0:0:0:
64,192,65295,1,2,0:0:0:0:
448,192,65355,1,0,0:0:0:0:
192,192,65355,1,6,0:0:0:0:
320,192,65355,128,0,65475:0:0:0:0:
64,192,65475,128,0,65595:0:0:0:0:
448,192,65595,128,0,65715:0:0:0:0:
192,192,65715,1,0,0:0:0:0:
320,192,65715,1,8,0:0:0:0:
64,192,65715,128,0,65835:0:0:0:0:
448,192,65835,1,2,0:0:0:0:
320,192,65835,128,0,65955:0:0:0:0:
192,192,65955,128,0,66075:0:0:0:0:
64,192,66075,1,0,0:0:0:0:
320,192,66075,1,8,0:0:0:0:
448,192,66075,128,0,66195:0:0:0:0:
192,192,66195,128,0,66315:0:0:0:0:
64,192,66315,1,2,0:0:0:0:
320,192,66315,128,0,66435:0:0:0:0:
448,192,66435,128,0,66555:0:0:0:0:
64,192,66555,128,0,66675:0:0:0:0:
320,192,66675,1,8,0:0:0:0:
192,192,66675,1,0,0:0:0:0:
448,192,66675,128,0,66795:0:0:0:0:
64,192,66795,1,2,0:0:0:0:
192,192,66795,128,0,66915:0:0:0:0:
320,192,66915,128,0,67035:0:0:0:0:
448,192,67035,1,0,0:0:0:0:
192,192,67035,1,8,0:0:0:0:
64,192,67035,128,0,67155:0:0:0:0:
320,192,67155,128,0,67275:0:0:0:0:
64,192,67275,1,2,0:0:0:0:
448,192,67275,128,0,67395:0:0:0:0:
192,192,67395,128,0,67515:0:0:0:0:
320,192,67515,128,0,67635:0:0:0:0:
192,192,67635,1,8,0:0:0:0:
448,192,67635,1,0,0:0:0:0:
64,192,67635,128,0,67755:0:0:0:0:
320,192,67755,1,2,0:0:0:0:
192,192,67755,128,0,67875:0:0:0:0:
448,192,67875,128,0,67995:0:0:0:0:
192,192,67995,1,8,0:0:0:0:
64,192,67995,1,0,0:0:0:0:
320,192,67995,128,0,68115:0:0:0:0:
448,192,68115,128,0,68235:0:0:0:0:
192,192,68235,1,2,0:0:0:0:
64,192,68235,1,0,0:0:0:0:
320,192,68355,1,2,0:0:0:0:
448,192,68355,1,0,0:0:0:0:
192,192,68475,1,2,0:0:0:0:
64,192,68475,1,0,0:0:0:0:
320,192,68595,1,2,0:0:0:0:
448,192,68595,1,0,0:0:0:0:
64,192,68715,1,0,0:0:0:0:
192,192,68715,1,2,0:0:0:0:
320,192,68775,1,2,0:0:0:0:
448,192,68775,1,0,0:0:0:0:
192,192,68835,1,2,0:0:0:0:
64,192,68835,1,0,0:0:0:0:
320,192,68895,1,2,0:0:0:0:
448,192,68895,1,0,0:0:0:0:
192,192,68955,1,2,0:0:0:0:
64,192,68955,1,0,0:0:0:0:
320,192,69075,1,0,0:0:0:0:
64,192,69195,128,0,69435:0:0:0:0:
192,192,69195,128,12,69315:0:0:0:0:
448,192,69195,128,0,69435:0:0:0:0:
320,192,69675,1,0,0:0:0:0:
320,192,69755,1,0,0:0:0:0:
64,192,69835,1,0,0:0:0:0:
64,192,69915,1,0,0:0:0:0:
448,192,69995,1,0,0:0:0:0:
448,192,70075,1,0,0:0:0:0:
192,192,70155,1,0,0:0:0:0:
192,192,70235,1,0,0:0:0:0:
320,192,70315,1,0,0:0:0:0:
320,192,70395,1,0,0:0:0:0:
448,192,70475,1,0,0:0:0:0:
448,192,70555,1,0,0:0:0:0:
64,192,70635,1,0,0:0:0:0:
64,192,70715,1,0,0:0:0:0:
192,192,70795,1,0,0:0:0:0:
192,192,70875,1,0,0:0:0:0:
320,192,70955,1,0,0:0:0:0:
320,192,71035,1,0,0:0:0:0:
64,192,71115,1,0,0:0:0:0:
192,192,71145,1,0,0:0:0:0:
320,192,71175,1,0,0:0:0:0:
448,192,71205,1,0,0:0:0:0:
64,192,71235,1,0,0:0:0:0:
192,192,71265,1,0,0:0:0:0:
320,192,71295,1,0,0:0:0:0:
448,192,71325,1,0,0:0:0:0:
64,192,71355,1,0,0:0:0:0:
192,192,71385,1,0,0:0:0:0:
320,192,71415,1,0,0:0:0:0:
448,192,71445,1,0,0:0:0:0:
64,192,71475,1,0,0:0:0:0:
192,192,71505,1,0,0:0:0:0:
320,192,71535,1,0,0:0:0:0:
448,192,71565,1,0,0:0:0:0:
64,192,71595,1,0,0:0:0:0:
192,192,71655,1,0,0:0:0:0:
320,192,71715,1,0,0:0:0:0:
448,192,71715,1,0,0:0:0:0:
64,192,71775,1,0,0:0:0:0:
448,192,71835,1,0,0:0:0:0:
192,192,71895,1,0,0:0:0:0:
320,192,71955,1,0,0:0:0:0:
448,192,71955,1,0,0:0:0:0:
64,192,72015,1,0,0:0:0:0:
192,192,72075,1,0,0:0:0:0:
448,192,72075,1,0,0:0:0:0:
320,192,72135,1,0,0:0:0:0:
64,192,72195,1,0,0:0:0:0:
448,192,72195,1,0,0:0:0:0:
192,192,72255,1,0,0:0:0:0:
448,192,72315,1,0,0:0:0:0:
320,192,72315,1,0,0:0:0:0:
64,192,72375,1,0,0:0:0:0:
192,192,72435,1,0,0:0:0:0:
320,192,72435,1,0,0:0:0:0:
448,192,72495,1,0,0:0:0:0:
192,192,72555,1,0,0:0:0:0:
64,192,72555,1,0,0:0:0:0:
320,192,73035,1,6,0:0:0:0:
448,192,73035,1,0,0:0:0:0:
192,192,73095,1,0,0:0:0:0:
64,192,73095,1,0,0:0:0:0:
320,192,73155,1,0,0:0:0:0:
192,192,73155,1,0,0:0:0:0:
448,192,73215,1,0,0:0:0:0:
64,192,73215,1,0,0:0:0:0:
64,192,73275,1,0,0:0:0:0:
320,192,73275,1,0,0:0:0:0:
192,192,73335,1,0,0:0:0:0:
448,192,73335,1,0,0:0:0:0:
320,192,73395,1,0,0:0:0:0:
448,192,73395,1,0,0:0:0:0:
192,192,73455,1,0,0:0:0:0:
64,192,73455,1,0,0:0:0:0:
448,192,73515,1,0,0:0:0:0:
320,192,73515,1,8,0:0:0:0:
192,192,73515,1,0,0:0:0:0:
64,192,73515,1,0,0:0:0:0:
192,192,73755,1,6,0:0:0:0:
64,192,73755,1,0,0:0:0:0:
448,192,73755,1,0,0:0:0:0:
320,192,73795,1,0,0:0:0:0:
192,192,73835,1,0,0:0:0:0:
64,192,73875,1,0,0:0:0:0:
448,192,73915,1,0,0:0:0:0:
320,192,73955,1,0,0:0:0:0:
192,192,73995,1,0,0:0:0:0:
64,192,74035,1,0,0:0:0:0:
448,192,74075,1,0,0:0:0:0:
320,192,74115,1,0,0:0:0:0:
64,192,74155,1,0,0:0:0:0:
192,192,74195,1,0,0:0:0:0:
320,192,74235,1,2,0:0:0:0:
448,192,74235,1,0,0:0:0:0:
64,192,74275,1,0,0:0:0:0:
192,192,74315,1,0,0:0:0:0:
448,192,74355,1,0,0:0:0:0:
320,192,74395,1,0,0:0:0:0:
64,192,74435,1,0,0:0:0:0:
192,192,74475,1,8,0:0:0:0:
448,192,74475,1,0,0:0:0:0:
320,192,74515,1,0,0:0:0:0:
64,192,74555,1,0,0:0:0:0:
192,192,74595,1,0,0:0:0:0:
448,192,74635,1,0,0:0:0:0:
320,192,74675,1,0,0:0:0:0:
192,192,74715,1,0,0:0:0:0:
64,192,74755,1,0,0:0:0:0:
320,192,74795,1,0,0:0:0:0:
448,192,74835,1,0,0:0:0:0:
192,192,74875,1,0,0:0:0:0:
64,192,74915,1,0,0:0:0:0:
320,192,74955,1,2,0:0:0:0:
448,192,74955,1,0,0:0:0:0:
192,192,74995,1,0,0:0:0:0:
64,192,75035,1,0,0:0:0:0:
320,192,75075,1,0,0:0:0:0:
448,192,75115,1,0,0:0:0:0:
64,192,75155,1,0,0:0:0:0:
192,192,75195,1,0,0:0:0:0:
320,192,75235,1,0,0:0:0:0:
448,192,75275,1,0,0:0:0:0:
192,192,75315,1,0,0:0:0:0:
64,192,75355,1,0,0:0:0:0:
320,192,75395,1,0,0:0:0:0:
448,192,75435,1,0,0:0:0:0:
192,192,75435,1,8,0:0:0:0:
64,192,75475,1,0,0:0:0:0:
320,192,75515,1,0,0:0:0:0:
448,192,75555,1,0,0:0:0:0:
192,192,75595,1,0,0:0:0:0:
64,192,75635,1,0,0:0:0:0:
320,192,75675,1,2,0:0:0:0:
448,192,75675,1,0,0:0:0:0:
192,192,75715,1,0,0:0:0:0:
64,192,75755,1,0,0:0:0:0:
448,192,75795,1,0,0:0:0:0:
320,192,75835,1,0,0:0:0:0:
64,192,75875,1,0,0:0:0:0:
192,192,75915,1,0,0:0:0:0:
320,192,75955,1,0,0:0:0:0:
448,192,75995,1,0,0:0:0:0:
192,192,76035,1,0,0:0:0:0:
64,192,76075,1,0,0:0:0:0:
320,192,76115,1,0,0:0:0:0:
192,192,76155,1,2,0:0:0:0:
448,192,76155,1,0,0:0:0:0:
64,192,76195,1,0,0:0:0:0:
320,192,76235,1,0,0:0:0:0:
448,192,76275,1,0,0:0:0:0:
64,192,76315,1,0,0:0:0:0:
192,192,76355,1,0,0:0:0:0:
320,192,76395,1,8,0:0:0:0:
448,192,76395,1,0,0:0:0:0:
64,192,76435,1,0,0:0:0:0:
192,192,76475,1,0,0:0:0:0:
320,192,76515,1,0,0:0:0:0:
448,192,76555,1,0,0:0:0:0:
192,192,76595,1,0,0:0:0:0:
64,192,76635,1,0,0:0:0:0:
448,192,76675,1,0,0:0:0:0:
320,192,76715,1,0,0:0:0:0:
192,192,76755,1,0,0:0:0:0:
64,192,76795,1,0,0:0:0:0:
320,192,76835,1,0,0:0:0:0:
448,192,76875,1,0,0:0:0:0:
192,192,76875,1,6,0:0:0:0:
64,192,76875,1,0,0:0:0:0:
320,192,76935,1,0,0:0:0:0:
448,192,76935,1,0,0:0:0:0:
192,192,76995,1,0,0:0:0:0:
320,192,76995,1,0,0:0:0:0:
64,192,77055,1,0,0:0:0:0:
448,192,77055,1,0,0:0:0:0:
64,192,77115,1,0,0:0:0:0:
320,192,77115,1,0,0:0:0:0:
192,192,77175,1,0,0:0:0:0:
448,192,77175,1,0,0:0:0:0:
320,192,77235,1,0,0:0:0:0:
448,192,77235,1,0,0:0:0:0:
192,192,77295,1,0,0:0:0:0:
64,192,77295,1,0,0:0:0:0:
320,192,77355,1,8,0:0:0:0:
448,192,77355,1,0,0:0:0:0:
64,192,77355,1,0,0:0:0:0:
320,192,77435,1,0,0:0:0:0:
192,192,77515,1,0,0:0:0:0:
192,192,77595,1,2,0:0:0:0:
64,192,77595,1,0,0:0:0:0:
448,192,77675,1,0,0:0:0:0:
448,192,77755,1,0,0:0:0:0:
64,192,77835,1,0,0:0:0:0:
64,192,77915,1,0,0:0:0:0:
192,192,77995,1,0,0:0:0:0:
192,192,78075,1,0,0:0:0:0:
320,192,78075,1,2,0:0:0:0:
448,192,78155,1,0,0:0:0:0:
448,192,78235,1,0,0:0:0:0:
320,192,78315,1,8,0:0:0:0:
192,192,78315,1,0,0:0:0:0:
64,192,78315,1,0,0:0:0:0:
192,192,78395,1,0,0:0:0:0:
64,192,78475,1,0,0:0:0:0:
64,192,78555,1,0,0:0:0:0:
320,192,78635,1,0,0:0:0:0:
320,192,78715,1,0,0:0:0:0:
64,192,78795,1,0,0:0:0:0:
448,192,78795,1,2,0:0:0:0:
192,192,78825,1,0,0:0:0:0:
320,192,78855,1,0,0:0:0:0:
448,192,78885,1,0,0:0:0:0:
64,192,78915,1,0,0:0:0:0:
192,192,78945,1,0,0:0:0:0:
320,192,78975,1,0,0:0:0:0:
448,192,79005,1,0,0:0:0:0:
64,192,79035,1,0,0:0:0:0:
192,192,79065,1,0,0:0:0:0:
320,192,79095,1,0,0:0:0:0:
448,192,79125,1,0,0:0:0:0:
64,192,79155,1,0,0:0:0:0:
192,192,79185,1,0,0:0:0:0:
320,192,79215,1,0,0:0:0:0:
448,192,79245,1,0,0:0:0:0:
192,192,79275,1,8,0:0:0:0:
64,192,79275,1,0,0:0:0:0:
320,192,79335,1,0,0:0:0:0:
448,192,79395,1,0,0:0:0:0:
64,192,79395,1,0,0:0:0:0:
192,192,79455,1,0,0:0:0:0:
64,192,79515,1,0,0:0:0:0:
320,192,79515,1,2,0:0:0:0:
448,192,79575,1,0,0:0:0:0:
320,192,79635,1,0,0:0:0:0:
192,192,79635,1,0,0:0:0:0:
64,192,79695,1,0,0:0:0:0:
448,192,79755,1,0,0:0:0:0:
320,192,79755,1,0,0:0:0:0:
192,192,79815,1,0,0:0:0:0:
320,192,79875,1,2,0:0:0:0:
64,192,79875,1,0,0:0:0:0:
448,192,79935,1,0,0:0:0:0:
320,192,79995,1,0,0:0:0:0:
192,192,79995,1,0,0:0:0:0:
64,192,80055,1,0,0:0:0:0:
192,192,80115,1,2,0:0:0:0:
448,192,80115,1,0,0:0:0:0:
320,192,80175,1,0,0:0:0:0:
64,192,80235,1,0,0:0:0:0:
448,192,80235,1,0,0:0:0:0:
192,192,80235,1,8,0:0:0:0:
320,192,80295,1,0,0:0:0:0:
448,192,80355,1,2,0:0:0:0:
64,192,80355,128,0,80475:0:0:0:0:
192,192,80415,128,0,80535:0:0:0:0:
320,192,80475,128,0,80595:0:0:0:0:
448,192,80535,128,0,80655:0:0:0:0:
192,192,80715,128,6,80835:0:0:0:0:
64,192,80715,128,0,80835:0:0:0:0:
320,192,80835,128,0,80955:0:0:0:0:
448,192,80835,128,0,80955:0:0:0:0:
192,192,80955,128,0,81075:0:0:0:0:
64,192,80955,128,0,81075:0:0:0:0:
320,192,81075,1,2,0:0:0:0:
448,192,81075,1,0,0:0:0:0:
64,192,81195,1,8,0:0:0:0:
448,192,81195,128,0,81275:0:0:0:0:
320,192,81235,128,0,81315:0:0:0:0:
192,192,81275,128,0,81355:0:0:0:0:
64,192,81315,128,0,81395:0:0:0:0:
320,192,81435,1,2,0:0:0:0:
448,192,81435,1,0,0:0:0:0:
192,192,81675,1,0,0:0:0:0:
64,192,81735,1,0,0:0:0:0:
448,192,81795,1,0,0:0:0:0:
320,192,81855,1,0,0:0:0:0:
64,192,81915,1,0,0:0:0:0:
192,192,81975,1,0,0:0:0:0:
448,192,82035,1,0,0:0:0:0:
320,192,82035,1,2,0:0:0:0:
192,192,82155,1,8,0:0:0:0:
448,192,82155,1,0,0:0:0:0:
64,192,82155,1,0,0:0:0:0:
320,192,82215,1,0,0:0:0:0:
192,192,82275,1,2,0:0:0:0:
64,192,82275,1,0,0:0:0:0:
448,192,82335,1,0,0:0:0:0:
320,192,82395,1,0,0:0:0:0:
192,192,82455,1,0,0:0:0:0:
64,192,82515,1,0,0:0:0:0:
448,192,82515,1,2,0:0:0:0:
320,192,82635,1,2,0:0:0:0:
448,192,82635,1,0,0:0:0:0:
192,192,82695,1,0,0:0:0:0:
64,192,82755,1,0,0:0:0:0:
320,192,82815,1,0,0:0:0:0:
448,192,82875,1,0,0:0:0:0:
64,192,82935,1,0,0:0:0:0:
320,192,82995,1,2,0:0:0:0:
192,192,82995,1,0,0:0:0:0:
64,192,83115,1,0,0:0:0:0:
320,192,83115,1,8,0:0:0:0:
448,192,83115,1,0,0:0:0:0:
192,192,83175,1,0,0:0:0:0:
64,192,83235,1,0,0:0:0:0:
448,192,83295,1,0,0:0:0:0:
320,192,83355,1,2,0:0:0:0:
192,192,83355,1,0,0:0:0:0:
64,192,83415,1,0,0:0:0:0:
448,192,83475,1,0,0:0:0:0:
192,192,83595,1,0,0:0:0:0:
320,192,83655,1,0,0:0:0:0:
64,192,83715,1,0,0:0:0:0:
448,192,83775,1,0,0:0:0:0:
320,192,83835,1,0,0:0:0:0:
192,192,83895,1,0,0:0:0:0:
64,192,83955,1,0,0:0:0:0:
448,192,83955,1,2,0:0:0:0:
192,192,84075,1,8,0:0:0:0:
320,192,84075,128,0,84135:0:0:0:0:
448,192,84075,128,0,84195:0:0:0:0:
64,192,84195,128,0,84315:0:0:0:0:
192,192,84195,128,2,84255:0:0:0:0:
448,192,84315,1,2,0:0:0:0:
320,192,84375,1,2,0:0:0:0:
192,192,84435,1,2,0:0:0:0:
64,192,84495,1,2,0:0:0:0:
192,192,84555,1,0,0:0:0:0:
448,192,84555,1,0,0:0:0:0:
320,192,84555,1,6,0:0:0:0:
64,192,84635,128,0,84715:0:0:0:0:
192,192,84675,128,0,84755:0:0:0:0:
448,192,84715,128,0,84795:0:0:0:0:
320,192,84755,128,0,84795:0:0:0:0:
64,192,84795,128,0,84835:0:0:0:0:
192,192,84835,128,0,84875:0:0:0:0:
320,192,84875,128,0,84915:0:0:0:0:
64,192,84915,1,2,0:0:0:0:
448,192,84915,128,0,84955:0:0:0:0:
192,192,84975,1,0,0:0:0:0:
448,192,85035,128,0,85155:0:0:0:0:
320,192,85095,128,0,85155:0:0:0:0:
64,192,85155,128,0,85275:0:0:0:0:
192,192,85215,128,0,85275:0:0:0:0:
320,192,85275,1,2,0:0:0:0:
448,192,85275,1,0,0:0:0:0:
64,192,85335,1,0,0:0:0:0:
192,192,85395,1,0,0:0:0:0:
320,192,85455,1,0,0:0:0:0:
448,192,85515,1,2,0:0:0:0:
64,192,85515,128,0,85555:0:0:0:0:
192,192,85555,128,0,85595:0:0:0:0:
320,192,85595,128,0,85635:0:0:0:0:
448,192,85635,128,0,85675:0:0:0:0:
64,192,85675,128,0,85715:0:0:0:0:
320,192,85715,128,0,85755:0:0:0:0:
192,192,85755,128,0,85795:0:0:0:0:
448,192,85795,128,0,85835:0:0:0:0:
64,192,85835,1,0,0:0:0:0:
320,192,85875,1,2,0:0:0:0:
192,192,85875,1,0,0:0:0:0:
64,192,85955,128,0,86035:0:0:0:0:
192,192,85995,128,0,86035:0:0:0:0:
448,192,86035,128,0,86115:0:0:0:0:
320,192,86075,128,0,86115:0:0:0:0:
64,192,86115,128,0,86155:0:0:0:0:
192,192,86155,128,0,86195:0:0:0:0:
320,192,86195,128,0,86235:0:0:0:0:
448,192,86235,128,2,86275:0:0:0:0:
64,192,86235,128,0,86275:0:0:0:0:
192,192,86275,128,0,86315:0:0:0:0:
320,192,86315,128,0,86355:0:0:0:0:
448,192,86355,128,0,86395:0:0:0:0:
64,192,86395,1,0,0:0:0:0:
192,192,86435,1,0,0:0:0:0:
320,192,86475,1,2,0:0:0:0:
448,192,86475,1,0,0:0:0:0:
64,192,86535,1,0,0:0:0:0:
192,192,86595,1,0,0:0:0:0:
448,192,86655,1,0,0:0:0:0:
320,192,86715,1,0,0:0:0:0:
192,192,86775,1,0,0:0:0:0:
64,192,86835,1,2,0:0:0:0:
320,192,86835,1,0,0:0:0:0:
192,192,86895,1,0,0:0:0:0:
448,192,86955,128,0,86995:0:0:0:0:
320,192,86995,128,0,87035:0:0:0:0:
192,192,87035,128,0,87075:0:0:0:0:
64,192,87075,128,0,87115:0:0:0:0:
448,192,87115,128,0,87155:0:0:0:0:
320,192,87155,128,0,87195:0:0:0:0:
192,192,87195,128,2,87235:0:0:0:0:
64,192,87195,128,0,87235:0:0:0:0:
448,192,87255,1,0,0:0:0:0:
320,192,87315,1,0,0:0:0:0:
192,192,87375,1,0,0:0:0:0:
448,192,87435,128,0,87495:0:0:0:0:
64,192,87435,128,2,87495:0:0:0:0:
320,192,87495,128,0,87555:0:0:0:0:
192,192,87555,128,0,87615:0:0:0:0:
64,192,87555,128,0,87615:0:0:0:0:
448,192,87615,128,0,87675:0:0:0:0:
320,192,87675,128,0,87735:0:0:0:0:
64,192,87675,128,0,87735:0:0:0:0:
192,192,87735,128,0,87795:0:0:0:0:
320,192,87795,128,2,87855:0:0:0:0:
448,192,87795,128,0,87855:0:0:0:0:
64,192,87855,128,0,87915:0:0:0:0:
192,192,87915,128,0,87975:0:0:0:0:
320,192,87915,128,0,87975:0:0:0:0:
448,192,87975,128,0,88035:0:0:0:0:
64,192,88035,128,0,88095:0:0:0:0:
192,192,88035,128,0,88095:0:0:0:0:
320,192,88095,128,0,88155:0:0:0:0:
192,192,88155,128,2,88215:0:0:0:0:
448,192,88155,128,0,88215:0:0:0:0:
64,192,88215,128,0,88275:0:0:0:0:
320,192,88275,128,0,88335:0:0:0:0:
448,192,88275,128,0,88335:0:0:0:0:
192,192,88335,128,0,88395:0:0:0:0:
448,192,88395,128,0,88435:0:0:0:0:
64,192,88395,128,2,88435:0:0:0:0:
320,192,88435,128,0,88475:0:0:0:0:
192,192,88475,128,0,88515:0:0:0:0:
64,192,88515,128,0,88555:0:0:0:0:
320,192,88575,1,0,0:0:0:0:
448,192,88635,128,0,88675:0:0:0:0:
320,192,88675,128,0,88715:0:0:0:0:
192,192,88715,128,0,88755:0:0:0:0:
448,192,88755,128,2,88795:0:0:0:0:
64,192,88755,128,0,88795:0:0:0:0:
64,192,88875,128,0,88955:0:0:0:0:
192,192,88915,128,0,88995:0:0:0:0:
320,192,88955,128,0,89035:0:0:0:0:
448,192,88995,128,0,89075:0:0:0:0:
192,192,89115,1,2,0:0:0:0:
64,192,89115,1,0,0:0:0:0:
320,192,89235,1,0,0:0:0:0:
448,192,89295,1,0,0:0:0:0:
64,192,89355,1,0,0:0:0:0:
192,192,89415,1,0,0:0:0:0:
448,192,89475,1,0,0:0:0:0:
320,192,89515,1,0,0:0:0:0:
192,192,89555,1,0,0:0:0:0:
64,192,89595,1,0,0:0:0:0:
448,192,89635,1,0,0:0:0:0:
320,192,89675,1,0,0:0:0:0:
192,192,89715,1,2,0:0:0:0:
64,192,89715,1,0,0:0:0:0:
448,192,89775,1,0,0:0:0:0:
64,192,89835,1,0,0:0:0:0:
192,192,89895,1,0,0:0:0:0:
448,192,89955,1,0,0:0:0:0:
320,192,89995,1,0,0:0:0:0:
192,192,90035,1,0,0:0:0:0:
64,192,90075,1,0,0:0:0:0:
448,192,90075,1,2,0:0:0:0:
320,192,90135,1,0,0:0:0:0:
192,192,90195,1,2,0:0:0:0:
64,192,90195,1,0,0:0:0:0:
320,192,90255,1,0,0:0:0:0:
64,192,90315,1,0,0:0:0:0:
448,192,90315,1,2,0:0:0:0:
192,192,90355,1,0,0:0:0:0:
320,192,90395,1,0,0:0:0:0:
448,192,90435,1,0,0:0:0:0:
64,192,90475,1,0,0:0:0:0:
192,192,90515,1,0,0:0:0:0:
448,192,90555,1,0,0:0:0:0:
320,192,90615,1,0,0:0:0:0:
192,192,90675,1,2,0:0:0:0:
448,192,90675,1,0,0:0:0:0:
64,192,90715,1,0,0:0:0:0:
320,192,90755,1,0,0:0:0:0:
192,192,90795,1,0,0:0:0:0:
448,192,90835,1,0,0:0:0:0:
320,192,90875,1,0,0:0:0:0:
64,192,90915,1,0,0:0:0:0:
192,192,90975,1,0,0:0:0:0:
320,192,91035,1,2,0:0:0:0:
448,192,91035,1,0,0:0:0:0:
64,192,91075,1,0,0:0:0:0:
192,192,91115,1,0,0:0:0:0:
448,192,91155,1,0,0:0:0:0:
320,192,91195,1,0,0:0:0:0:
192,192,91235,1,0,0:0:0:0:
64,192,91275,1,2,0:0:0:0:
448,192,91275,1,0,0:0:0:0:
320,192,91315,1,0,0:0:0:0:
192,192,91355,1,0,0:0:0:0:
64,192,91395,1,2,0:0:0:0:
448,192,91395,1,0,0:0:0:0:
320,192,91435,1,0,0:0:0:0:
192,192,91475,1,0,0:0:0:0:
64,192,91515,1,0,0:0:0:0:
320,192,91575,1,0,0:0:0:0:
192,192,91635,1,2,0:0:0:0:
448,192,91635,1,0,0:0:0:0:
64,192,91675,1,0,0:0:0:0:
320,192,91715,1,0,0:0:0:0:
192,192,91755,1,0,0:0:0:0:
448,192,91795,1,0,0:0:0:0:
320,192,91835,1,0,0:0:0:0:
192,192,91875,1,2,0:0:0:0:
64,192,91875,1,0,0:0:0:0:
320,192,91995,1,2,0:0:0:0:
448,192,91995,1,0,0:0:0:0:
192,192,92055,1,2,0:0:0:0:
64,192,92055,1,0,0:0:0:0:
320,192,92115,1,2,0:0:0:0:
448,192,92115,1,0,0:0:0:0:
192,192,92175,1,2,0:0:0:0:
64,192,92175,1,0,0:0:0:0:
320,192,92235,1,6,0:0:0:0:
448,192,92235,1,0,0:0:0:0:
64,192,92235,1,0,0:0:0:0:
192,192,92315,128,0,92355:0:0:0:0:
64,192,92355,128,0,92395:0:0:0:0:
320,192,92395,128,0,92435:0:0:0:0:
448,192,92435,128,0,92475:0:0:0:0:
64,192,92475,128,0,92515:0:0:0:0:
192,192,92515,128,0,92555:0:0:0:0:
448,192,92555,128,0,92595:0:0:0:0:
320,192,92595,128,0,92635:0:0:0:0:
64,192,92655,1,0,0:0:0:0:
320,192,92715,1,2,0:0:0:0:
192,192,92715,1,0,0:0:0:0:
448,192,92715,1,0,0:0:0:0:
64,192,92795,128,0,92835:0:0:0:0:
192,192,92835,128,0,92875:0:0:0:0:
448,192,92875,128,0,92915:0:0:0:0:
320,192,92915,128,0,92955:0:0:0:0:
192,192,92955,128,0,92995:0:0:0:0:
64,192,92995,128,0,93035:0:0:0:0:
320,192,93035,128,0,93075:0:0:0:0:
448,192,93075,128,0,93115:0:0:0:0:
192,192,93135,1,0,0:0:0:0:
64,192,93195,1,0,0:0:0:0:
320,192,93195,1,2,0:0:0:0:
448,192,93195,1,0,0:0:0:0:
192,192,93275,128,0,93315:0:0:0:0:
320,192,93315,128,0,93355:0:0:0:0:
64,192,93355,128,0,93395:0:0:0:0:
448,192,93395,128,0,93435:0:0:0:0:
192,192,93435,128,0,93475:0:0:0:0:
320,192,93475,128,0,93515:0:0:0:0:
64,192,93515,128,0,93555:0:0:0:0:
448,192,93555,128,0,93595:0:0:0:0:
320,192,93615,1,0,0:0:0:0:
192,192,93675,1,2,0:0:0:0:
64,192,93675,1,0,0:0:0:0:
448,192,93675,1,0,0:0:0:0:
320,192,93755,128,0,93795:0:0:0:0:
448,192,93795,128,0,93835:0:0:0:0:
192,192,93835,128,0,93875:0:0:0:0:
64,192,93875,128,0,93915:0:0:0:0:
448,192,93915,128,0,93955:0:0:0:0:
320,192,93955,128,0,93995:0:0:0:0:
64,192,93995,128,0,94035:0:0:0:0:
192,192,94035,128,0,94075:0:0:0:0:
448,192,94095,1,0,0:0:0:0:
320,192,94155,1,0,0:0:0:0:
192,192,94155,1,2,0:0:0:0:
64,192,94155,1,0,0:0:0:0:
448,192,94215,1,0,0:0:0:0:
320,192,94275,1,0,0:0:0:0:
64,192,94335,1,0,0:0:0:0:
192,192,94395,1,0,0:0:0:0:
448,192,94455,1,0,0:0:0:0:
320,192,94515,1,0,0:0:0:0:
64,192,94515,1,0,0:0:0:0:
448,192,94635,1,2,0:0:0:0:
64,192,94635,128,0,94675:0:0:0:0:
192,192,94675,128,0,94715:0:0:0:0:
320,192,94715,128,0,94755:0:0:0:0:
448,192,94755,128,0,94795:0:0:0:0:
64,192,94795,128,0,94835:0:0:0:0:
192,192,94835,128,0,94875:0:0:0:0:
320,192,94875,128,0,94915:0:0:0:0:
448,192,94915,128,0,94955:0:0:0:0:
64,192,94995,1,0,0:0:0:0:
192,192,95055,1,0,0:0:0:0:
448,192,95115,128,0,95175:0:0:0:0:
320,192,95115,128,2,95175:0:0:0:0:
64,192,95115,128,0,95175:0:0:0:0:
192,192,95175,128,0,95235:0:0:0:0:
448,192,95235,128,0,95295:0:0:0:0:
320,192,95235,128,0,95295:0:0:0:0:
64,192,95295,128,0,95355:0:0:0:0:
192,192,95355,128,0,95415:0:0:0:0:
320,192,95355,128,0,95415:0:0:0:0:
448,192,95415,128,0,95475:0:0:0:0:
192,192,95475,128,0,95535:0:0:0:0:
64,192,95475,128,0,95535:0:0:0:0:
320,192,95535,128,0,95595:0:0:0:0:
192,192,95595,128,2,95655:0:0:0:0:
64,192,95595,128,0,95655:0:0:0:0:
448,192,95595,128,0,95655:0:0:0:0:
320,192,95655,128,0,95715:0:0:0:0:
448,192,95715,128,0,95775:0:0:0:0:
64,192,95715,128,0,95775:0:0:0:0:
192,192,95775,128,0,95835:0:0:0:0:
64,192,95835,128,0,95895:0:0:0:0:
320,192,95835,128,0,95895:0:0:0:0:
448,192,95895,128,0,95955:0:0:0:0:
192,192,95955,128,0,96015:0:0:0:0:
64,192,95955,128,0,96015:0:0:0:0:
320,192,96015,128,0,96075:0:0:0:0:
64,192,96075,1,0,0:0:0:0:
448,192,96075,1,2,0:0:0:0:
192,192,96115,1,0,0:0:0:0:
320,192,96155,1,0,0:0:0:0:
448,192,96195,1,0,0:0:0:0:
64,192,96235,1,0,0:0:0:0:
192,192,96275,1,0,0:0:0:0:
448,192,96315,1,0,0:0:0:0:
320,192,96355,1,0,0:0:0:0:
64,192,96395,1,0,0:0:0:0:
192,192,96435,1,0,0:0:0:0:
320,192,96475,1,0,0:0:0:0:
448,192,96515,1,0,0:0:0:0:
64,192,96555,1,0,0:0:0:0:
192,192,96585,1,0,0:0:0:0:
448,192,96615,1,0,0:0:0:0:
320,192,96645,1,0,0:0:0:0:
64,192,96675,1,0,0:0:0:0:
192,192,96705,1,0,0:0:0:0:
448,192,96735,1,0,0:0:0:0:
320,192,96765,1,0,0:0:0:0:
64,192,96795,1,0,0:0:0:0:
192,192,96825,1,0,0:0:0:0:
448,192,96855,1,0,0:0:0:0:
320,192,96885,1,0,0:0:0:0:
64,192,96915,1,0,0:0:0:0:
192,192,96945,1,0,0:0:0:0:
448,192,96975,1,0,0:0:0:0:
320,192,97005,1,0,0:0:0:0:
192,192,97035,1,2,0:0:0:0:
64,192,97035,1,0,0:0:0:0:
448,192,97155,1,0,0:0:0:0:
64,192,97155,1,0,0:0:0:0:
320,192,97275,1,0,0:0:0:0:
448,192,97275,1,0,0:0:0:0:
64,192,97395,1,0,0:0:0:0:
192,192,97395,1,0,0:0:0:0:
448,192,97515,128,0,97755:0:0:0:0:
320,192,97575,128,0,97815:0:0:0:0:
192,192,97635,128,0,97875:0:0:0:0:
64,192,97695,128,0,97935:0:0:0:0:
320,192,97995,1,2,0:0:0:0:
448,192,97995,1,0,0:0:0:0:
192,192,98055,1,2,0:0:0:0:
64,192,98055,1,0,0:0:0:0:
320,192,98115,1,2,0:0:0:0:
448,192,98115,1,0,0:0:0:0:
192,192,98175,1,2,0:0:0:0:
64,192,98175,1,0,0:0:0:0:
320,192,98235,1,2,0:0:0:0:
448,192,98235,1,0,0:0:0:0:
64,192,98295,1,0,0:0:0:0:
192,192,98355,1,0,0:0:0:0:
320,192,98415,1,0,0:0:0:0:
64,192,98475,1,0,0:0:0:0:
448,192,98475,1,2,0:0:0:0:
320,192,98535,1,2,0:0:0:0:
192,192,98535,1,0,0:0:0:0:
64,192,98595,1,0,0:0:0:0:
448,192,98595,1,2,0:0:0:0:
320,192,98655,1,2,0:0:0:0:
192,192,98655,1,0,0:0:0:0:
448,192,98715,1,2,0:0:0:0:
64,192,98715,1,0,0:0:0:0:
192,192,98775,1,0,0:0:0:0:
320,192,98835,1,0,0:0:0:0:
448,192,98895,1,0,0:0:0:0:
192,192,98955,1,2,0:0:0:0:
64,192,98955,1,0,0:0:0:0:
320,192,99015,1,0,0:0:0:0:
448,192,99075,1,2,0:0:0:0:
64,192,99075,1,0,0:0:0:0:
192,192,99135,1,0,0:0:0:0:
64,192,99195,1,0,0:0:0:0:
320,192,99195,1,2,0:0:0:0:
448,192,99255,1,0,0:0:0:0:
192,192,99315,1,0,0:0:0:0:
320,192,99315,1,2,0:0:0:0:
64,192,99375,1,0,0:0:0:0:
448,192,99435,1,0,0:0:0:0:
320,192,99435,1,2,0:0:0:0:
64,192,99495,1,0,0:0:0:0:
192,192,99495,1,2,0:0:0:0:
448,192,99555,1,0,0:0:0:0:
320,192,99555,1,2,0:0:0:0:
192,192,99615,1,2,0:0:0:0:
64,192,99615,1,0,0:0:0:0:
320,192,99675,1,2,0:0:0:0:
448,192,99675,1,0,0:0:0:0:
192,192,99795,1,0,0:0:0:0:
192,192,99915,1,0,0:0:0:0:
64,192,99915,128,0,103755:0:0:0:0:
320,192,99915,1,4,0:0:0:0:
448,192,99915,128,0,100875:0:0:0:0:
192,192,100875,128,0,101355:0:0:0:0:
448,192,101355,128,0,101835:0:0:0:0:
320,192,101835,128,0,102315:0:0:0:0:
192,192,102315,128,0,102795:0:0:0:0:
448,192,102795,128,0,103275:0:0:0:0:
192,192,103275,128,0,103755:0:0:0:0:
448,192,103755,128,0,105675:0:0:0:0:
320,192,103755,128,0,104715:0:0:0:0:
192,192,104715,128,0,105675:0:0:0:0:
64,192,105675,128,0,107595:0:0:0:0:
320,192,105675,128,0,106635:0:0:0:0:
192,192,106635,128,0,107595:0:0:0:0:
448,192,107595,128,0,111435:0:0:0:0:
320,192,107595,128,0,108555:0:0:0:0:
192,192,108555,128,0,109515:0:0:0:0:
64,192,109515,128,0,110475:0:0:0:0:
320,192,110475,128,0,111435:0:0:0:0:
64,192,111435,128,0,115275:0:0:0:0:
192,192,111435,128,0,113355:0:0:0:0:
320,192,113355,128,0,114315:0:0:0:0:
448,192,114315,128,0,115275:0:0:0:0:
320,192,115275,1,2,0:0:0:0:
192,192,115275,1,0,0:0:0:0:
64,192,115395,1,0,0:0:0:0:
448,192,115515,1,0,0:0:0:0:
320,192,115515,1,2,0:0:0:0:
192,192,115635,1,0,0:0:0:0:
64,192,115755,1,0,0:0:0:0:
448,192,115875,1,0,0:0:0:0:
320,192,115995,1,0,0:0:0:0:
64,192,116115,1,0,0:0:0:0:
192,192,116235,1,2,0:0:0:0:
320,192,116235,1,0,0:0:0:0:
448,192,116355,1,0,0:0:0:0:
320,192,116475,1,2,0:0:0:0:
64,192,116475,1,0,0:0:0:0:
192,192,116595,1,0,0:0:0:0:
448,192,116715,1,0,0:0:0:0:
320,192,116835,1,0,0:0:0:0:
64,192,116955,1,0,0:0:0:0:
192,192,117075,1,0,0:0:0:0:
448,192,117195,1,2,0:0:0:0:
320,192,117195,128,0,117315:0:0:0:0:
192,192,117315,128,0,117435:0:0:0:0:
64,192,117435,1,2,0:0:0:0:
448,192,117435,128,0,117555:0:0:0:0:
320,192,117555,128,0,117675:0:0:0:0:
64,192,117675,128,0,117795:0:0:0:0:
192,192,117795,128,0,117915:0:0:0:0:
448,192,117915,128,0,118035:0:0:0:0:
64,192,118035,128,0,118155:0:0:0:0:
448,192,118155,1,2,0:0:0:0:
320,192,118155,128,0,118275:0:0:0:0:
192,192,118275,128,0,118395:0:0:0:0:
320,192,118395,1,2,0:0:0:0:
64,192,118395,128,0,118515:0:0:0:0:
448,192,118515,128,0,118635:0:0:0:0:
192,192,118635,128,0,118755:0:0:0:0:
320,192,118755,128,0,118875:0:0:0:0:
64,192,118875,128,0,118995:0:0:0:0:
192,192,118995,128,0,119115:0:0:0:0:
320,192,119115,1,2,0:0:0:0:
448,192,119115,128,0,119235:0:0:0:0:
64,192,119235,128,0,119355:0:0:0:0:
192,192,119355,1,2,0:0:0:0:
320,192,119355,128,0,119475:0:0:0:0:
448,192,119475,128,0,119595:0:0:0:0:
64,192,119595,128,0,119715:0:0:0:0:
320,192,119715,128,0,119835:0:0:0:0:
448,192,119835,128,0,119955:0:0:0:0:
64,192,119955,128,0,120075:0:0:0:0:
320,192,120075,1,2,0:0:0:0:
192,192,120075,128,0,120195:0:0:0:0:
448,192,120195,128,0,120315:0:0:0:0:
64,192,120315,1,2,0:0:0:0:
320,192,120315,128,0,120435:0:0:0:0:
192,192,120435,128,0,120555:0:0:0:0:
448,192,120555,128,0,120675:0:0:0:0:
320,192,120675,128,0,120795:0:0:0:0:
192,192,120795,128,0,120915:0:0:0:0:
64,192,120915,128,0,121035:0:0:0:0:
448,192,121035,1,2,0:0:0:0:
320,192,121035,128,0,121155:0:0:0:0:
192,192,121155,128,0,121275:0:0:0:0:
448,192,121275,1,2,0:0:0:0:
64,192,121275,128,0,121395:0:0:0:0:
192,192,121395,128,0,121515:0:0:0:0:
320,192,121515,128,0,121635:0:0:0:0:
448,192,121635,128,0,121755:0:0:0:0:
64,192,121755,128,0,121875:0:0:0:0:
320,192,121875,128,0,121995:0:0:0:0:
64,192,121995,1,2,0:0:0:0:
192,192,121995,128,0,122115:0:0:0:0:
448,192,122115,128,0,122235:0:0:0:0:
320,192,122235,128,0,122355:0:0:0:0:
64,192,122235,1,2,0:0:0:0:
192,192,122355,128,0,122475:0:0:0:0:
64,192,122475,1,0,0:0:0:0:
448,192,122535,1,0,0:0:0:0:
64,192,122595,1,0,0:0:0:0:
320,192,122655,1,0,0:0:0:0:
192,192,122715,1,0,0:0:0:0:
320,192,122775,1,0,0:0:0:0:
64,192,122835,1,0,0:0:0:0:
192,192,122895,1,0,0:0:0:0:
448,192,122955,1,2,0:0:0:0:
320,192,122955,128,0,123075:0:0:0:0:
64,192,123075,128,0,123195:0:0:0:0:
448,192,123195,1,2,0:0:0:0:
192,192,123195,128,0,123315:0:0:0:0:
448,192,123315,1,2,0:0:0:0:
320,192,123315,128,0,123435:0:0:0:0:
192,192,123435,1,2,0:0:0:0:
64,192,123435,128,0,123555:0:0:0:0:
448,192,123555,128,0,123675:0:0:0:0:
64,192,123675,1,2,0:0:0:0:
320,192,123675,128,0,123795:0:0:0:0:
192,192,123795,128,0,123915:0:0:0:0:
448,192,123915,1,2,0:0:0:0:
64,192,123915,128,0,124035:0:0:0:0:
320,192,124035,128,0,124155:0:0:0:0:
64,192,124155,1,2,0:0:0:0:
192,192,124155,128,0,124275:0:0:0:0:
448,192,124275,128,0,124395:0:0:0:0:
320,192,124395,128,0,124515:0:0:0:0:
64,192,124515,128,0,124635:0:0:0:0:
192,192,124635,128,0,124755:0:0:0:0:
320,192,124755,128,0,124875:0:0:0:0:
448,192,124875,1,2,0:0:0:0:
64,192,124875,128,0,124995:0:0:0:0:
192,192,124995,128,0,125115:0:0:0:0:
320,192,125115,1,2,0:0:0:0:
448,192,125115,128,0,125235:0:0:0:0:
192,192,125235,1,2,0:0:0:0:
64,192,125235,128,0,125355:0:0:0:0:
320,192,125355,1,2,0:0:0:0:
192,192,125355,128,0,125475:0:0:0:0:
64,192,125475,128,0,125595:0:0:0:0:
320,192,125595,1,2,0:0:0:0:
448,192,125595,128,0,125715:0:0:0:0:
192,192,125715,128,0,125835:0:0:0:0:
64,192,125835,1,2,0:0:0:0:
320,192,125835,128,0,125955:0:0:0:0:
448,192,125955,128,0,126075:0:0:0:0:
64,192,126075,1,2,0:0:0:0:
192,192,126075,128,0,126195:0:0:0:0:
320,192,126195,128,0,126315:0:0:0:0:
448,192,126315,128,0,126435:0:0:0:0:
64,192,126435,128,0,126555:0:0:0:0:
192,192,126555,128,0,126675:0:0:0:0:
320,192,126675,128,0,126795:0:0:0:0:
448,192,126795,1,2,0:0:0:0:
64,192,126795,1,0,0:0:0:0:
448,192,126915,1,0,0:0:0:0:
64,192,127035,1,0,0:0:0:0:
320,192,127035,1,2,0:0:0:0:
192,192,127155,1,2,0:0:0:0:
64,192,127155,1,0,0:0:0:0:
320,192,127275,1,0,0:0:0:0:
192,192,127275,1,2,0:0:0:0:
320,192,127395,1,0,0:0:0:0:
448,192,127515,1,2,0:0:0:0:
64,192,127515,1,0,0:0:0:0:
64,192,127635,1,0,0:0:0:0:
320,192,127755,1,2,0:0:0:0:
448,192,127755,1,0,0:0:0:0:
448,192,127875,1,0,0:0:0:0:
64,192,127995,1,0,0:0:0:0:
192,192,127995,1,2,0:0:0:0:
192,192,128115,1,0,0:0:0:0:
320,192,128235,1,0,0:0:0:0:
320,192,128355,1,0,0:0:0:0:
64,192,128475,1,0,0:0:0:0:
64,192,128595,1,0,0:0:0:0:
320,192,128715,1,2,0:0:0:0:
448,192,128715,1,0,0:0:0:0:
448,192,128835,1,0,0:0:0:0:
320,192,128955,1,0,0:0:0:0:
192,192,128955,1,2,0:0:0:0:
192,192,129075,1,2,0:0:0:0:
64,192,129075,1,0,0:0:0:0:
64,192,129195,1,0,0:0:0:0:
448,192,129195,1,2,0:0:0:0:
448,192,129315,1,0,0:0:0:0:
192,192,129435,1,2,0:0:0:0:
64,192,129435,1,0,0:0:0:0:
192,192,129555,1,0,0:0:0:0:
320,192,129675,1,2,0:0:0:0:
448,192,129675,128,0,129795:0:0:0:0:
64,192,129795,128,0,129915:0:0:0:0:
320,192,129915,1,2,0:0:0:0:
192,192,129915,128,0,130035:0:0:0:0:
448,192,130035,128,0,130155:0:0:0:0:
64,192,130155,128,0,130275:0:0:0:0:
192,192,130275,128,0,130395:0:0:0:0:
448,192,130395,1,0,0:0:0:0:
64,192,130455,1,0,0:0:0:0:
448,192,130515,1,0,0:0:0:0:
64,192,130575,1,0,0:0:0:0:
192,192,130635,1,0,0:0:0:0:
320,192,130635,1,4,0:0:0:0:
448,192,130635,1,0,0:0:0:0:
192,192,130875,1,0,0:0:0:0:
64,192,130875,1,0,0:0:0:0:
448,192,131115,1,0,0:0:0:0:
64,192,131115,1,0,0:0:0:0:
320,192,131355,1,0,0:0:0:0:
448,192,131355,1,0,0:0:0:0:
64,192,131595,1,0,0:0:0:0:
320,192,131595,1,0,0:0:0:0:
192,192,131835,1,0,0:0:0:0:
64,192,131835,1,0,0:0:0:0:
448,192,132075,1,0,0:0:0:0:
320,192,132075,1,0,0:0:0:0:
192,192,132315,1,0,0:0:0:0:
320,192,132315,1,0,0:0:0:0:
192,192,132555,1,8,0:0:0:0:
448,192,132555,1,0,0:0:0:0:
64,192,132555,128,0,132675:0:0:0:0:
320,192,132675,128,0,132795:0:0:0:0:
448,192,132795,1,0,0:0:0:0:
192,192,132795,128,0,132915:0:0:0:0:
64,192,132915,128,0,133035:0:0:0:0:
192,192,133035,1,0,0:0:0:0:
320,192,133035,128,0,133155:0:0:0:0:
448,192,133155,128,0,133275:0:0:0:0:
64,192,133275,1,0,0:0:0:0:
192,192,133275,1,8,0:0:0:0:
320,192,133275,128,0,133395:0:0:0:0:
448,192,133395,128,0,133515:0:0:0:0:
64,192,133515,1,0,0:0:0:0:
192,192,133515,128,0,133635:0:0:0:0:
320,192,133635,128,0,133755:0:0:0:0:
448,192,133755,1,8,0:0:0:0:
64,192,133755,1,0,0:0:0:0:
192,192,133755,128,0,133875:0:0:0:0:
320,192,133875,128,0,133995:0:0:0:0:
64,192,133995,128,0,134115:0:0:0:0:
448,192,133995,1,0,0:0:0:0:
320,192,134115,1,2,0:0:0:0:
192,192,134115,128,0,134235:0:0:0:0:
448,192,134235,128,0,134355:0:0:0:0:
64,192,134235,1,0,0:0:0:0:
320,192,134355,1,2,0:0:0:0:
192,192,134355,128,0,134475:0:0:0:0:
320,192,134475,1,8,0:0:0:0:
448,192,134475,128,0,134595:0:0:0:0:
64,192,134475,1,0,0:0:0:0:
192,192,134595,128,0,134715:0:0:0:0:
64,192,134715,1,0,0:0:0:0:
320,192,134715,128,0,134835:0:0:0:0:
448,192,134835,128,0,134955:0:0:0:0:
192,192,134955,1,0,0:0:0:0:
64,192,134955,128,0,135075:0:0:0:0:
320,192,135075,128,0,135195:0:0:0:0:
448,192,135195,1,8,0:0:0:0:
64,192,135195,1,0,0:0:0:0:
192,192,135195,128,0,135315:0:0:0:0:
320,192,135315,128,0,135435:0:0:0:0:
448,192,135435,1,0,0:0:0:0:
64,192,135435,128,0,135555:0:0:0:0:
192,192,135555,128,0,135675:0:0:0:0:
320,192,135675,1,8,0:0:0:0:
64,192,135675,1,0,0:0:0:0:
448,192,135675,128,0,135795:0:0:0:0:
192,192,135795,128,0,135915:0:0:0:0:
448,192,135915,1,0,0:0:0:0:
320,192,135915,128,0,136035:0:0:0:0:
64,192,136035,128,0,136155:0:0:0:0:
320,192,136155,1,0,0:0:0:0:
192,192,136155,128,0,136275:0:0:0:0:
448,192,136275,128,0,136395:0:0:0:0:
192,192,136395,1,8,0:0:0:0:
64,192,136395,1,0,0:0:0:0:
320,192,136395,128,0,136515:0:0:0:0:
448,192,136515,128,0,136635:0:0:0:0:
64,192,136635,1,0,0:0:0:0:
320,192,136635,128,0,136755:0:0:0:0:
192,192,136755,128,0,136875:0:0:0:0:
448,192,136875,1,0,0:0:0:0:
320,192,136875,128,0,136995:0:0:0:0:
64,192,136995,128,0,137115:0:0:0:0:
320,192,137115,1,8,0:0:0:0:
448,192,137115,1,0,0:0:0:0:
192,192,137115,128,0,137235:0:0:0:0:
64,192,137235,128,0,137355:0:0:0:0:
320,192,137355,1,0,0:0:0:0:
448,192,137355,128,0,137475:0:0:0:0:
192,192,137475,128,0,137595:0:0:0:0:
64,192,137595,1,0,0:0:0:0:
320,192,137595,128,0,137715:0:0:0:0:
448,192,137595,1,8,0:0:0:0:
448,192,137715,128,0,137835:0:0:0:0:
192,192,137835,1,0,0:0:0:0:
64,192,137835,1,0,0:0:0:0:
320,192,137895,1,0,0:0:0:0:
448,192,137955,1,2,0:0:0:0:
64,192,137955,1,0,0:0:0:0:
192,192,138015,1,0,0:0:0:0:
64,192,138075,1,0,0:0:0:0:
320,192,138075,1,0,0:0:0:0:
448,192,138135,1,0,0:0:0:0:
64,192,138195,1,2,0:0:0:0:
192,192,138195,1,0,0:0:0:0:
192,192,138315,1,8,0:0:0:0:
320,192,138315,1,0,0:0:0:0:
448,192,138315,128,0,138435:0:0:0:0:
64,192,138435,128,0,138555:0:0:0:0:
320,192,138555,1,2,0:0:0:0:
192,192,138555,128,0,138675:0:0:0:0:
320,192,138675,1,2,0:0:0:0:
448,192,138675,128,0,138795:0:0:0:0:
64,192,138795,1,2,0:0:0:0:
192,192,138795,128,0,138915:0:0:0:0:
320,192,138915,128,0,139035:0:0:0:0:
64,192,139035,1,8,0:0:0:0:
448,192,139035,1,0,0:0:0:0:
192,192,139035,128,0,139155:0:0:0:0:
320,192,139155,128,0,139275:0:0:0:0:
64,192,139275,1,2,0:0:0:0:
448,192,139275,128,0,139395:0:0:0:0:
64,192,139395,1,2,0:0:0:0:
192,192,139395,128,0,139515:0:0:0:0:
448,192,139515,1,2,0:0:0:0:
320,192,139515,128,0,139635:0:0:0:0:
64,192,139635,128,0,139755:0:0:0:0:
192,192,139755,1,8,0:0:0:0:
448,192,139755,1,0,0:0:0:0:
320,192,139755,128,0,139875:0:0:0:0:
64,192,139875,128,0,139995:0:0:0:0:
448,192,139995,1,2,0:0:0:0:
192,192,139995,128,0,140115:0:0:0:0:
320,192,140115,1,2,0:0:0:0:
448,192,140115,128,0,140235:0:0:0:0:
192,192,140235,1,8,0:0:0:0:
64,192,140235,1,0,0:0:0:0:
320,192,140235,128,0,140355:0:0:0:0:
448,192,140355,128,0,140475:0:0:0:0:
192,192,140475,1,2,0:0:0:0:
64,192,140475,128,0,140595:0:0:0:0:
320,192,140595,1,2,0:0:0:0:
448,192,140595,128,0,140715:0:0:0:0:
192,192,140715,1,2,0:0:0:0:
320,192,140715,128,0,140835:0:0:0:0:
64,192,140835,128,0,140955:0:0:0:0:
320,192,140955,1,0,0:0:0:0:
192,192,140955,1,8,0:0:0:0:
448,192,140955,128,0,141075:0:0:0:0:
64,192,141075,128,0,141195:0:0:0:0:
320,192,141195,1,2,0:0:0:0:
192,192,141195,128,0,141315:0:0:0:0:
448,192,141315,1,2,0:0:0:0:
320,192,141315,128,0,141435:0:0:0:0:
448,192,141435,1,2,0:0:0:0:
64,192,141435,128,0,141555:0:0:0:0:
192,192,141555,128,0,141675:0:0:0:0:
320,192,141675,1,8,0:0:0:0:
64,192,141675,1,0,0:0:0:0:
448,192,141675,128,0,141795:0:0:0:0:
192,192,141795,128,0,141915:0:0:0:0:
64,192,141915,1,2,0:0:0:0:
320,192,141915,128,0,142035:0:0:0:0:
448,192,142035,1,2,0:0:0:0:
192,192,142035,128,0,142155:0:0:0:0:
64,192,142155,1,0,0:0:0:0:
320,192,142155,1,8,0:0:0:0:
448,192,142155,1,0,0:0:0:0:
64,192,142275,1,0,0:0:0:0:
320,192,142395,1,0,0:0:0:0:
192,192,142395,1,2,0:0:0:0:
320,192,142515,1,2,0:0:0:0:
448,192,142515,1,0,0:0:0:0:
64,192,142635,1,2,0:0:0:0:
448,192,142635,1,0,0:0:0:0:
64,192,142755,1,0,0:0:0:0:
192,192,142875,1,8,0:0:0:0:
320,192,142875,1,0,0:0:0:0:
448,192,142875,1,0,0:0:0:0:
320,192,142995,1,0,0:0:0:0:
192,192,143115,1,2,0:0:0:0:
64,192,143115,1,0,0:0:0:0:
192,192,143235,1,0,0:0:0:0:
320,192,143235,1,2,0:0:0:0:
320,192,143355,1,2,0:0:0:0:
448,192,143355,1,0,0:0:0:0:
448,192,143475,1,0,0:0:0:0:
320,192,143595,1,8,0:0:0:0:
192,192,143595,1,0,0:0:0:0:
64,192,143595,1,0,0:0:0:0:
192,192,143715,1,0,0:0:0:0:
448,192,143835,1,0,0:0:0:0:
320,192,143835,1,2,0:0:0:0:
64,192,143955,1,2,0:0:0:0:
448,192,143955,1,0,0:0:0:0:
192,192,144075,1,8,0:0:0:0:
64,192,144075,1,0,0:0:0:0:
320,192,144075,1,0,0:0:0:0:
320,192,144195,1,0,0:0:0:0:
192,192,144315,1,2,0:0:0:0:
64,192,144315,1,0,0:0:0:0:
64,192,144435,1,0,0:0:0:0:
448,192,144435,1,2,0:0:0:0:
320,192,144555,1,0,0:0:0:0:
448,192,144555,1,2,0:0:0:0:
320,192,144675,1,0,0:0:0:0:
192,192,144795,1,8,0:0:0:0:
64,192,144795,1,0,0:0:0:0:
448,192,144795,1,0,0:0:0:0:
192,192,144915,1,0,0:0:0:0:
448,192,145035,1,0,0:0:0:0:
320,192,145035,1,0,0:0:0:0:
192,192,145095,1,0,0:0:0:0:
64,192,145155,1,0,0:0:0:0:
448,192,145155,1,0,0:0:0:0:
320,192,145215,1,0,0:0:0:0:
192,192,145215,1,0,0:0:0:0:
64,192,145275,1,0,0:0:0:0:
320,192,145335,1,0,0:0:0:0:
448,192,145335,1,0,0:0:0:0:
64,192,145395,1,0,0:0:0:0:
192,192,145395,1,0,0:0:0:0:
320,192,145455,1,0,0:0:0:0:
448,192,145515,1,0,0:0:0:0:
64,192,145515,1,0,0:0:0:0:
192,192,145575,1,0,0:0:0:0:
320,192,145635,1,0,0:0:0:0:
448,192,145695,1,0,0:0:0:0:
64,192,145695,1,0,0:0:0:0:
320,192,145755,1,0,0:0:0:0:
192,192,145795,1,0,0:0:0:0:
64,192,145835,1,0,0:0:0:0:
320,192,145875,1,0,0:0:0:0:
448,192,145875,1,0,0:0:0:0:
192,192,145915,1,0,0:0:0:0:
64,192,145955,1,0,0:0:0:0:
192,192,145995,1,0,0:0:0:0:
320,192,145995,1,12,0:0:0:0:
448,192,145995,128,0,146115:0:0:0:0:
64,192,146115,128,0,146235:0:0:0:0:
320,192,146235,128,0,146355:0:0:0:0:
192,192,146355,1,2,0:0:0:0:
64,192,146355,128,0,146475:0:0:0:0:
320,192,146475,1,2,0:0:0:0:
448,192,146475,128,0,146595:0:0:0:0:
192,192,146595,128,0,146715:0:0:0:0:
320,192,146715,1,8,0:0:0:0:
448,192,146715,1,0,0:0:0:0:
64,192,146715,128,0,146835:0:0:0:0:
192,192,146835,128,0,146955:0:0:0:0:
448,192,146955,128,0,147075:0:0:0:0:
192,192,147075,1,2,0:0:0:0:
320,192,147075,128,0,147195:0:0:0:0:
64,192,147195,1,2,0:0:0:0:
192,192,147195,128,0,147315:0:0:0:0:
320,192,147315,128,0,147435:0:0:0:0:
448,192,147435,1,0,0:0:0:0:
192,192,147435,1,8,0:0:0:0:
64,192,147435,128,0,147555:0:0:0:0:
320,192,147555,128,0,147675:0:0:0:0:
192,192,147675,128,0,147795:0:0:0:0:
448,192,147795,128,0,147915:0:0:0:0:
64,192,147915,1,0,0:0:0:0:
192,192,147915,1,0,0:0:0:0:
320,192,147915,1,8,0:0:0:0:
448,192,148035,1,0,0:0:0:0:
192,192,148155,1,0,0:0:0:0:
320,192,148155,1,0,0:0:0:80:snare-dirty.mp3
192,192,148275,1,2,0:0:0:0:
64,192,148275,1,0,0:0:0:0:
448,192,148275,1,0,0:0:0:0:
320,192,148395,1,0,0:0:0:0:
64,192,148515,1,0,0:0:0:0:
192,192,148515,1,0,0:0:0:80:snare-dirty.mp3
320,192,148635,1,2,0:0:0:0:
448,192,148635,1,0,0:0:0:0:
64,192,148635,1,0,0:0:0:0:
192,192,148755,1,0,0:0:0:80:snare-dirty.mp3
64,192,148755,1,0,0:0:0:0:
192,192,148875,1,0,0:0:0:0:
320,192,148875,1,2,0:0:0:0:
448,192,148875,1,0,0:0:0:0:
64,192,148995,1,0,0:0:0:0:
320,192,149115,1,0,0:0:0:80:snare-dirty.mp3
192,192,149115,1,0,0:0:0:0:
64,192,149235,1,0,0:0:0:0:
192,192,149235,1,2,0:0:0:0:
448,192,149235,1,0,0:0:0:0:
320,192,149355,1,0,0:0:0:0:
64,192,149475,1,0,0:0:0:0:
448,192,149475,1,0,0:0:0:80:snare-dirty.mp3
192,192,149595,1,0,0:0:0:80:snare-dirty.mp3
64,192,149595,1,0,0:0:0:0:
448,192,149655,1,0,0:0:0:0:
320,192,149655,1,0,0:0:0:80:snare-dirty.mp3
192,192,149715,1,0,0:0:0:80:snare-dirty.mp3
64,192,149715,1,0,0:0:0:0:
320,192,149775,1,0,0:0:0:80:snare-dirty.mp3
448,192,149775,1,0,0:0:0:0:
192,192,149835,1,12,0:0:0:0:
448,192,149835,128,0,149955:0:0:0:0:
64,192,149835,128,0,149955:0:0:0:0:
320,192,149955,128,0,150075:0:0:0:0:
192,192,150075,128,0,150195:0:0:0:0:
64,192,150075,128,0,150195:0:0:0:0:
320,192,150195,1,2,0:0:0:0:
448,192,150195,128,0,150315:0:0:0:0:
192,192,150315,128,0,150435:0:0:0:0:
320,192,150315,128,2,150435:0:0:0:0:
64,192,150435,128,0,150555:0:0:0:0:
192,192,150555,1,8,0:0:0:0:
320,192,150555,128,0,150675:0:0:0:0:
448,192,150555,128,0,150675:0:0:0:0:
192,192,150675,128,0,150795:0:0:0:0:
320,192,150795,128,2,150915:0:0:0:0:
64,192,150795,128,0,150915:0:0:0:0:
448,192,150915,1,2,0:0:0:0:
192,192,150915,128,0,151035:0:0:0:0:
320,192,151035,128,2,151155:0:0:0:0:
448,192,151035,128,0,151155:0:0:0:0:
64,192,151155,128,0,151275:0:0:0:0:
320,192,151275,1,8,0:0:0:0:
192,192,151275,128,0,151395:0:0:0:0:
448,192,151275,128,0,151395:0:0:0:0:
64,192,151395,128,0,151515:0:0:0:0:
192,192,151515,128,2,151635:0:0:0:0:
320,192,151515,128,0,151635:0:0:0:0:
64,192,151635,1,2,0:0:0:0:
448,192,151635,128,0,151755:0:0:0:0:
320,192,151755,1,0,0:0:0:0:
192,192,151755,1,8,0:0:0:0:
64,192,151755,1,0,0:0:0:0:
448,192,151875,1,0,0:0:0:0:
320,192,151995,1,0,0:0:0:80:snare-dirty.mp3
192,192,151995,1,0,0:0:0:0:
448,192,152115,1,0,0:0:0:0:
192,192,152115,1,2,0:0:0:0:
64,192,152115,1,0,0:0:0:0:
320,192,152235,1,0,0:0:0:0:
192,192,152355,1,0,0:0:0:80:snare-dirty.mp3
64,192,152355,1,0,0:0:0:0:
192,192,152475,1,0,0:0:0:0:
320,192,152475,1,2,0:0:0:0:
448,192,152475,1,0,0:0:0:0:
64,192,152595,1,0,0:0:0:0:
448,192,152595,1,0,0:0:0:80:snare-dirty.mp3
64,192,152715,1,0,0:0:0:0:
192,192,152715,1,0,0:0:0:0:
320,192,152715,1,2,0:0:0:0:
448,192,152835,1,0,0:0:0:0:
192,192,152955,1,0,0:0:0:80:snare-dirty.mp3
64,192,152955,1,0,0:0:0:0:
64,192,153075,1,0,0:0:0:0:
320,192,153075,1,2,0:0:0:0:
448,192,153075,1,0,0:0:0:0:
192,192,153195,1,0,0:0:0:80:snare-dirty.mp3
64,192,153195,1,0,0:0:0:0:
320,192,153255,1,0,0:0:0:80:snare-dirty.mp3
448,192,153255,1,0,0:0:0:0:
192,192,153315,1,0,0:0:0:80:snare-dirty.mp3
64,192,153315,1,0,0:0:0:0:
320,192,153375,1,0,0:0:0:80:snare-dirty.mp3
448,192,153375,1,0,0:0:0:0:
64,192,153435,1,0,0:0:0:0:
192,192,153435,1,0,0:0:0:80:snare-dirty.mp3
448,192,153495,1,0,0:0:0:0:
320,192,153495,1,0,0:0:0:80:snare-dirty.mp3
64,192,153555,1,0,0:0:0:0:
192,192,153555,1,0,0:0:0:80:snare-dirty.mp3
448,192,153615,1,0,0:0:0:0:
320,192,153615,1,0,0:0:0:80:snare-dirty.mp3
64,192,153675,1,0,0:0:0:0:
192,192,153675,1,6,0:0:0:0:
448,192,153675,1,0,0:0:0:0:
320,192,153735,1,0,0:0:0:0:
192,192,153795,1,0,0:0:0:0:
64,192,153855,1,0,0:0:0:0:
320,192,153915,1,0,0:0:0:0:
448,192,153975,1,0,0:0:0:0:
64,192,154035,1,0,0:0:0:0:
192,192,154035,1,2,0:0:0:0:
320,192,154095,1,0,0:0:0:0:
448,192,154155,1,0,0:0:0:0:
192,192,154215,1,0,0:0:0:0:
64,192,154275,1,0,0:0:0:0:
320,192,154335,1,0,0:0:0:0:
448,192,154395,1,0,0:0:0:0:
192,192,154395,1,2,0:0:0:0:
64,192,154455,1,0,0:0:0:0:
448,192,154515,1,0,0:0:0:0:
320,192,154575,1,0,0:0:0:0:
192,192,154635,1,2,0:0:0:0:
64,192,154635,1,0,0:0:0:0:
448,192,154695,1,0,0:0:0:0:
320,192,154755,1,0,0:0:0:0:
64,192,154815,1,0,0:0:0:0:
192,192,154875,1,0,0:0:0:0:
320,192,154935,1,0,0:0:0:0:
448,192,154995,1,2,0:0:0:0:
64,192,154995,1,0,0:0:0:0:
192,192,155055,1,0,0:0:0:0:
448,192,155115,1,0,0:0:0:0:
320,192,155175,1,0,0:0:0:0:
192,192,155235,1,0,0:0:0:0:
64,192,155295,1,0,0:0:0:0:
448,192,155355,1,0,0:0:0:0:
192,192,155355,1,2,0:0:0:0:
320,192,155415,1,0,0:0:0:0:
192,192,155475,1,2,0:0:0:0:
64,192,155475,1,0,0:0:0:0:
448,192,155535,1,0,0:0:0:0:
320,192,155595,1,2,0:0:0:0:
64,192,155595,1,0,0:0:0:0:
192,192,155655,1,0,0:0:0:0:
64,192,155715,1,0,0:0:0:0:
448,192,155775,1,0,0:0:0:0:
320,192,155835,1,0,0:0:0:0:
64,192,155895,1,0,0:0:0:0:
192,192,155955,1,2,0:0:0:0:
448,192,155955,1,0,0:0:0:0:
320,192,156015,1,0,0:0:0:0:
448,192,156075,1,0,0:0:0:0:
64,192,156135,1,0,0:0:0:0:
192,192,156195,1,0,0:0:0:0:
320,192,156255,1,0,0:0:0:0:
448,192,156315,1,2,0:0:0:0:
64,192,156315,1,0,0:0:0:0:
192,192,156375,1,0,0:0:0:0:
448,192,156435,1,0,0:0:0:0:
320,192,156495,1,0,0:0:0:0:
192,192,156555,1,2,0:0:0:0:
64,192,156555,1,0,0:0:0:0:
448,192,156615,1,0,0:0:0:0:
320,192,156675,1,2,0:0:0:0:
64,192,156675,1,0,0:0:0:0:
192,192,156735,1,0,0:0:0:0:
64,192,156795,1,0,0:0:0:0:
448,192,156795,1,2,0:0:0:0:
320,192,156855,1,0,0:0:0:0:
192,192,156915,1,2,0:0:0:0:
64,192,156915,1,0,0:0:0:0:
448,192,156975,1,0,0:0:0:0:
320,192,157035,1,0,0:0:0:0:
192,192,157035,1,2,0:0:0:0:
64,192,157095,1,0,0:0:0:0:
448,192,157155,1,0,0:0:0:0:
192,192,157215,1,2,0:0:0:0:
64,192,157215,1,0,0:0:0:0:
320,192,157275,1,2,0:0:0:0:
448,192,157275,1,0,0:0:0:0:
192,192,157335,1,2,0:0:0:0:
64,192,157335,1,0,0:0:0:0:
320,192,157395,1,2,0:0:0:0:
448,192,157395,1,0,0:0:0:0:
192,192,157455,1,2,0:0:0:0:
64,192,157455,1,0,0:0:0:0:
320,192,157515,1,6,0:0:0:0:
448,192,157515,1,0,0:0:0:0:
64,192,157555,1,0,0:0:0:0:
192,192,157595,1,0,0:0:0:0:
320,192,157635,1,0,0:0:0:0:
448,192,157675,1,0,0:0:0:0:
64,192,157715,1,0,0:0:0:0:
192,192,157755,1,2,0:0:0:0:
320,192,157755,1,0,0:0:0:0:
448,192,157795,1,0,0:0:0:0:
64,192,157835,1,0,0:0:0:0:
192,192,157875,1,0,0:0:0:0:
448,192,157915,1,0,0:0:0:0:
320,192,157955,1,0,0:0:0:0:
192,192,157995,1,2,0:0:0:0:
64,192,157995,1,0,0:0:0:0:
448,192,158035,1,0,0:0:0:0:
320,192,158075,1,0,0:0:0:0:
192,192,158115,1,0,0:0:0:0:
64,192,158155,1,0,0:0:0:0:
448,192,158195,1,0,0:0:0:0:
320,192,158235,1,2,0:0:0:0:
192,192,158235,1,0,0:0:0:0:
64,192,158275,1,0,0:0:0:0:
448,192,158315,1,0,0:0:0:0:
320,192,158355,1,0,0:0:0:0:
64,192,158395,1,0,0:0:0:0:
192,192,158435,1,0,0:0:0:0:
320,192,158475,1,2,0:0:0:0:
448,192,158475,1,0,0:0:0:0:
64,192,158515,1,0,0:0:0:0:
192,192,158555,1,0,0:0:0:0:
320,192,158595,1,0,0:0:0:0:
448,192,158635,1,0,0:0:0:0:
64,192,158675,1,0,0:0:0:0:
192,192,158715,1,0,0:0:0:0:
320,192,158715,1,2,0:0:0:0:
448,192,158755,1,0,0:0:0:0:
64,192,158795,1,0,0:0:0:0:
192,192,158835,1,0,0:0:0:0:
448,192,158875,1,0,0:0:0:0:
320,192,158915,1,0,0:0:0:0:
192,192,158955,1,2,0:0:0:0:
64,192,158955,1,0,0:0:0:0:
448,192,158995,1,0,0:0:0:0:
320,192,159035,1,0,0:0:0:0:
192,192,159075,1,0,0:0:0:0:
64,192,159115,1,0,0:0:0:0:
320,192,159155,1,0,0:0:0:0:
448,192,159195,1,0,0:0:0:0:
64,192,159195,1,2,0:0:0:0:
320,192,159255,1,0,0:0:0:0:
192,192,159255,1,2,0:0:0:0:
64,192,159315,1,2,0:0:0:0:
448,192,159315,1,0,0:0:0:0:
320,192,159375,1,0,0:0:0:0:
192,192,159375,1,2,0:0:0:0:
64,192,159435,1,2,0:0:0:0:
448,192,159435,1,0,0:0:0:0:
192,192,159475,1,0,0:0:0:0:
320,192,159515,1,0,0:0:0:0:
64,192,159555,1,2,0:0:0:0:
448,192,159555,1,0,0:0:0:0:
192,192,159595,1,0,0:0:0:0:
320,192,159635,1,0,0:0:0:0:
64,192,159675,1,2,0:0:0:0:
448,192,159675,1,0,0:0:0:0:
192,192,159715,1,0,0:0:0:0:
320,192,159755,1,0,0:0:0:0:
64,192,159795,1,2,0:0:0:0:
448,192,159795,1,0,0:0:0:0:
192,192,159835,1,0,0:0:0:0:
320,192,159875,1,0,0:0:0:0:
64,192,159915,1,2,0:0:0:0:
448,192,159915,1,0,0:0:0:0:
192,192,159955,1,0,0:0:0:0:
320,192,159995,1,0,0:0:0:0:
448,192,160035,1,0,0:0:0:0:
64,192,160035,1,2,0:0:0:0:
192,192,160075,1,0,0:0:0:0:
320,192,160115,1,0,0:0:0:0:
64,192,160155,1,2,0:0:0:0:
448,192,160155,1,0,0:0:0:0:
192,192,160195,1,0,0:0:0:0:
320,192,160235,1,0,0:0:0:0:
448,192,160275,1,0,0:0:0:0:
64,192,160275,1,2,0:0:0:0:
192,192,160315,1,0,0:0:0:0:
320,192,160355,1,0,0:0:0:0:
64,192,160395,1,2,0:0:0:0:
448,192,160395,1,0,0:0:0:0:
192,192,160515,1,0,0:0:0:0:
192,192,160635,1,0,0:0:0:0:
192,192,160755,1,0,0:0:0:0:
448,192,160875,128,0,161055:0:0:0:0:
320,192,160935,128,0,161115:0:0:0:0:
192,192,160995,128,0,161175:0:0:0:0:
64,192,161055,128,0,161235:0:0:0:0:
64,192,161355,1,0,0:0:0:0:
192,192,161355,1,6,0:0:0:0:
448,192,161355,1,0,0:0:0:0:
320,192,161475,1,2,0:0:0:0:
64,192,161475,1,0,0:0:0:0:
192,192,161595,1,10,0:0:0:0:
320,192,161595,128,0,161835:0:0:0:0:
448,192,161595,128,0,161715:0:0:0:0:
192,192,161715,1,0,0:0:0:0:
64,192,161835,128,2,161955:0:0:0:0:
448,192,161835,128,0,162075:0:0:0:0:
192,192,161955,1,0,0:0:0:0:
64,192,162075,1,10,0:0:0:0:
192,192,162075,128,0,162315:0:0:0:0:
320,192,162075,128,0,162195:0:0:0:0:
64,192,162195,1,0,0:0:0:0:
320,192,162315,128,0,162555:0:0:0:0:
448,192,162315,128,2,162435:0:0:0:0:
64,192,162435,1,0,0:0:0:0:
448,192,162555,1,10,0:0:0:0:
64,192,162555,128,0,162795:0:0:0:0:
192,192,162555,128,0,162675:0:0:0:0:
448,192,162675,1,0,0:0:0:0:
192,192,162795,128,0,163035:0:0:0:0:
320,192,162795,128,2,162915:0:0:0:0:
64,192,162915,1,0,0:0:0:0:
64,192,163035,1,10,0:0:0:0:
320,192,163035,128,0,163275:0:0:0:0:
448,192,163035,128,0,163155:0:0:0:0:
192,192,163155,1,0,0:0:0:0:
64,192,163275,128,2,163395:0:0:0:0:
448,192,163275,128,0,163515:0:0:0:0:
192,192,163395,1,0,0:0:0:0:
320,192,163515,1,10,0:0:0:0:
192,192,163515,128,0,163635:0:0:0:0:
64,192,163515,128,0,163755:0:0:0:0:
320,192,163635,1,0,0:0:0:0:
320,192,163755,128,0,163995:0:0:0:0:
448,192,163755,128,2,163875:0:0:0:0:
64,192,163875,1,0,0:0:0:0:
448,192,163995,1,10,0:0:0:0:
64,192,163995,128,0,164235:0:0:0:0:
192,192,163995,128,0,164115:0:0:0:0:
448,192,164115,1,0,0:0:0:0:
192,192,164235,128,0,164475:0:0:0:0:
320,192,164235,128,2,164355:0:0:0:0:
64,192,164355,1,0,0:0:0:0:
320,192,164475,1,10,0:0:0:0:
448,192,164475,128,0,164715:0:0:0:0:
64,192,164475,128,0,164595:0:0:0:0:
320,192,164595,1,0,0:0:0:0:
192,192,164715,128,0,164955:0:0:0:0:
64,192,164715,128,2,164835:0:0:0:0:
448,192,164835,1,0,0:0:0:0:
320,192,164955,1,10,0:0:0:0:
448,192,164955,128,0,165075:0:0:0:0:
64,192,164955,128,0,165075:0:0:0:0:
320,192,165075,1,0,0:0:0:0:
192,192,165195,1,2,0:0:0:0:
64,192,165195,1,0,0:0:0:0:
320,192,165255,1,2,0:0:0:0:
448,192,165255,1,0,0:0:0:0:
64,192,165315,1,0,0:0:0:0:
320,192,165375,1,2,0:0:0:0:
448,192,165375,1,0,0:0:0:0:
192,192,165435,128,0,165675:0:0:0:0:
64,192,165435,128,10,165555:0:0:0:0:
320,192,165555,1,0,0:0:0:0:
64,192,165675,128,0,165915:0:0:0:0:
448,192,165675,128,2,165795:0:0:0:0:
192,192,165795,1,0,0:0:0:0:
448,192,165915,1,10,0:0:0:0:
320,192,165915,128,0,166155:0:0:0:0:
192,192,165915,128,0,166035:0:0:0:0:
448,192,166035,1,0,0:0:0:0:
192,192,166155,128,0,166395:0:0:0:0:
64,192,166155,128,2,166275:0:0:0:0:
320,192,166275,1,0,0:0:0:0:
64,192,166395,1,10,0:0:0:0:
320,192,166395,128,0,166515:0:0:0:0:
448,192,166395,128,0,166635:0:0:0:0:
64,192,166515,1,0,0:0:0:0:
320,192,166635,128,0,166875:0:0:0:0:
192,192,166635,128,2,166755:0:0:0:0:
64,192,166755,1,0,0:0:0:0:
192,192,166875,1,10,0:0:0:0:
64,192,166875,128,0,167115:0:0:0:0:
448,192,166875,128,0,166995:0:0:0:0:
192,192,166995,1,0,0:0:0:0:
448,192,167115,128,0,167355:0:0:0:0:
320,192,167115,128,2,167235:0:0:0:0:
64,192,167235,1,0,0:0:0:0:
320,192,167355,1,10,0:0:0:0:
192,192,167355,128,0,167595:0:0:0:0:
64,192,167355,128,0,167475:0:0:0:0:
320,192,167475,1,0,0:0:0:0:
448,192,167595,128,0,167835:0:0:0:0:
64,192,167595,128,2,167715:0:0:0:0:
320,192,167715,1,0,0:0:0:0:
64,192,167835,1,10,0:0:0:0:
192,192,167835,128,0,168075:0:0:0:0:
320,192,167835,128,0,167955:0:0:0:0:
64,192,167955,1,0,0:0:0:0:
320,192,168075,128,0,168315:0:0:0:0:
448,192,168075,128,2,168195:0:0:0:0:
64,192,168195,1,0,0:0:0:0:
448,192,168315,1,10,0:0:0:0:
64,192,168315,128,0,168555:0:0:0:0:
192,192,168315,128,0,168435:0:0:0:0:
448,192,168435,128,0,168555:0:0:0:0:
320,192,168555,128,0,168795:0:0:0:0:
192,192,168555,128,2,168675:0:0:0:0:
448,192,168675,128,0,168795:0:0:0:0:
64,192,168795,128,0,168915:0:0:0:0:
192,192,168795,128,10,168915:0:0:0:0:
320,192,168915,128,0,169035:0:0:0:0:
192,192,169035,1,6,0:0:0:0:
448,192,169035,1,0,0:0:0:0:
64,192,169035,1,0,0:0:0:0:
448,192,169155,1,0,0:0:0:0:
192,192,169275,1,0,0:0:0:0:
64,192,169275,1,0,0:0:0:0:
320,192,169275,1,10,0:0:0:0:
192,192,169395,1,0,0:0:0:0:
64,192,169515,1,0,0:0:0:0:
320,192,169515,1,2,0:0:0:0:
448,192,169515,1,0,0:0:0:0:
320,192,169635,1,0,0:0:0:0:
192,192,169755,1,10,0:0:0:0:
64,192,169755,1,0,0:0:0:0:
448,192,169755,1,0,0:0:0:0:
192,192,169875,1,0,0:0:0:0:
64,192,169995,1,0,0:0:0:0:
320,192,169995,1,2,0:0:0:0:
448,192,169995,1,0,0:0:0:0:
448,192,170115,1,0,0:0:0:0:
320,192,170235,1,10,0:0:0:0:
192,192,170235,1,0,0:0:0:0:
64,192,170235,1,0,0:0:0:0:
64,192,170355,1,0,0:0:0:0:
192,192,170475,1,2,0:0:0:0:
320,192,170475,1,0,0:0:0:0:
448,192,170475,1,0,0:0:0:0:
320,192,170595,1,0,0:0:0:0:
192,192,170715,1,10,0:0:0:0:
64,192,170715,1,0,0:0:0:0:
448,192,170715,1,0,0:0:0:0:
448,192,170835,1,0,0:0:0:0:
320,192,170955,1,2,0:0:0:0:
192,192,170955,1,0,0:0:0:0:
64,192,170955,1,0,0:0:0:0:
64,192,171075,1,0,0:0:0:0:
192,192,171195,1,10,0:0:0:0:
448,192,171195,1,0,0:0:0:0:
320,192,171195,1,0,0:0:0:0:
320,192,171315,1,0,0:0:0:0:
192,192,171435,1,2,0:0:0:0:
64,192,171435,1,0,0:0:0:0:
448,192,171435,1,0,0:0:0:0:
192,192,171555,1,0,0:0:0:0:
64,192,171675,1,0,0:0:0:0:
320,192,171675,1,10,0:0:0:0:
448,192,171675,1,0,0:0:0:0:
448,192,171795,1,0,0:0:0:0:
320,192,171915,1,2,0:0:0:0:
192,192,171915,1,0,0:0:0:0:
64,192,171915,1,0,0:0:0:0:
64,192,172035,1,0,0:0:0:0:
192,192,172155,1,0,0:0:0:0:
320,192,172155,1,10,0:0:0:0:
448,192,172155,1,0,0:0:0:0:
192,192,172275,1,0,0:0:0:0:
448,192,172395,1,0,0:0:0:0:
64,192,172395,1,0,0:0:0:0:
320,192,172395,1,2,0:0:0:0:
448,192,172515,1,0,0:0:0:0:
320,192,172635,1,0,0:0:0:0:
192,192,172635,1,10,0:0:0:0:
64,192,172635,1,0,0:0:0:0:
320,192,172755,1,0,0:0:0:0:
192,192,172875,1,2,0:0:0:0:
64,192,172875,1,0,0:0:0:0:
448,192,172875,1,0,0:0:0:0:
64,192,172995,1,0,0:0:0:0:
192,192,173115,1,10,0:0:0:0:
320,192,173115,1,0,0:0:0:0:
448,192,173115,1,0,0:0:0:0:
320,192,173235,1,0,0:0:0:0:
192,192,173355,1,2,0:0:0:0:
64,192,173355,1,0,0:0:0:0:
448,192,173355,1,0,0:0:0:0:
192,192,173475,1,0,0:0:0:0:
64,192,173595,1,0,0:0:0:0:
320,192,173595,1,10,0:0:0:0:
448,192,173595,1,0,0:0:0:0:
448,192,173715,1,0,0:0:0:0:
320,192,173835,1,2,0:0:0:0:
192,192,173835,1,0,0:0:0:0:
64,192,173835,1,0,0:0:0:0:
64,192,173955,1,0,0:0:0:0:
320,192,174075,1,10,0:0:0:0:
448,192,174075,1,0,0:0:0:0:
192,192,174075,1,0,0:0:0:0:
320,192,174195,1,0,0:0:0:0:
192,192,174315,1,2,0:0:0:0:
64,192,174315,1,0,0:0:0:0:
448,192,174315,1,0,0:0:0:0:
448,192,174435,1,0,0:0:0:0:
320,192,174555,1,10,0:0:0:0:
192,192,174555,1,0,0:0:0:0:
64,192,174555,1,0,0:0:0:0:
192,192,174675,1,0,0:0:0:0:
64,192,174795,1,0,0:0:0:0:
320,192,174795,1,2,0:0:0:0:
448,192,174795,1,0,0:0:0:0:
320,192,174915,1,0,0:0:0:0:
192,192,175035,1,10,0:0:0:0:
64,192,175035,1,0,0:0:0:0:
448,192,175035,1,0,0:0:0:0:
64,192,175155,1,0,0:0:0:0:
192,192,175275,1,2,0:0:0:0:
320,192,175275,1,0,0:0:0:0:
448,192,175275,1,0,0:0:0:0:
448,192,175395,1,0,0:0:0:0:
320,192,175515,1,0,0:0:0:0:
192,192,175515,1,10,0:0:0:0:
64,192,175515,1,0,0:0:0:0:
320,192,175635,1,0,0:0:0:0:
192,192,175755,1,2,0:0:0:0:
64,192,175755,1,0,0:0:0:0:
448,192,175755,1,0,0:0:0:0:
192,192,175875,1,0,0:0:0:0:
64,192,175995,1,0,0:0:0:0:
320,192,175995,1,10,0:0:0:0:
448,192,175995,1,0,0:0:0:0:
64,192,176115,1,0,0:0:0:0:
192,192,176235,1,0,0:0:0:0:
320,192,176235,1,2,0:0:0:0:
448,192,176235,1,0,0:0:0:0:
192,192,176355,1,0,0:0:0:0:
320,192,176475,1,10,0:0:0:0:
64,192,176475,1,0,0:0:0:0:
448,192,176475,1,0,0:0:0:0:
448,192,176595,1,0,0:0:0:0:
320,192,176715,1,6,0:0:0:0:
64,192,176715,1,0,0:0:0:0:
192,192,176715,1,0,0:0:0:0:
448,192,176775,1,0,0:0:0:0:
192,192,176835,1,0,0:0:0:0:
64,192,176835,1,0,0:0:0:0:
320,192,176895,1,0,0:0:0:0:
192,192,176955,1,10,0:0:0:0:
64,192,176955,1,0,0:0:0:0:
448,192,176955,1,0,0:0:0:0:
320,192,177015,1,0,0:0:0:0:
64,192,177075,1,0,0:0:0:0:
448,192,177075,1,0,0:0:0:0:
192,192,177135,1,0,0:0:0:0:
64,192,177195,1,0,0:0:0:0:
320,192,177195,1,2,0:0:0:0:
448,192,177195,1,0,0:0:0:0:
192,192,177255,1,0,0:0:0:0:
64,192,177315,1,0,0:0:0:0:
448,192,177315,1,0,0:0:0:0:
320,192,177375,1,0,0:0:0:0:
192,192,177435,1,10,0:0:0:0:
64,192,177435,1,0,0:0:0:0:
448,192,177435,1,0,0:0:0:0:
320,192,177495,1,0,0:0:0:0:
192,192,177555,1,0,0:0:0:0:
64,192,177555,1,0,0:0:0:0:
448,192,177615,1,0,0:0:0:0:
320,192,177675,1,2,0:0:0:0:
192,192,177675,1,0,0:0:0:0:
64,192,177675,1,0,0:0:0:0:
448,192,177735,1,0,0:0:0:0:
320,192,177795,1,0,0:0:0:0:
192,192,177795,1,0,0:0:0:0:
64,192,177855,1,0,0:0:0:0:
192,192,177915,1,0,0:0:0:0:
320,192,177915,1,10,0:0:0:0:
448,192,177915,1,0,0:0:0:0:
64,192,177975,1,0,0:0:0:0:
448,192,178035,1,0,0:0:0:0:
320,192,178035,1,0,0:0:0:0:
192,192,178095,1,0,0:0:0:0:
320,192,178155,1,2,0:0:0:0:
64,192,178155,1,0,0:0:0:0:
448,192,178155,1,0,0:0:0:0:
192,192,178215,1,0,0:0:0:0:
64,192,178275,1,0,0:0:0:0:
448,192,178275,1,0,0:0:0:0:
320,192,178335,1,0,0:0:0:0:
192,192,178395,1,10,0:0:0:0:
64,192,178395,1,0,0:0:0:0:
448,192,178395,1,0,0:0:0:0:
320,192,178455,1,0,0:0:0:0:
64,192,178515,1,0,0:0:0:0:
448,192,178515,1,0,0:0:0:0:
192,192,178575,1,0,0:0:0:0:
64,192,178635,1,0,0:0:0:0:
448,192,178635,1,0,0:0:0:0:
320,192,178635,1,2,0:0:0:0:
192,192,178695,1,0,0:0:0:0:
320,192,178755,1,0,0:0:0:0:
448,192,178755,1,0,0:0:0:0:
64,192,178815,1,0,0:0:0:0:
192,192,178875,1,0,0:0:0:0:
320,192,178875,1,10,0:0:0:0:
448,192,178875,1,0,0:0:0:0:
64,192,178935,1,0,0:0:0:0:
192,192,178995,1,0,0:0:0:0:
320,192,178995,1,0,0:0:0:0:
448,192,179055,1,0,0:0:0:0:
320,192,179115,1,2,0:0:0:0:
192,192,179115,1,0,0:0:0:0:
64,192,179115,1,0,0:0:0:0:
448,192,179175,1,0,0:0:0:0:
192,192,179235,1,0,0:0:0:0:
64,192,179235,1,0,0:0:0:0:
320,192,179295,1,0,0:0:0:0:
192,192,179355,1,10,0:0:0:0:
64,192,179355,1,0,0:0:0:0:
448,192,179355,1,0,0:0:0:0:
320,192,179415,1,0,0:0:0:0:
64,192,179475,1,0,0:0:0:0:
448,192,179475,1,0,0:0:0:0:
192,192,179535,1,0,0:0:0:0:
64,192,179595,1,0,0:0:0:0:
320,192,179595,1,2,0:0:0:0:
448,192,179595,1,0,0:0:0:0:
192,192,179655,1,0,0:0:0:0:
64,192,179715,1,0,0:0:0:0:
448,192,179715,1,0,0:0:0:0:
320,192,179775,1,0,0:0:0:0:
192,192,179835,1,10,0:0:0:0:
64,192,179835,1,0,0:0:0:0:
448,192,179835,1,0,0:0:0:0:
320,192,179895,1,0,0:0:0:0:
192,192,179955,1,0,0:0:0:0:
64,192,179955,1,0,0:0:0:0:
448,192,180015,1,0,0:0:0:0:
320,192,180075,1,2,0:0:0:0:
192,192,180075,1,0,0:0:0:0:
64,192,180075,1,0,0:0:0:0:
448,192,180135,1,0,0:0:0:0:
320,192,180195,1,0,0:0:0:0:
192,192,180195,1,0,0:0:0:0:
64,192,180255,1,0,0:0:0:0:
192,192,180315,1,0,0:0:0:0:
448,192,180315,1,0,0:0:0:0:
320,192,180315,1,10,0:0:0:0:
64,192,180375,1,0,0:0:0:0:
320,192,180435,1,0,0:0:0:0:
448,192,180435,1,0,0:0:0:0:
192,192,180495,1,0,0:0:0:0:
64,192,180555,1,0,0:0:0:0:
448,192,180555,1,0,0:0:0:0:
320,192,180555,1,2,0:0:0:0:
192,192,180615,1,0,0:0:0:0:
448,192,180675,1,0,0:0:0:0:
64,192,180675,1,0,0:0:0:0:
320,192,180735,1,0,0:0:0:0:
448,192,180795,1,0,0:0:0:0:
192,192,180795,1,2,0:0:0:0:
64,192,180795,1,0,0:0:0:0:
320,192,180855,1,0,0:0:0:0:
192,192,180915,1,0,0:0:0:0:
64,192,180915,1,0,0:0:0:0:
448,192,180975,1,0,0:0:0:0:
320,192,181035,1,0,0:0:0:0:
192,192,181035,1,2,0:0:0:0:
64,192,181035,1,0,0:0:0:0:
448,192,181095,1,0,0:0:0:0:
320,192,181155,1,0,0:0:0:0:
64,192,181155,1,2,0:0:0:0:
192,192,181215,1,0,0:0:0:0:
64,192,181275,1,0,0:0:0:0:
448,192,181275,1,0,0:0:0:0:
320,192,181275,1,2,0:0:0:0:
192,192,181335,1,0,0:0:0:0:
320,192,181395,1,0,0:0:0:0:
448,192,181395,1,0,0:0:0:0:
64,192,181455,1,0,0:0:0:0:
192,192,181515,1,0,0:0:0:0:
448,192,181515,1,0,0:0:0:0:
320,192,181515,1,2,0:0:0:0:
64,192,181575,1,0,0:0:0:0:
192,192,181635,1,0,0:0:0:0:
448,192,181635,1,0,0:0:0:0:
320,192,181695,1,0,0:0:0:0:
192,192,181755,1,2,0:0:0:0:
64,192,181755,1,0,0:0:0:0:
448,192,181755,1,0,0:0:0:0:
320,192,181815,1,0,0:0:0:0:
192,192,181875,1,2,0:0:0:0:
64,192,181875,1,0,0:0:0:0:
448,192,181935,1,0,0:0:0:0:
320,192,181995,1,2,0:0:0:0:
192,192,181995,1,0,0:0:0:0:
64,192,181995,1,0,0:0:0:0:
448,192,182055,1,0,0:0:0:0:
320,192,182115,1,0,0:0:0:0:
64,192,182115,1,0,0:0:0:0:
192,192,182175,1,0,0:0:0:0:
448,192,182235,1,0,0:0:0:0:
320,192,182235,1,2,0:0:0:0:
64,192,182235,1,0,0:0:0:0:
192,192,182295,1,0,0:0:0:0:
64,192,182355,1,0,0:0:0:0:
448,192,182355,1,0,0:0:0:0:
320,192,182415,1,0,0:0:0:0:
64,192,182475,1,0,0:0:0:0:
192,192,182475,1,2,0:0:0:0:
448,192,182475,1,0,0:0:0:0:
320,192,182535,1,0,0:0:0:0:
192,192,182595,1,0,0:0:0:0:
64,192,182655,1,0,0:0:0:0:
192,192,182715,1,0,0:0:0:0:
320,192,182775,1,0,0:0:0:0:
192,192,182835,1,0,0:0:0:0:
64,192,182895,1,0,0:0:0:0:
192,192,182955,1,0,0:0:0:0:
320,192,183015,1,0,0:0:0:0:
448,192,183075,1,0,0:0:0:0:
320,192,183135,1,0,0:0:0:0:
192,192,183195,1,0,0:0:0:0:
64,192,183255,1,0,0:0:0:0:
192,192,183315,1,0,0:0:0:0:
320,192,183375,1,0,0:0:0:0:
448,192,183435,1,0,0:0:0:0:
64,192,183555,1,0,0:0:0:0:
192,192,183555,1,0,0:0:0:0:
192,192,183675,1,0,0:0:0:0:
320,192,183675,1,0,0:0:0:0:
320,192,183795,1,0,0:0:0:0:
448,192,183795,1,0,0:0:0:0:
64,192,183915,1,0,0:0:0:0:
448,192,183915,1,0,0:0:0:0:
320,192,183975,1,0,0:0:0:0:
192,192,184035,1,0,0:0:0:0:
64,192,184035,1,0,0:0:0:0:
448,192,184095,1,0,0:0:0:0:
320,192,184155,1,0,0:0:0:0:
192,192,184155,1,0,0:0:0:0:
64,192,184215,1,0,0:0:0:0:
320,192,184275,1,0,0:0:0:0:
448,192,184275,1,0,0:0:0:0:
192,192,184335,1,0,0:0:0:0:
64,192,184395,1,0,0:0:0:0:
320,192,184395,1,6,0:0:0:0:
448,192,184395,1,0,0:0:0:0:
448,192,184515,1,0,0:0:0:0:
192,192,184515,1,0,0:0:0:0:
320,192,184635,1,10,0:0:0:0:
192,192,184635,1,0,0:0:0:0:
64,192,184635,128,0,184695:0:0:0:0:
448,192,184695,128,0,184755:0:0:0:0:
192,192,184755,1,0,0:0:0:0:
320,192,184755,128,0,184815:0:0:0:0:
64,192,184815,128,0,184875:0:0:0:0:
192,192,184875,128,0,184935:0:0:0:0:
448,192,184875,1,2,0:0:0:0:
320,192,184935,128,0,184995:0:0:0:0:
448,192,184995,128,0,185055:0:0:0:0:
64,192,184995,128,0,185055:0:0:0:0:
192,192,185055,128,0,185115:0:0:0:0:
320,192,185115,1,10,0:0:0:0:
448,192,185115,1,0,0:0:0:0:
64,192,185115,1,0,0:0:0:0:
192,192,185235,1,0,0:0:0:0:
320,192,185235,1,0,0:0:0:0:
448,192,185355,1,0,0:0:0:0:
64,192,185355,1,0,0:0:0:0:
192,192,185355,1,2,0:0:0:0:
320,192,185475,1,0,0:0:0:0:
448,192,185475,1,0,0:0:0:0:
64,192,185595,1,0,0:0:0:0:
320,192,185595,1,10,0:0:0:0:
192,192,185595,128,0,185655:0:0:0:0:
448,192,185655,128,0,185715:0:0:0:0:
320,192,185715,1,0,0:0:0:0:
64,192,185715,128,0,185775:0:0:0:0:
192,192,185775,128,0,185835:0:0:0:0:
448,192,185835,1,2,0:0:0:0:
320,192,185835,128,0,185895:0:0:0:0:
192,192,185895,128,0,185955:0:0:0:0:
448,192,185955,1,0,0:0:0:0:
64,192,185955,128,0,186015:0:0:0:0:
320,192,186015,128,0,186075:0:0:0:0:
192,192,186075,1,10,0:0:0:0:
448,192,186075,1,0,0:0:0:0:
64,192,186075,1,0,0:0:0:0:
320,192,186195,1,0,0:0:0:0:
64,192,186195,1,0,0:0:0:0:
192,192,186255,1,0,0:0:0:0:
448,192,186315,1,0,0:0:0:0:
320,192,186315,1,2,0:0:0:0:
64,192,186315,1,0,0:0:0:0:
192,192,186435,1,0,0:0:0:0:
64,192,186435,1,0,0:0:0:0:
320,192,186555,1,10,0:0:0:0:
448,192,186555,1,0,0:0:0:0:
192,192,186555,128,0,186615:0:0:0:0:
64,192,186615,128,0,186675:0:0:0:0:
320,192,186675,1,0,0:0:0:0:
448,192,186675,128,0,186735:0:0:0:0:
192,192,186735,128,0,186795:0:0:0:0:
64,192,186795,1,2,0:0:0:0:
320,192,186795,128,0,186855:0:0:0:0:
448,192,186855,128,0,186915:0:0:0:0:
192,192,186915,1,0,0:0:0:0:
64,192,186915,128,0,186975:0:0:0:0:
320,192,186975,128,0,187035:0:0:0:0:
192,192,187035,1,10,0:0:0:0:
448,192,187035,1,0,0:0:0:0:
64,192,187035,1,0,0:0:0:0:
320,192,187155,1,0,0:0:0:0:
448,192,187155,1,0,0:0:0:0:
192,192,187275,1,2,0:0:0:0:
64,192,187275,1,0,0:0:0:0:
448,192,187275,1,0,0:0:0:0:
320,192,187395,1,0,0:0:0:0:
192,192,187395,1,0,0:0:0:0:
448,192,187515,1,10,0:0:0:0:
64,192,187515,1,0,0:0:0:0:
320,192,187515,128,0,187575:0:0:0:0:
192,192,187575,128,0,187635:0:0:0:0:
64,192,187635,1,0,0:0:0:0:
448,192,187635,128,0,187695:0:0:0:0:
320,192,187695,128,0,187755:0:0:0:0:
192,192,187755,1,2,0:0:0:0:
64,192,187755,128,0,187815:0:0:0:0:
448,192,187815,128,0,187875:0:0:0:0:
192,192,187875,1,0,0:0:0:0:
320,192,187875,128,0,187935:0:0:0:0:
64,192,187935,128,0,187995:0:0:0:0:
192,192,187995,1,10,0:0:0:0:
320,192,187995,1,0,0:0:0:0:
448,192,187995,1,0,0:0:0:0:
64,192,188115,1,0,0:0:0:0:
192,192,188115,1,0,0:0:0:0:
192,192,188235,1,2,0:0:0:0:
320,192,188235,128,0,188355:0:0:0:0:
448,192,188235,128,0,188355:0:0:0:0:
64,192,188235,128,0,188355:0:0:0:0:
192,192,188355,128,0,188475:0:0:0:0:
64,192,188475,128,0,188595:0:0:0:0:
320,192,188475,128,2,188595:0:0:0:0:
448,192,188475,128,0,188595:0:0:0:0:
192,192,188715,1,2,0:0:0:0:
64,192,188715,1,0,0:0:0:0:
448,192,188715,1,0,0:0:0:0:
192,192,188955,1,2,0:0:0:0:
320,192,188955,1,0,0:0:0:0:
448,192,188955,1,0,0:0:0:0:
64,192,189015,1,0,0:0:0:0:
192,192,189075,1,0,0:0:0:0:
320,192,189135,1,0,0:0:0:0:
192,192,189195,1,2,0:0:0:0:
64,192,189195,1,0,0:0:0:0:
448,192,189195,1,0,0:0:0:0:
320,192,189255,1,0,0:0:0:0:
64,192,189315,1,0,0:0:0:0:
192,192,189375,1,0,0:0:0:0:
320,192,189435,1,2,0:0:0:0:
448,192,189435,1,0,0:0:0:0:
64,192,189435,1,0,0:0:0:0:
192,192,189495,1,0,0:0:0:0:
320,192,189555,1,0,0:0:0:0:
448,192,189615,1,0,0:0:0:0:
320,192,189675,1,2,0:0:0:0:
192,192,189675,1,0,0:0:0:0:
64,192,189675,1,0,0:0:0:0:
448,192,189735,1,0,0:0:0:0:
64,192,189795,1,0,0:0:0:0:
192,192,189855,1,0,0:0:0:0:
320,192,189915,1,2,0:0:0:0:
448,192,189915,1,0,0:0:0:0:
64,192,189915,1,0,0:0:0:0:
192,192,189975,1,0,0:0:0:0:
64,192,190035,1,0,0:0:0:0:
320,192,190095,1,0,0:0:0:0:
448,192,190155,1,2,0:0:0:0:
192,192,190155,128,0,190275:0:0:0:0:
64,192,190155,128,0,190275:0:0:0:0:
320,192,190275,128,0,190335:0:0:0:0:
448,192,190275,128,0,190395:0:0:0:0:
64,192,190395,1,0,0:0:0:0:
192,192,190455,1,0,0:0:0:0:
64,192,190515,128,2,190575:0:0:0:0:
320,192,190515,128,0,190635:0:0:0:0:
448,192,190515,128,0,190635:0:0:0:0:
64,192,190635,128,0,190755:0:0:0:0:
192,192,190635,128,0,190695:0:0:0:0:
448,192,190755,128,0,190875:0:0:0:0:
320,192,190755,128,0,190815:0:0:0:0:
320,192,190875,128,2,190935:0:0:0:0:
192,192,190875,128,0,190995:0:0:0:0:
64,192,190875,128,0,190995:0:0:0:0:
448,192,190995,1,0,0:0:0:0:
320,192,191055,1,0,0:0:0:0:
64,192,191115,128,0,191235:0:0:0:0:
448,192,191115,128,0,191235:0:0:0:0:
192,192,191115,128,2,191175:0:0:0:0:
320,192,191235,128,0,191355:0:0:0:0:
192,192,191235,128,0,191295:0:0:0:0:
64,192,191355,128,0,191475:0:0:0:0:
448,192,191355,128,0,191415:0:0:0:0:
192,192,191475,1,0,0:0:0:0:
320,192,191475,128,2,191535:0:0:0:0:
448,192,191475,128,0,191595:0:0:0:0:
192,192,191595,128,0,191835:0:0:0:0:
64,192,191595,128,0,191715:0:0:0:0:
64,192,191835,128,0,191955:0:0:0:0:
320,192,191835,128,2,191955:0:0:0:0:
448,192,191835,128,0,191955:0:0:0:0:
192,192,192075,128,2,192195:0:0:0:0:
64,192,192075,128,0,192195:0:0:0:0:
448,192,192075,128,0,192195:0:0:0:0:
320,192,192315,128,10,192435:0:0:0:0:
448,192,192315,128,0,192435:0:0:0:0:
192,192,192315,128,0,192435:0:0:0:0:
448,192,192555,1,2,0:0:0:0:
64,192,192555,128,0,192635:0:0:0:0:
192,192,192595,128,0,192675:0:0:0:0:
320,192,192635,128,0,192715:0:0:0:0:
448,192,192675,128,0,192755:0:0:0:0:
320,192,192795,128,10,192915:0:0:0:0:
192,192,192795,128,0,192915:0:0:0:0:
64,192,192795,128,0,192915:0:0:0:0:
448,192,193035,1,0,0:0:0:0:
64,192,193035,1,2,0:0:0:0:
320,192,193095,1,0,0:0:0:0:
192,192,193155,1,0,0:0:0:0:
64,192,193215,1,0,0:0:0:0:
192,192,193275,128,0,193395:0:0:0:0:
320,192,193275,128,10,193395:0:0:0:0:
448,192,193275,128,0,193395:0:0:0:0:
192,192,193515,1,2,0:0:0:0:
64,192,193515,1,0,0:0:0:0:
448,192,193575,1,0,0:0:0:0:
320,192,193635,1,0,0:0:0:0:
192,192,193695,1,0,0:0:0:0:
64,192,193755,128,0,193875:0:0:0:0:
320,192,193755,128,10,193875:0:0:0:0:
448,192,193755,128,0,193875:0:0:0:0:
64,192,193995,1,0,0:0:0:0:
448,192,193995,1,2,0:0:0:0:
192,192,194055,1,0,0:0:0:0:
320,192,194115,1,0,0:0:0:0:
64,192,194175,1,0,0:0:0:0:
192,192,194235,1,10,0:0:0:0:
448,192,194235,1,0,0:0:0:0:
320,192,194295,1,0,0:0:0:0:
64,192,194355,1,0,0:0:0:0:
448,192,194415,1,0,0:0:0:0:
320,192,194475,1,0,0:0:0:0:
192,192,194475,1,2,0:0:0:0:
64,192,194535,1,0,0:0:0:0:
448,192,194595,1,0,0:0:0:0:
320,192,194655,1,0,0:0:0:0:
192,192,194715,1,10,0:0:0:0:
64,192,194715,1,0,0:0:0:0:
448,192,194775,1,0,0:0:0:0:
320,192,194835,1,0,0:0:0:0:
64,192,194895,1,0,0:0:0:0:
192,192,194955,1,2,0:0:0:0:
448,192,194955,1,0,0:0:0:0:
320,192,195015,1,0,0:0:0:0:
64,192,195075,1,0,0:0:0:0:
192,192,195135,1,0,0:0:0:0:
448,192,195195,1,0,0:0:0:0:
320,192,195195,1,10,0:0:0:0:
64,192,195255,1,0,0:0:0:0:
192,192,195315,1,0,0:0:0:0:
320,192,195375,1,0,0:0:0:0:
448,192,195435,1,0,0:0:0:0:
64,192,195435,1,2,0:0:0:0:
192,192,195495,1,0,0:0:0:0:
448,192,195555,1,0,0:0:0:0:
320,192,195615,1,0,0:0:0:0:
192,192,195675,1,10,0:0:0:0:
64,192,195675,1,0,0:0:0:0:
448,192,195735,1,0,0:0:0:0:
320,192,195795,1,0,0:0:0:0:
192,192,195855,1,0,0:0:0:0:
64,192,195915,1,0,0:0:0:0:
448,192,195915,1,0,0:0:0:0:
320,192,195915,1,2,0:0:0:0:
192,192,196035,1,0,0:0:0:0:
64,192,196035,1,0,0:0:0:0:
64,192,196155,1,0,0:0:0:0:
448,192,196155,1,0,0:0:0:0:
448,192,196275,1,0,0:0:0:0:
320,192,196275,1,0,0:0:0:0:
320,192,196395,1,8,0:0:0:0:
192,192,196395,1,0,0:0:0:0:
64,192,196395,1,0,0:0:0:0:
448,192,196395,1,0,0:0:0:0:
192,192,196515,1,0,0:0:0:0:
64,192,196515,1,0,0:0:0:0:
320,192,196635,1,2,0:0:0:0:
448,192,196635,1,0,0:0:0:0:
64,192,196635,1,0,0:0:0:0:
320,192,196755,1,0,0:0:0:0:
192,192,196755,1,0,0:0:0:0:
192,192,196875,1,0,0:0:0:0:
64,192,196875,1,0,0:0:0:0:
64,192,196995,1,0,0:0:0:0:
320,192,196995,1,0,0:0:0:0:
448,192,197115,1,0,0:0:0:0:
320,192,197115,1,2,0:0:0:0:
192,192,197115,1,0,0:0:0:0:
192,192,197235,1,0,0:0:0:0:
64,192,197235,1,0,0:0:0:0:
320,192,197295,1,0,0:0:0:0:
64,192,197355,1,0,0:0:0:0:
448,192,197355,1,0,0:0:0:0:
192,192,197355,1,8,0:0:0:0:
192,192,197475,1,0,0:0:0:0:
64,192,197475,1,0,0:0:0:0:
448,192,197595,1,0,0:0:0:0:
64,192,197655,1,0,0:0:0:0:
448,192,197715,1,0,0:0:0:0:
64,192,197775,1,0,0:0:0:0:
448,192,197835,1,0,0:0:0:0:
192,192,197835,1,2,0:0:0:0:
320,192,197835,1,0,0:0:0:0:
64,192,197955,1,0,0:0:0:0:
320,192,197955,1,0,0:0:0:0:
192,192,198015,1,0,0:0:0:0:
448,192,198075,1,0,0:0:0:0:
320,192,198075,1,0,0:0:0:0:
64,192,198195,1,0,0:0:0:0:
448,192,198195,1,0,0:0:0:0:
320,192,198255,1,0,0:0:0:0:
192,192,198315,1,8,0:0:0:0:
448,192,198315,1,0,0:0:0:0:
64,192,198315,1,0,0:0:0:0:
448,192,198435,1,0,0:0:0:0:
320,192,198435,1,0,0:0:0:0:
192,192,198495,1,0,0:0:0:0:
64,192,198555,1,0,0:0:0:0:
320,192,198555,1,2,0:0:0:0:
448,192,198555,1,0,0:0:0:0:
192,192,198675,1,0,0:0:0:0:
320,192,198735,1,0,0:0:0:0:
448,192,198795,1,0,0:0:0:0:
64,192,198795,1,0,0:0:0:0:
64,192,198915,1,0,0:0:0:0:
192,192,198915,1,0,0:0:0:0:
320,192,198975,1,0,0:0:0:0:
192,192,199035,1,2,0:0:0:0:
64,192,199035,1,0,0:0:0:0:
448,192,199035,1,0,0:0:0:0:
448,192,199155,1,0,0:0:0:0:
320,192,199155,1,0,0:0:0:0:
192,192,199215,1,0,0:0:0:0:
64,192,199275,1,0,0:0:0:0:
320,192,199275,1,8,0:0:0:0:
448,192,199275,1,0,0:0:0:0:
192,192,199395,1,0,0:0:0:0:
448,192,199395,1,0,0:0:0:0:
320,192,199515,1,0,0:0:0:0:
64,192,199515,1,0,0:0:0:0:
192,192,199575,1,0,0:0:0:0:
64,192,199635,1,0,0:0:0:0:
448,192,199635,1,0,0:0:0:0:
320,192,199695,1,0,0:0:0:0:
192,192,199755,128,2,199875:0:0:0:0:
64,192,199755,128,0,199875:0:0:0:0:
320,192,199875,128,0,199995:0:0:0:0:
448,192,199875,128,0,199995:0:0:0:0:
192,192,199995,128,0,200115:0:0:0:0:
64,192,199995,128,0,200115:0:0:0:0:
448,192,200115,1,0,0:0:0:0:
320,192,200115,1,2,0:0:0:0:
64,192,200235,1,8,0:0:0:0:
448,192,200235,128,0,200315:0:0:0:0:
320,192,200275,128,0,200355:0:0:0:0:
192,192,200315,128,0,200395:0:0:0:0:
64,192,200355,128,0,200435:0:0:0:0:
448,192,200475,1,0,0:0:0:0:
320,192,200475,1,2,0:0:0:0:
64,192,200715,1,0,0:0:0:0:
192,192,200775,1,0,0:0:0:0:
448,192,200835,1,0,0:0:0:0:
320,192,200895,1,0,0:0:0:0:
192,192,200955,1,0,0:0:0:0:
64,192,201015,1,0,0:0:0:0:
448,192,201075,1,0,0:0:0:0:
320,192,201075,1,2,0:0:0:0:
64,192,201195,1,0,0:0:0:0:
320,192,201195,1,8,0:0:0:0:
192,192,201195,1,0,0:0:0:0:
448,192,201255,1,0,0:0:0:0:
320,192,201315,1,2,0:0:0:0:
64,192,201315,1,0,0:0:0:0:
192,192,201375,1,0,0:0:0:0:
448,192,201435,1,0,0:0:0:0:
64,192,201495,1,0,0:0:0:0:
192,192,201555,1,0,0:0:0:0:
320,192,201555,1,2,0:0:0:0:
448,192,201615,1,0,0:0:0:0:
64,192,201675,1,0,0:0:0:0:
320,192,201675,1,2,0:0:0:0:
192,192,201735,1,0,0:0:0:0:
448,192,201795,1,0,0:0:0:0:
320,192,201855,1,0,0:0:0:0:
64,192,201915,1,0,0:0:0:0:
192,192,201975,1,0,0:0:0:0:
320,192,202035,1,2,0:0:0:0:
448,192,202035,1,0,0:0:0:0:
64,192,202155,1,0,0:0:0:0:
192,192,202155,1,0,0:0:0:0:
320,192,202155,1,8,0:0:0:0:
448,192,202215,1,0,0:0:0:0:
320,192,202275,1,0,0:0:0:0:
192,192,202335,1,0,0:0:0:0:
64,192,202395,1,0,0:0:0:0:
448,192,202395,1,2,0:0:0:0:
320,192,202455,1,0,0:0:0:0:
192,192,202515,1,0,0:0:0:0:
64,192,202635,1,0,0:0:0:0:
448,192,202695,1,0,0:0:0:0:
320,192,202755,1,0,0:0:0:0:
192,192,202815,1,0,0:0:0:0:
64,192,202875,1,0,0:0:0:0:
448,192,202935,1,0,0:0:0:0:
320,192,202995,1,2,0:0:0:0:
192,192,202995,1,0,0:0:0:0:
64,192,203115,1,0,0:0:0:0:
448,192,203115,128,0,203235:0:0:0:0:
320,192,203115,128,8,203175:0:0:0:0:
64,192,203235,128,0,203355:0:0:0:0:
192,192,203235,128,0,203295:0:0:0:0:
448,192,203355,1,2,0:0:0:0:
320,192,203415,1,2,0:0:0:0:
64,192,203475,1,2,0:0:0:0:
192,192,203535,1,2,0:0:0:0:
64,192,203595,128,0,203955:0:0:0:0:
320,192,203595,128,6,203955:0:0:0:0:
448,192,203595,128,0,203955:0:0:0:0:
64,192,204075,128,0,204195:0:0:0:0:
448,192,204075,128,8,204195:0:0:0:0:
192,192,204135,128,0,204195:0:0:0:0:
320,192,204195,128,0,204255:0:0:0:0:
192,192,204315,1,2,0:0:0:0:
64,192,204315,1,0,0:0:0:0:
448,192,204315,1,0,0:0:0:0:
320,192,204435,1,0,0:0:0:0:
192,192,204435,1,0,0:0:0:0:
64,192,204555,1,0,0:0:0:0:
448,192,204555,1,0,0:0:0:0:
64,192,204675,1,0,0:0:0:0:
448,192,204675,1,0,0:0:0:0:
64,192,204795,1,0,0:0:0:0:
448,192,204795,1,0,0:0:0:0:
320,192,204795,1,2,0:0:0:0:
64,192,204915,1,0,0:0:0:0:
448,192,204915,1,0,0:0:0:0:
64,192,205035,1,0,0:0:0:0:
192,192,205035,1,10,0:0:0:0:
448,192,205095,1,0,0:0:0:0:
320,192,205095,1,2,0:0:0:0:
192,192,205155,1,2,0:0:0:0:
64,192,205155,1,0,0:0:0:0:
320,192,205215,1,2,0:0:0:0:
448,192,205215,1,0,0:0:0:0:
192,192,205275,1,2,0:0:0:0:
64,192,205275,1,0,0:0:0:0:
320,192,205335,1,2,0:0:0:0:
448,192,205335,1,0,0:0:0:0:
192,192,205395,1,2,0:0:0:0:
64,192,205395,1,0,0:0:0:0:
320,192,205455,1,2,0:0:0:0:
448,192,205455,1,0,0:0:0:0:
64,192,205515,128,0,205755:0:0:0:0:
192,192,205515,128,2,205635:0:0:0:0:
448,192,205875,1,0,0:0:0:0:
320,192,205905,1,0,0:0:0:0:
64,192,205935,1,0,0:0:0:0:
192,192,205965,1,0,0:0:0:0:
320,192,205995,1,0,0:0:0:0:
448,192,206025,1,0,0:0:0:0:
192,192,206055,1,0,0:0:0:0:
64,192,206085,1,0,0:0:0:0:
320,192,206115,1,0,0:0:0:0:
448,192,206145,1,0,0:0:0:0:
64,192,206175,1,0,0:0:0:0:
192,192,206205,1,0,0:0:0:0:
320,192,206235,1,0,0:0:0:0:
448,192,206265,1,0,0:0:0:0:
64,192,206475,1,0,0:0:0:0:
192,192,206535,1,0,0:0:0:0:
320,192,206595,1,0,0:0:0:0:
448,192,206655,1,0,0:0:0:0:
320,192,206715,1,0,0:0:0:0:
192,192,206775,1,0,0:0:0:0:
64,192,206835,1,0,0:0:0:0:
192,192,206895,1,0,0:0:0:0:
448,192,206955,1,0,0:0:0:0:
320,192,207015,1,0,0:0:0:0:
192,192,207075,1,0,0:0:0:0:
64,192,207135,1,0,0:0:0:0:
448,192,207195,1,0,0:0:0:0:
320,192,207215,1,0,0:0:0:0:
192,192,207235,1,0,0:0:0:0:
64,192,207255,1,0,0:0:0:0:
448,192,207275,1,0,0:0:0:0:
320,192,207295,1,0,0:0:0:0:
192,192,207315,1,0,0:0:0:0:
64,192,207335,1,0,0:0:0:0:
192,192,207435,128,0,207675:0:0:0:0:
320,192,207435,128,6,207675:0:0:0:0:
448,192,207435,128,0,207675:0:0:0:0:
64,192,207795,128,0,208035:0:0:0:0:
192,192,207795,128,6,208035:0:0:0:0:
448,192,207795,128,0,208035:0:0:0:0:
320,192,208155,128,6,208395:0:0:0:0:
192,192,208155,128,0,208395:0:0:0:0:
64,192,208155,128,0,208395:0:0:0:0:
192,192,208515,128,0,208755:0:0:0:0:
320,192,208515,128,6,208755:0:0:0:0:
448,192,208515,128,0,208755:0:0:0:0:
192,192,208875,128,6,208995:0:0:0:0:
64,192,208875,128,0,208995:0:0:0:0:
448,192,208875,128,0,208995:0:0:0:0:
64,192,209115,128,0,209235:0:0:0:0:
320,192,209115,128,6,209235:0:0:0:0:
448,192,209115,128,0,209235:0:0:0:0:
320,192,209355,128,6,209595:0:0:0:0:
192,192,209355,128,0,209595:0:0:0:0:
64,192,209355,128,0,209595:0:0:0:0:
192,192,209715,128,0,209955:0:0:0:0:
64,192,209715,128,0,209955:0:0:0:0:
448,192,209715,128,6,209955:0:0:0:0:
64,192,210075,128,0,210315:0:0:0:0:
320,192,210075,128,6,210315:0:0:0:0:
448,192,210075,128,0,210315:0:0:0:0:
192,192,210435,128,0,210675:0:0:0:0:
320,192,210435,128,6,210675:0:0:0:0:
448,192,210435,128,0,210675:0:0:0:0:
64,192,210795,1,0,0:0:0:0:
192,192,210825,1,0,0:0:0:0:
320,192,210855,1,0,0:0:0:0:
448,192,210885,1,0,0:0:0:0:
64,192,210915,1,0,0:0:0:0:
192,192,210945,1,0,0:0:0:0:
320,192,210975,1,0,0:0:0:0:
448,192,211005,1,0,0:0:0:0:
64,192,211035,1,0,0:0:0:0:
192,192,211065,1,0,0:0:0:0:
320,192,211095,1,0,0:0:0:0:
448,192,211125,1,0,0:0:0:0:
64,192,211155,1,0,0:0:0:0:
192,192,211185,1,0,0:0:0:0:
320,192,211215,1,0,0:0:0:0:
192,192,211275,128,6,211515:0:0:0:0:
64,192,211275,128,0,211515:0:0:0:0:
448,192,211275,128,0,211515:0:0:0:0:
320,192,211635,128,6,211875:0:0:0:0:
192,192,211635,128,0,211875:0:0:0:0:
64,192,211635,128,0,211875:0:0:0:0:
192,192,211995,128,0,212235:0:0:0:0:
320,192,211995,128,6,212235:0:0:0:0:
448,192,211995,128,0,212235:0:0:0:0:
64,192,212355,128,0,212595:0:0:0:0:
320,192,212355,128,6,212595:0:0:0:0:
448,192,212355,128,0,212595:0:0:0:0:
64,192,212715,128,0,212835:0:0:0:0:
192,192,212715,128,0,212835:0:0:0:0:
320,192,212715,128,6,212835:0:0:0:0:
192,192,212955,128,0,213075:0:0:0:0:
320,192,212955,128,6,213075:0:0:0:0:
448,192,212955,128,0,213075:0:0:0:0:
64,192,213195,128,0,213435:0:0:0:0:
320,192,213195,128,6,213435:0:0:0:0:
448,192,213195,128,0,213435:0:0:0:0:
320,192,213555,128,6,213795:0:0:0:0:
192,192,213555,128,0,213795:0:0:0:0:
64,192,213555,128,0,213795:0:0:0:0:
64,192,213915,128,0,214155:0:0:0:0:
320,192,213915,128,6,214155:0:0:0:0:
448,192,213915,128,0,214155:0:0:0:0:
320,192,214275,128,6,214515:0:0:0:0:
192,192,214275,128,0,214515:0:0:0:0:
64,192,214275,128,0,214515:0:0:0:0:
320,192,214635,1,2,0:0:0:0:
192,192,214635,1,0,0:0:0:0:
64,192,214815,1,0,0:0:0:0:
448,192,214815,1,0,0:0:0:0:
64,192,214995,1,0,0:0:0:0:
448,192,214995,1,0,0:0:0:0:
192,192,215115,1,6,0:0:0:0:
64,192,215115,1,0,0:0:0:0:
320,192,215175,1,2,0:0:0:0:
448,192,215175,1,0,0:0:0:0:
192,192,215235,1,2,0:0:0:0:
64,192,215235,1,0,0:0:0:0:
320,192,215295,1,2,0:0:0:0:
448,192,215295,1,0,0:0:0:0:
64,192,215355,1,0,0:0:0:0:
192,192,215415,1,0,0:0:0:0:
448,192,215475,1,0,0:0:0:0:
320,192,215475,1,6,0:0:0:0:
192,192,215535,1,2,0:0:0:0:
64,192,215535,1,0,0:0:0:0:
448,192,215595,1,0,0:0:0:0:
320,192,215595,1,2,0:0:0:0:
192,192,215655,1,2,0:0:0:0:
64,192,215655,1,0,0:0:0:0:
320,192,215715,1,0,0:0:0:0:
448,192,215775,1,0,0:0:0:0:
320,192,215835,1,0,0:0:0:0:
192,192,215835,1,6,0:0:0:0:
64,192,215895,1,2,0:0:0:0:
448,192,215895,1,0,0:0:0:0:
192,192,215955,1,2,0:0:0:0:
320,192,215955,1,0,0:0:0:0:
64,192,216015,1,2,0:0:0:0:
448,192,216015,1,0,0:0:0:0:
192,192,216075,1,0,0:0:0:0:
320,192,216135,1,0,0:0:0:0:
64,192,216195,1,6,0:0:0:0:
448,192,216195,1,0,0:0:0:0:
192,192,216255,1,2,0:0:0:0:
320,192,216255,1,0,0:0:0:0:
64,192,216315,1,2,0:0:0:0:
448,192,216315,1,0,0:0:0:0:
320,192,216375,1,0,0:0:0:0:
192,192,216375,1,2,0:0:0:0:
64,192,216435,1,0,0:0:0:0:
192,192,216495,1,0,0:0:0:0:
320,192,216555,1,6,0:0:0:0:
448,192,216555,1,0,0:0:0:0:
192,192,216615,1,2,0:0:0:0:
64,192,216615,1,0,0:0:0:0:
320,192,216675,1,2,0:0:0:0:
448,192,216675,1,0,0:0:0:0:
64,192,216735,1,0,0:0:0:0:
192,192,216795,1,6,0:0:0:0:
320,192,216795,1,0,0:0:0:0:
64,192,216855,1,2,0:0:0:0:
448,192,216855,1,0,0:0:0:0:
192,192,216915,1,2,0:0:0:0:
320,192,216915,1,0,0:0:0:0:
448,192,216975,1,0,0:0:0:0:
192,192,217035,1,6,0:0:0:0:
64,192,217035,1,0,0:0:0:0:
320,192,217095,1,2,0:0:0:0:
448,192,217095,1,0,0:0:0:0:
192,192,217155,1,2,0:0:0:0:
64,192,217155,1,0,0:0:0:0:
320,192,217215,1,2,0:0:0:0:
448,192,217215,1,0,0:0:0:0:
64,192,217275,1,0,0:0:0:0:
192,192,217335,1,0,0:0:0:0:
448,192,217395,1,0,0:0:0:0:
320,192,217395,1,6,0:0:0:0:
192,192,217455,1,2,0:0:0:0:
64,192,217455,1,0,0:0:0:0:
320,192,217515,1,2,0:0:0:0:
448,192,217515,1,0,0:0:0:0:
192,192,217575,1,2,0:0:0:0:
64,192,217575,1,0,0:0:0:0:
320,192,217635,1,0,0:0:0:0:
448,192,217695,1,0,0:0:0:0:
320,192,217755,1,0,0:0:0:0:
192,192,217755,1,6,0:0:0:0:
64,192,217815,1,2,0:0:0:0:
448,192,217815,1,0,0:0:0:0:
320,192,217875,1,0,0:0:0:0:
192,192,217875,1,2,0:0:0:0:
64,192,217935,1,2,0:0:0:0:
448,192,217935,1,0,0:0:0:0:
192,192,217995,1,0,0:0:0:0:
320,192,218055,1,0,0:0:0:0:
64,192,218115,1,6,0:0:0:0:
448,192,218115,1,0,0:0:0:0:
320,192,218175,1,0,0:0:0:0:
192,192,218175,1,2,0:0:0:0:
64,192,218235,1,2,0:0:0:0:
448,192,218235,1,0,0:0:0:0:
320,192,218295,1,0,0:0:0:0:
192,192,218295,1,2,0:0:0:0:
64,192,218355,1,0,0:0:0:0:
192,192,218415,1,0,0:0:0:0:
448,192,218475,128,0,218635:0:0:0:0:
320,192,218555,128,0,218715:0:0:0:0:
192,192,218635,128,0,218795:0:0:0:0:
64,192,218715,128,0,218875:0:0:0:0:
448,192,218955,1,0,0:0:0:0:
320,192,218955,1,6,0:0:0:0:
64,192,218985,1,0,0:0:0:0:
192,192,219015,1,0,0:0:0:0:
320,192,219045,1,0,0:0:0:0:
448,192,219075,1,0,0:0:0:0:
192,192,219105,1,0,0:0:0:0:
64,192,219135,1,0,0:0:0:0:
320,192,219165,1,0,0:0:0:0:
448,192,219195,1,0,0:0:0:0:
64,192,219225,1,0,0:0:0:0:
192,192,219255,1,0,0:0:0:0:
320,192,219285,1,0,0:0:0:0:
448,192,219315,1,6,0:0:0:0:
64,192,219315,1,0,0:0:0:0:
192,192,219345,1,0,0:0:0:0:
320,192,219375,1,0,0:0:0:0:
448,192,219405,1,0,0:0:0:0:
64,192,219435,1,0,0:0:0:0:
192,192,219465,1,0,0:0:0:0:
448,192,219495,1,0,0:0:0:0:
320,192,219525,1,0,0:0:0:0:
192,192,219555,1,0,0:0:0:0:
64,192,219585,1,0,0:0:0:0:
320,192,219615,1,0,0:0:0:0:
448,192,219645,1,0,0:0:0:0:
192,192,219675,1,6,0:0:0:0:
64,192,219675,1,0,0:0:0:0:
320,192,219705,1,0,0:0:0:0:
448,192,219735,1,0,0:0:0:0:
64,192,219765,1,0,0:0:0:0:
192,192,219795,1,0,0:0:0:0:
448,192,219825,1,0,0:0:0:0:
320,192,219855,1,0,0:0:0:0:
192,192,219885,1,0,0:0:0:0:
64,192,219915,1,0,0:0:0:0:
320,192,219945,1,0,0:0:0:0:
448,192,219975,1,0,0:0:0:0:
64,192,220005,1,0,0:0:0:0:
192,192,220035,1,0,0:0:0:0:
320,192,220035,1,6,0:0:0:0:
448,192,220065,1,0,0:0:0:0:
64,192,220095,1,0,0:0:0:0:
192,192,220125,1,0,0:0:0:0:
320,192,220155,1,0,0:0:0:0:
448,192,220185,1,0,0:0:0:0:
192,192,220215,1,0,0:0:0:0:
64,192,220245,1,0,0:0:0:0:
448,192,220275,1,0,0:0:0:0:
320,192,220305,1,0,0:0:0:0:
192,192,220335,1,0,0:0:0:0:
64,192,220365,1,0,0:0:0:0:
320,192,220395,1,6,0:0:0:0:
448,192,220395,1,0,0:0:0:0:
192,192,220425,1,0,0:0:0:0:
64,192,220455,1,0,0:0:0:0:
448,192,220485,1,0,0:0:0:0:
320,192,220515,1,0,0:0:0:0:
64,192,220545,1,0,0:0:0:0:
192,192,220575,1,0,0:0:0:0:
320,192,220605,1,0,0:0:0:0:
64,192,220635,1,0,0:0:0:0:
448,192,220635,1,6,0:0:0:0:
192,192,220665,1,0,0:0:0:0:
320,192,220695,1,0,0:0:0:0:
448,192,220725,1,0,0:0:0:0:
64,192,220755,1,0,0:0:0:0:
192,192,220785,1,0,0:0:0:0:
448,192,220815,1,0,0:0:0:0:
320,192,220845,1,0,0:0:0:0:
192,192,220875,1,2,0:0:0:0:
64,192,220875,1,0,0:0:0:0:
320,192,221235,1,0,0:0:0:0:
448,192,221295,1,0,0:0:0:0:
64,192,221355,1,0,0:0:0:0:
192,192,221415,1,0,0:0:0:0:
448,192,221475,1,0,0:0:0:0:
320,192,221535,1,0,0:0:0:0:
192,192,221595,1,0,0:0:0:0:
320,192,221655,1,0,0:0:0:0:
448,192,221715,1,0,0:0:0:0:
320,192,221775,1,0,0:0:0:0:
192,192,221835,1,0,0:0:0:0:
64,192,221835,1,0,0:0:0:0:
448,192,221835,1,0,0:0:0:0:
320,192,222075,1,0,0:0:0:0:
192,192,222195,1,0,0:0:0:0:
64,192,222315,1,0,0:0:0:0:
448,192,222315,1,0,0:0:0:0:
320,192,222355,1,0,0:0:0:0:
192,192,222395,1,0,0:0:0:0:
64,192,222435,1,0,0:0:0:0:
448,192,222475,1,0,0:0:0:0:
320,192,222515,1,0,0:0:0:0:
192,192,222555,1,0,0:0:0:0:
64,192,222595,1,0,0:0:0:0:
320,192,222635,1,0,0:0:0:0:
448,192,222675,1,0,0:0:0:0:
192,192,222735,1,0,0:0:0:0:
320,192,222795,1,6,0:0:0:0:
64,192,222795,1,0,0:0:0:0:
448,192,222795,1,0,0:0:0:0:
192,192,222915,1,2,0:0:0:0:
448,192,222915,1,0,0:0:0:0:
64,192,223035,1,0,0:0:0:0:
192,192,223035,128,0,223275:0:0:0:0:
320,192,223035,128,10,223155:0:0:0:0:
448,192,223155,1,0,0:0:0:0:
64,192,223275,128,2,223395:0:0:0:0:
448,192,223275,128,0,223515:0:0:0:0:
192,192,223395,1,0,0:0:0:0:
64,192,223515,1,10,0:0:0:0:
192,192,223515,128,0,223755:0:0:0:0:
320,192,223515,128,0,223635:0:0:0:0:
64,192,223635,1,0,0:0:0:0:
320,192,223755,128,0,223995:0:0:0:0:
448,192,223755,128,2,223875:0:0:0:0:
64,192,223875,1,0,0:0:0:0:
448,192,223995,1,10,0:0:0:0:
64,192,223995,128,0,224235:0:0:0:0:
192,192,223995,128,0,224115:0:0:0:0:
448,192,224115,1,0,0:0:0:0:
192,192,224235,128,0,224475:0:0:0:0:
320,192,224235,128,2,224355:0:0:0:0:
64,192,224355,1,0,0:0:0:0:
64,192,224475,1,10,0:0:0:0:
320,192,224475,128,0,224715:0:0:0:0:
448,192,224475,128,0,224595:0:0:0:0:
192,192,224595,1,0,0:0:0:0:
64,192,224715,1,0,0:0:0:0:
192,192,224715,1,2,0:0:0:0:
448,192,224715,1,0,0:0:0:0:
64,192,224835,1,0,0:0:0:0:
192,192,224955,1,10,0:0:0:0:
320,192,224955,1,0,0:0:0:0:
448,192,224955,1,0,0:0:0:0:
320,192,225075,1,0,0:0:0:0:
192,192,225195,1,2,0:0:0:0:
64,192,225195,1,0,0:0:0:0:
448,192,225195,1,0,0:0:0:0:
448,192,225315,1,0,0:0:0:0:
192,192,225435,1,10,0:0:0:0:
320,192,225435,1,0,0:0:0:0:
64,192,225435,1,0,0:0:0:0:
64,192,225555,1,0,0:0:0:0:
192,192,225675,1,2,0:0:0:0:
320,192,225675,1,0,0:0:0:0:
448,192,225675,1,0,0:0:0:0:
320,192,225795,1,0,0:0:0:0:
192,192,225915,1,10,0:0:0:0:
64,192,225915,1,0,0:0:0:0:
448,192,225915,1,0,0:0:0:0:
192,192,226035,1,0,0:0:0:0:
320,192,226155,1,2,0:0:0:0:
448,192,226155,1,0,0:0:0:0:
64,192,226155,1,0,0:0:0:0:
320,192,226275,1,0,0:0:0:0:
192,192,226395,1,10,0:0:0:0:
64,192,226395,1,0,0:0:0:0:
448,192,226395,1,0,0:0:0:0:
448,192,226515,1,0,0:0:0:0:
64,192,226635,1,0,0:0:0:0:
192,192,226635,1,2,0:0:0:0:
320,192,226695,1,2,0:0:0:0:
448,192,226695,1,0,0:0:0:0:
64,192,226755,1,0,0:0:0:0:
320,192,226815,1,2,0:0:0:0:
448,192,226815,1,0,0:0:0:0:
192,192,226875,128,0,227115:0:0:0:0:
64,192,226875,128,10,226995:0:0:0:0:
320,192,226995,1,0,0:0:0:0:
64,192,227115,128,0,227355:0:0:0:0:
448,192,227115,128,2,227235:0:0:0:0:
192,192,227235,1,0,0:0:0:0:
448,192,227355,1,10,0:0:0:0:
320,192,227355,128,0,227595:0:0:0:0:
192,192,227355,128,0,227475:0:0:0:0:
448,192,227475,1,0,0:0:0:0:
192,192,227595,128,0,227835:0:0:0:0:
64,192,227595,128,2,227715:0:0:0:0:
320,192,227715,1,0,0:0:0:0:
64,192,227835,1,10,0:0:0:0:
320,192,227835,128,0,227955:0:0:0:0:
448,192,227835,128,0,228075:0:0:0:0:
64,192,227955,1,0,0:0:0:0:
320,192,228075,128,2,228195:0:0:0:0:
192,192,228075,128,0,228315:0:0:0:0:
64,192,228195,1,0,0:0:0:0:
320,192,228315,128,10,228435:0:0:0:0:
448,192,228315,128,0,228435:0:0:0:0:
64,192,228315,128,0,228435:0:0:0:0:
192,192,228435,128,0,228555:0:0:0:0:
448,192,228555,128,0,228675:0:0:0:0:
64,192,228555,128,2,228615:0:0:0:0:
320,192,228615,128,0,228675:0:0:0:0:
192,192,228675,128,0,228735:0:0:0:0:
64,192,228735,128,0,228795:0:0:0:0:
192,192,228795,128,10,228855:0:0:0:0:
448,192,228795,128,0,228915:0:0:0:0:
320,192,228855,128,0,228915:0:0:0:0:
64,192,228915,128,0,228975:0:0:0:0:
192,192,228975,128,0,229035:0:0:0:0:
320,192,229035,128,0,229155:0:0:0:0:
448,192,229035,128,2,229095:0:0:0:0:
64,192,229095,128,0,229155:0:0:0:0:
192,192,229155,128,0,229215:0:0:0:0:
448,192,229215,128,0,229275:0:0:0:0:
320,192,229275,128,0,229395:0:0:0:0:
64,192,229275,128,10,229335:0:0:0:0:
192,192,229335,128,0,229395:0:0:0:0:
448,192,229395,128,0,229455:0:0:0:0:
64,192,229455,128,0,229515:0:0:0:0:
320,192,229515,1,2,0:0:0:0:
448,192,229515,1,0,0:0:0:0:
64,192,229635,1,0,0:0:0:0:
192,192,229635,1,2,0:0:0:0:
448,192,229755,1,0,0:0:0:0:
320,192,229755,1,2,0:0:0:0:
192,192,229875,1,2,0:0:0:0:
64,192,229875,1,0,0:0:0:0:
448,192,229995,1,0,0:0:0:0:
320,192,229995,1,2,0:0:0:0:
192,192,230055,1,2,0:0:0:0:
64,192,230055,1,0,0:0:0:0:
320,192,230115,1,2,0:0:0:0:
448,192,230115,1,0,0:0:0:0:
192,192,230175,1,2,0:0:0:0:
64,192,230175,1,0,0:0:0:0:
320,192,230235,1,2,0:0:0:0:
448,192,230235,1,0,0:0:0:0:
192,192,230295,1,2,0:0:0:0:
64,192,230295,1,0,0:0:0:0:
320,192,230355,1,2,0:0:0:0:
448,192,230355,1,0,0:0:0:0:
192,192,230415,1,2,0:0:0:0:
64,192,230415,1,0,0:0:0:0:
64,192,230475,128,0,230715:0:0:0:0:
448,192,230475,128,0,230715:0:0:0:0:
320,192,230475,128,6,230595:0:0:0:0:
320,192,230715,1,0,0:0:0:80:snare-dirty.mp3
192,192,230715,1,0,0:0:0:0:
192,192,230835,128,6,231075:0:0:0:0:
64,192,230835,128,0,231075:0:0:0:0:
448,192,230835,128,0,230955:0:0:0:0:
320,192,231075,1,0,0:0:0:80:snare-dirty.mp3
448,192,231075,1,0,0:0:0:0:
320,192,231195,128,6,231435:0:0:0:0:
192,192,231195,128,0,231435:0:0:0:0:
64,192,231195,128,0,231255:0:0:0:0:
64,192,231315,1,0,0:0:0:80:snare-dirty.mp3
448,192,231315,1,0,0:0:0:0:
192,192,231555,128,0,231615:0:0:0:0:
320,192,231555,128,6,231795:0:0:0:0:
448,192,231555,128,0,231795:0:0:0:0:
192,192,231675,1,0,0:0:0:80:snare-dirty.mp3
64,192,231675,1,0,0:0:0:0:
64,192,231915,128,0,232035:0:0:0:0:
448,192,231915,128,0,232035:0:0:0:0:
320,192,231915,128,6,231975:0:0:0:0:
192,192,232035,1,0,0:0:0:80:snare-dirty.mp3
320,192,232035,1,0,0:0:0:0:
192,192,232155,128,0,232275:0:0:0:0:
64,192,232155,128,0,232275:0:0:0:0:
448,192,232155,128,6,232215:0:0:0:0:
320,192,232275,1,0,0:0:0:80:snare-dirty.mp3
448,192,232275,1,0,0:0:0:0:
320,192,232395,128,0,232635:0:0:0:0:
192,192,232395,128,6,232515:0:0:0:0:
64,192,232395,128,0,232635:0:0:0:0:
192,192,232635,1,0,0:0:0:80:snare-dirty.mp3
448,192,232635,1,0,0:0:0:0:
448,192,232755,128,0,232995:0:0:0:0:
320,192,232755,128,6,232875:0:0:0:0:
64,192,232755,128,0,232995:0:0:0:0:
320,192,232995,1,0,0:0:0:0:
192,192,232995,1,0,0:0:0:80:snare-dirty.mp3
64,192,233115,128,0,233355:0:0:0:0:
192,192,233115,128,0,233355:0:0:0:0:
448,192,233115,128,6,233175:0:0:0:0:
320,192,233235,1,0,0:0:0:80:snare-dirty.mp3
448,192,233235,1,0,0:0:0:0:
192,192,233475,128,6,233535:0:0:0:0:
320,192,233475,128,0,233715:0:0:0:0:
448,192,233475,128,0,233715:0:0:0:0:
192,192,233595,1,0,0:0:0:80:snare-dirty.mp3
64,192,233595,1,0,0:0:0:0:
64,192,233835,1,0,0:0:0:0:
192,192,233865,1,0,0:0:0:0:
320,192,233895,1,0,0:0:0:0:
448,192,233925,1,0,0:0:0:0:
64,192,233955,1,0,0:0:0:0:
192,192,233985,1,0,0:0:0:0:
320,192,234015,1,0,0:0:0:0:
448,192,234045,1,0,0:0:0:0:
64,192,234075,1,0,0:0:0:0:
192,192,234105,1,0,0:0:0:0:
320,192,234135,1,0,0:0:0:0:
448,192,234165,1,0,0:0:0:0:
64,192,234195,1,0,0:0:0:0:
192,192,234225,1,0,0:0:0:0:
320,192,234255,1,0,0:0:0:0:
64,192,234315,128,0,234555:0:0:0:0:
192,192,234315,128,6,234375:0:0:0:0:
448,192,234315,128,0,234555:0:0:0:0:
192,192,234435,1,0,0:0:0:0:
320,192,234435,1,0,0:0:0:80:snare-dirty.mp3
64,192,234675,128,0,234915:0:0:0:0:
320,192,234675,128,0,234915:0:0:0:0:
448,192,234675,128,6,234795:0:0:0:0:
448,192,234915,1,0,0:0:0:0:
192,192,234915,1,0,0:0:0:80:snare-dirty.mp3
64,192,235035,128,0,235155:0:0:0:0:
192,192,235035,128,0,235155:0:0:0:0:
320,192,235035,128,6,235095:0:0:0:0:
448,192,235155,1,0,0:0:0:0:
320,192,235155,1,0,0:0:0:80:snare-dirty.mp3
64,192,235275,1,0,0:0:0:0:
192,192,235315,1,0,0:0:0:0:
320,192,235355,1,0,0:0:0:0:
64,192,235395,1,6,0:0:0:0:
448,192,235395,1,0,0:0:0:0:
192,192,235435,1,0,0:0:0:0:
320,192,235475,1,0,0:0:0:0:
448,192,235515,1,0,0:0:0:0:
64,192,235515,1,0,0:0:0:80:snare-dirty.mp3
192,192,235555,1,0,0:0:0:0:
320,192,235595,1,0,0:0:0:0:
448,192,235635,1,0,0:0:0:0:
64,192,235635,1,0,0:0:0:0:
192,192,235675,1,0,0:0:0:0:
320,192,235715,1,0,0:0:0:0:
448,192,235755,1,0,0:0:0:0:
64,192,235755,1,6,0:0:0:0:
192,192,235795,1,0,0:0:0:0:
320,192,235835,1,0,0:0:0:0:
448,192,235875,1,0,0:0:0:0:
64,192,235875,1,0,0:0:0:80:snare-dirty.mp3
192,192,235915,1,0,0:0:0:0:
320,192,235955,1,0,0:0:0:0:
448,192,235995,1,0,0:0:0:0:
64,192,235995,1,6,0:0:0:0:
192,192,236035,1,0,0:0:0:0:
320,192,236075,1,0,0:0:0:0:
64,192,236115,1,0,0:0:0:80:snare-dirty.mp3
448,192,236115,1,0,0:0:0:0:
192,192,236155,1,0,0:0:0:0:
320,192,236195,1,0,0:0:0:0:
448,192,236235,1,0,0:0:0:0:
64,192,236235,1,2,0:0:0:0:
64,192,236715,1,0,0:0:0:0:
192,192,236775,1,0,0:0:0:0:
320,192,236835,1,0,0:0:0:0:
448,192,236895,1,0,0:0:0:0:
320,192,236955,1,0,0:0:0:0:
192,192,237015,1,0,0:0:0:0:
64,192,237075,1,0,0:0:0:0:
192,192,237135,1,0,0:0:0:0:
320,192,237195,1,0,0:0:0:0:
192,192,237255,1,0,0:0:0:0:
64,192,237315,1,0,0:0:0:0:
192,192,237375,1,0,0:0:0:0:
320,192,237435,1,0,0:0:0:0:
448,192,237495,1,0,0:0:0:0:
320,192,237555,1,0,0:0:0:0:
192,192,237615,1,0,0:0:0:0:
320,192,237675,1,0,0:0:0:0:
448,192,237735,1,0,0:0:0:0:
320,192,237795,1,0,0:0:0:0:
192,192,237855,1,0,0:0:0:0:
64,192,237915,1,0,0:0:0:0:
448,192,238155,128,0,238275:0:0:0:0:
192,192,238155,128,6,238275:0:0:0:0:
64,192,238155,128,0,238275:0:0:0:0:
448,192,238395,1,0,0:0:0:0:
320,192,238415,1,0,0:0:0:0:
192,192,238435,1,0,0:0:0:0:
64,192,238455,1,0,0:0:0:0:
448,192,238515,1,0,0:0:0:0:
320,192,238515,1,10,0:0:0:0:
192,192,238575,1,10,0:0:0:0:
64,192,238575,1,0,0:0:0:0:
320,192,238635,1,10,0:0:0:0:
448,192,238635,1,0,0:0:0:0:
64,192,238695,1,0,0:0:0:0:
192,192,238695,1,10,0:0:0:0:
320,192,238755,1,10,0:0:0:0:
448,192,238755,1,0,0:0:0:0:
192,192,238815,1,10,0:0:0:0:
64,192,238815,1,0,0:0:0:0:
448,192,238875,1,0,0:0:0:0:
320,192,238875,1,10,0:0:0:0:
192,192,238935,1,10,0:0:0:0:
64,192,238935,1,0,0:0:0:0:
320,192,238995,1,10,0:0:0:0:
448,192,238995,1,0,0:0:0:0:
192,192,239055,1,10,0:0:0:0:
64,192,239055,1,0,0:0:0:0:
320,192,239115,1,10,0:0:0:0:
448,192,239115,1,0,0:0:0:0:
192,192,239175,1,10,0:0:0:0:
64,192,239175,1,0,0:0:0:0:
320,192,239235,1,10,0:0:0:0:
448,192,239235,1,0,0:0:0:0:
192,192,239295,1,10,0:0:0:0:
64,192,239295,1,0,0:0:0:0:
320,192,239355,1,10,0:0:0:0:
448,192,239355,1,0,0:0:0:0:
192,192,239415,1,10,0:0:0:0:
64,192,239415,1,0,0:0:0:0:
320,192,239475,1,10,0:0:0:0:
448,192,239475,1,0,0:0:0:0:
192,192,239535,1,10,0:0:0:0:
64,192,239535,1,0,0:0:0:0:
320,192,239595,1,10,0:0:0:0:
448,192,239595,1,0,0:0:0:0:
192,192,239655,1,10,0:0:0:0:
64,192,239655,1,0,0:0:0:0:
320,192,239715,1,10,0:0:0:0:
448,192,239715,1,0,0:0:0:0:
192,192,239775,1,10,0:0:0:0:
64,192,239775,1,0,0:0:0:0:
448,192,239835,1,0,0:0:0:0:
320,192,239835,1,10,0:0:0:0:
192,192,239895,1,10,0:0:0:0:
64,192,239895,1,0,0:0:0:0:
320,192,239955,1,10,0:0:0:0:
448,192,239955,1,0,0:0:0:0:
192,192,240015,1,10,0:0:0:0:
64,192,240015,1,0,0:0:0:0:
320,192,240075,128,6,240195:0:0:0:0:
448,192,240075,128,0,240195:0:0:0:0:
64,192,240075,128,0,240195:0:0:0:0:
64,192,240315,1,0,0:0:0:0:
192,192,240335,1,0,0:0:0:0:
320,192,240355,1,0,0:0:0:0:
448,192,240375,1,0,0:0:0:0:
192,192,240435,1,10,0:0:0:0:
64,192,240435,1,0,0:0:0:0:
320,192,240495,1,10,0:0:0:0:
448,192,240495,1,0,0:0:0:0:
192,192,240555,1,10,0:0:0:0:
64,192,240555,1,0,0:0:0:0:
320,192,240615,1,10,0:0:0:0:
448,192,240615,1,0,0:0:0:0:
192,192,240675,1,10,0:0:0:0:
64,192,240675,1,0,0:0:0:0:
320,192,240735,1,10,0:0:0:0:
448,192,240735,1,0,0:0:0:0:
192,192,240795,1,10,0:0:0:0:
64,192,240795,1,0,0:0:0:0:
320,192,240855,1,10,0:0:0:0:
448,192,240855,1,0,0:0:0:0:
192,192,240915,1,10,0:0:0:0:
64,192,240915,1,0,0:0:0:0:
320,192,240975,1,10,0:0:0:0:
448,192,240975,1,0,0:0:0:0:
192,192,241035,1,10,0:0:0:0:
64,192,241035,1,0,0:0:0:0:
320,192,241095,1,10,0:0:0:0:
448,192,241095,1,0,0:0:0:0:
192,192,241155,1,10,0:0:0:0:
64,192,241155,1,0,0:0:0:0:
320,192,241215,1,10,0:0:0:0:
448,192,241215,1,0,0:0:0:0:
192,192,241275,1,10,0:0:0:0:
64,192,241275,1,0,0:0:0:0:
320,192,241335,1,10,0:0:0:0:
448,192,241335,1,0,0:0:0:0:
192,192,241395,1,10,0:0:0:0:
64,192,241395,1,0,0:0:0:0:
320,192,241455,1,10,0:0:0:0:
448,192,241455,1,0,0:0:0:0:
192,192,241515,1,10,0:0:0:0:
64,192,241515,1,0,0:0:0:0:
320,192,241575,1,10,0:0:0:0:
448,192,241575,1,0,0:0:0:0:
192,192,241635,1,10,0:0:0:0:
64,192,241635,1,0,0:0:0:0:
320,192,241695,1,10,0:0:0:0:
448,192,241695,1,0,0:0:0:0:
192,192,241755,1,10,0:0:0:0:
64,192,241755,1,0,0:0:0:0:
320,192,241815,1,10,0:0:0:0:
448,192,241815,1,0,0:0:0:0:
192,192,241875,1,10,0:0:0:0:
64,192,241875,1,0,0:0:0:0:
320,192,241935,1,10,0:0:0:0:
448,192,241935,1,0,0:0:0:0:
192,192,241995,1,6,0:0:0:0:
64,192,241995,1,0,0:0:0:0:
448,192,241995,1,0,0:0:0:0:
320,192,242115,1,0,0:0:0:0:
448,192,242235,1,0,0:0:0:0:
64,192,242355,1,0,0:0:0:0:
320,192,242475,1,8,0:0:0:0:
448,192,242475,1,0,0:0:0:0:
192,192,242595,1,0,0:0:0:0:
64,192,242715,1,0,0:0:0:0:
320,192,242715,1,2,0:0:0:0:
448,192,242835,1,0,0:0:0:0:
192,192,242955,1,0,0:0:0:0:
64,192,243075,1,0,0:0:0:0:
448,192,243195,1,0,0:0:0:0:
320,192,243195,1,8,0:0:0:0:
192,192,243315,1,0,0:0:0:0:
64,192,243435,1,2,0:0:0:0:
448,192,243435,1,0,0:0:0:0:
320,192,243555,1,0,0:0:0:0:
192,192,243675,1,2,0:0:0:0:
64,192,243675,1,0,0:0:0:0:
320,192,243795,1,2,0:0:0:0:
448,192,243795,1,0,0:0:0:0:
192,192,243915,1,2,0:0:0:0:
64,192,243915,1,0,0:0:0:0:
448,192,244035,1,0,0:0:0:0:
320,192,244155,1,0,0:0:0:0:
64,192,244275,1,0,0:0:0:0:
192,192,244395,1,8,0:0:0:0:
448,192,244395,1,0,0:0:0:0:
320,192,244515,1,0,0:0:0:0:
64,192,244635,1,0,0:0:0:0:
192,192,244635,1,2,0:0:0:0:
448,192,244755,1,0,0:0:0:0:
320,192,244875,1,0,0:0:0:0:
64,192,244995,1,0,0:0:0:0:
192,192,245115,1,8,0:0:0:0:
448,192,245115,1,0,0:0:0:0:
320,192,245235,1,0,0:0:0:0:
64,192,245355,1,2,0:0:0:0:
448,192,245355,1,0,0:0:0:0:
192,192,245475,1,2,0:0:0:0:
64,192,245475,1,0,0:0:0:0:
320,192,245595,1,2,0:0:0:0:
448,192,245595,1,0,0:0:0:0:
192,192,245715,1,2,0:0:0:0:
64,192,245715,1,0,0:0:0:0:
320,192,245835,1,2,0:0:0:0:
448,192,245835,1,0,0:0:0:0:
192,192,245955,1,0,0:0:0:0:
448,192,246075,1,0,0:0:0:0:
320,192,246195,1,0,0:0:0:0:
64,192,246315,1,8,0:0:0:0:
448,192,246315,1,0,0:0:0:0:
192,192,246435,1,0,0:0:0:0:
320,192,246555,1,2,0:0:0:0:
64,192,246555,1,0,0:0:0:0:
448,192,246675,1,0,0:0:0:0:
192,192,246795,1,0,0:0:0:0:
64,192,246915,1,0,0:0:0:0:
320,192,247035,1,8,0:0:0:0:
448,192,247035,1,0,0:0:0:0:
64,192,247155,1,0,0:0:0:0:
192,192,247275,1,2,0:0:0:0:
320,192,247275,1,0,0:0:0:0:
448,192,247395,1,0,0:0:0:0:
64,192,247515,1,0,0:0:0:0:
192,192,247515,1,2,0:0:0:0:
320,192,247635,1,2,0:0:0:0:
448,192,247635,1,0,0:0:0:0:
64,192,247755,1,0,0:0:0:0:
192,192,247755,1,10,0:0:0:0:
448,192,247875,1,0,0:0:0:0:
320,192,247995,1,0,0:0:0:0:
64,192,248115,1,0,0:0:0:0:
192,192,248235,1,8,0:0:0:0:
448,192,248235,1,0,0:0:0:0:
320,192,248355,1,0,0:0:0:0:
64,192,248475,1,0,0:0:0:0:
192,192,248475,1,2,0:0:0:0:
448,192,248595,1,0,0:0:0:0:
320,192,248715,1,0,0:0:0:0:
192,192,248835,1,0,0:0:0:0:
64,192,248955,1,0,0:0:0:0:
448,192,248955,1,8,0:0:0:0:
320,192,249075,1,0,0:0:0:0:
192,192,249195,1,2,0:0:0:0:
64,192,249195,1,0,0:0:0:0:
448,192,249315,1,0,0:0:0:0:
192,192,249435,1,2,0:0:0:0:
64,192,249435,1,0,0:0:0:0:
320,192,249555,1,2,0:0:0:0:
448,192,249555,1,0,0:0:0:0:
192,192,249675,1,8,0:0:0:0:
448,192,249675,1,0,0:0:0:0:
64,192,249675,128,0,250635:0:0:0:0:
320,192,249795,1,0,0:0:0:0:
192,192,249915,1,0,0:0:0:0:
320,192,250035,1,0,0:0:0:0:
448,192,250155,1,0,0:0:0:0:
192,192,250275,1,0,0:0:0:0:
320,192,250395,1,0,0:0:0:0:
192,192,250515,1,0,0:0:0:0:
320,192,250635,1,0,0:0:0:0:
448,192,250635,128,0,251595:0:0:0:0:
192,192,250755,1,0,0:0:0:0:
64,192,250875,1,0,0:0:0:0:
320,192,250995,1,0,0:0:0:0:
192,192,251115,1,0,0:0:0:0:
320,192,251235,1,0,0:0:0:0:
192,192,251355,1,0,0:0:0:0:
64,192,251475,1,0,0:0:0:0:
192,192,251595,1,0,0:0:0:0:
320,192,251595,128,0,252555:0:0:0:0:
448,192,251715,1,0,0:0:0:0:
64,192,251835,1,0,0:0:0:0:
192,192,251955,1,0,0:0:0:0:
448,192,252075,1,0,0:0:0:0:
64,192,252195,1,0,0:0:0:0:
448,192,252315,1,0,0:0:0:0:
192,192,252435,1,0,0:0:0:0:
448,192,252555,1,0,0:0:0:0:
64,192,252555,128,0,253515:0:0:0:0:
320,192,252675,1,0,0:0:0:0:
192,192,252795,1,0,0:0:0:0:
320,192,252915,1,0,0:0:0:0:
448,192,253035,1,0,0:0:0:0:
320,192,253155,1,0,0:0:0:0:
192,192,253275,1,0,0:0:0:0:
448,192,253395,1,0,0:0:0:0:
320,192,253515,128,0,255435:0:0:0:0:
192,192,255435,128,0,260235:0:0:0:0:
