osu file format v14

[General]
AudioFilename: audio.mp3
AudioLeadIn: 0
PreviewTime: 271518
Countdown: 0
SampleSet: Soft
StackLeniency: 0.5
Mode: 0
LetterboxInBreaks: 0
WidescreenStoryboard: 1

[Editor]
Bookmarks: 1420,57233,65804,100090,125804,134375,175090,192233,209375,226518,254375,288661,322947,340090,352947,356697
DistanceSpacing: 1.2
BeatDivisor: 8
GridSize: 16
TimelineZoom: 3.299999

[Metadata]
Title:Shadowbringers
TitleUnicode:Shadowbringers
Artist:Husky by the Geek feat. Studio Nicktendo
ArtistUnicode:Husky by the Geek feat. Studio Nicktendo
Creator:moph
Version:Insane
Source:ファイナルファンタジーXIV: 漆黒のヴィランズ
Tags:final fantasy xiv ff14 ffxiv iii 3 eternal wind 祖堅正慶 masayoshi soken english rock cover
BeatmapID:3314920
BeatmapSetID:1618245

[Difficulty]
HPDrainRate:5
CircleSize:3.8
OverallDifficulty:8
ApproachRate:9.1
SliderMultiplier:1.9
SliderTickRate:1

[Events]
//Background and Video events
0,0,"bg.jpg",0,0
//Break Periods
//Storyboard Layer 0 (Background)
//Storyboard Layer 1 (Fail)
//Storyboard Layer 2 (Pass)
//Storyboard Layer 3 (Foreground)
//Storyboard Layer 4 (Overlay)
//Storyboard Sound Samples

[TimingPoints]
722,697.674418604651,4,2,1,45,1,0
1420,697.674418604651,4,2,1,45,1,0
1420,-333.333333333333,4,2,1,45,0,0
57233,535.714285714286,4,2,1,45,1,0
100090,-133.333333333333,4,2,1,45,0,0
123661,-133.333333333333,4,2,1,55,0,0
124733,-80,4,2,1,65,0,0
125804,-133.333333333333,4,2,1,70,0,0
127143,-80,4,2,1,70,0,0
127947,-133.333333333333,4,2,1,70,0,0
129286,-80,4,2,1,70,0,0
130090,-133.333333333333,4,2,1,70,0,0
131429,-80,4,2,1,70,0,0
132233,-133.333333333333,4,2,1,70,0,0
133572,-80,4,2,1,70,0,0
134375,-200,4,2,1,50,0,0
151518,-133.333333333333,4,2,1,60,0,0
172143,-66.6666666666667,4,2,1,60,0,0
172947,-133.333333333333,4,2,1,50,0,0
173884,-333.333333333333,4,2,1,70,0,0
174018,-66.6666666666667,4,2,1,70,0,0
175090,-45.4545454545455,4,2,1,80,0,0
175291,-66.6666666666667,4,2,1,5,0,0
175358,-66.6666666666667,4,2,1,80,0,0
175826,-66.6666666666667,4,2,1,5,0,0
175893,-66.6666666666667,4,2,1,80,0,0
176630,-66.6666666666667,4,2,1,5,0,0
176697,-66.6666666666667,4,2,1,80,0,0
177233,-45.4545454545455,4,2,1,80,0,0
177433,-66.6666666666667,4,2,1,5,0,0
177500,-66.6666666666667,4,2,1,80,0,0
177969,-66.6666666666667,4,2,1,5,0,0
178036,-66.6666666666667,4,2,1,80,0,0
178773,-66.6666666666667,4,2,1,5,0,0
178840,-66.6666666666667,4,2,1,80,0,0
179375,-45.4545454545455,4,2,1,80,0,0
179576,-66.6666666666667,4,2,1,5,0,0
179643,-66.6666666666667,4,2,1,80,0,0
180112,-66.6666666666667,4,2,1,5,0,0
180179,-66.6666666666667,4,2,1,80,0,0
180916,-66.6666666666667,4,2,1,5,0,0
180983,-66.6666666666667,4,2,1,80,0,0
182255,-66.6666666666667,4,2,1,5,0,0
182322,-66.6666666666667,4,2,1,80,0,0
182456,-40,4,2,1,80,0,0
182657,-40,4,2,1,5,0,0
182724,-40,4,2,1,80,0,0
182924,-40,4,2,1,5,0,0
182991,-66.6666666666667,4,2,1,80,0,0
183661,-45.4545454545455,4,2,1,80,0,0
183862,-66.6666666666667,4,2,1,5,0,0
183929,-66.6666666666667,4,2,1,80,0,0
184398,-66.6666666666667,4,2,1,5,0,0
184465,-66.6666666666667,4,2,1,80,0,0
185804,-45.4545454545455,4,2,1,80,0,0
186005,-66.6666666666667,4,2,1,5,0,0
186072,-66.6666666666667,4,2,1,80,0,0
186541,-66.6666666666667,4,2,1,5,0,0
186608,-66.6666666666667,4,2,1,80,0,0
187344,-66.6666666666667,4,2,1,5,0,0
187411,-45.4545454545455,4,2,1,80,0,0
188148,-66.6666666666667,4,2,1,5,0,0
188215,-66.6666666666667,4,2,1,80,0,0
188683,-66.6666666666667,4,2,1,5,0,0
188750,-66.6666666666667,4,2,1,80,0,0
189487,-66.6666666666667,4,2,1,5,0,0
189554,-66.6666666666667,4,2,1,80,0,0
190291,-66.6666666666667,4,2,1,5,0,0
190358,-66.6666666666667,4,2,1,80,0,0
190826,-66.6666666666667,4,2,1,5,0,0
190893,-66.6666666666667,4,2,1,80,0,0
191027,-40,4,2,1,80,0,0
191228,-50,4,2,1,5,0,0
191295,-50,4,2,1,80,0,0
191697,-66.6666666666667,4,2,1,80,0,0
192233,-151.515151515152,4,2,1,65,0,0
196451,-151.515151515152,4,2,1,5,0,0
196518,-151.515151515152,4,2,1,65,0,0
199933,-151.515151515152,4,2,1,5,0,0
200000,-151.515151515152,4,2,1,65,0,0
205023,-151.515151515152,4,2,1,5,0,0
205090,-151.515151515152,4,2,1,65,0,0
208304,-100,4,2,1,65,0,0
208505,-100,4,2,1,5,0,0
208572,-100,4,2,1,65,0,0
209375,-45.4545454545455,4,2,1,75,0,0
209911,-66.6666666666667,4,2,1,75,0,0
213326,-66.6666666666667,4,2,1,5,0,0
213393,-66.6666666666667,4,2,1,75,0,0
215804,-50,4,2,1,75,0,0
217947,-66.6666666666667,4,2,1,75,0,0
219286,-50,4,2,1,75,0,0
220090,-66.6666666666667,4,2,1,75,0,0
222233,-100,4,2,1,75,0,0
222768,-75.187969924812,4,2,1,75,0,0
223304,-60.2409638554217,4,2,1,75,0,0
223840,-50,4,2,1,75,0,0
224375,-42.9184549356223,4,2,1,75,0,0
224911,-50,4,2,1,75,0,0
225313,-60.2409638554217,4,2,1,75,0,0
226518,-60.2409638554217,4,2,1,75,0,1
243661,-74.0740740740741,4,2,1,70,0,0
253170,-57.1428571428571,4,2,1,70,0,0
253773,-57.1428571428571,4,2,1,5,0,0
253840,-57.1428571428571,4,2,1,70,0,0
254375,-66.6666666666667,4,2,1,70,0,0
258058,-66.6666666666667,4,2,1,5,0,0
258125,-100,4,2,1,70,0,0
258661,-66.6666666666667,4,2,1,70,0,0
266630,-66.6666666666667,4,2,1,5,0,0
266697,-66.6666666666667,4,2,1,70,0,0
271719,-66.6666666666667,4,2,1,5,0,0
271786,-66.6666666666667,4,2,1,70,0,0
272523,-66.6666666666667,4,2,1,5,0,0
272590,-66.6666666666667,4,2,1,70,0,0
273125,-57.1428571428571,4,2,1,70,0,0
273326,-66.6666666666667,4,2,1,5,0,0
273393,-66.6666666666667,4,2,1,70,0,0
273862,-66.6666666666667,4,2,1,5,0,0
273929,-66.6666666666667,4,2,1,70,0,0
274398,-66.6666666666667,4,2,1,5,0,0
274465,-66.6666666666667,4,2,1,70,0,0
275201,-66.6666666666667,4,2,1,5,0,0
275268,-66.6666666666667,4,2,1,70,0,0
276005,-66.6666666666667,4,2,1,5,0,0
276072,-66.6666666666667,4,2,1,70,0,0
276808,-66.6666666666667,4,2,1,5,0,0
276875,-66.6666666666667,4,2,1,70,0,0
277612,-66.6666666666667,4,2,1,5,0,0
277679,-66.6666666666667,4,2,1,70,0,0
278148,-66.6666666666667,4,2,1,5,0,0
278215,-66.6666666666667,4,2,1,70,0,0
278683,-66.6666666666667,4,2,1,5,0,0
278750,-66.6666666666667,4,2,1,70,0,0
279487,-66.6666666666667,4,2,1,5,0,0
279554,-66.6666666666667,4,2,1,70,0,0
280291,-66.6666666666667,4,2,1,5,0,0
280358,-66.6666666666667,4,2,1,70,0,0
281094,-66.6666666666667,4,2,1,5,0,0
281161,-66.6666666666667,4,2,1,70,0,0
282433,-66.6666666666667,4,2,1,5,0,0
282500,-66.6666666666667,4,2,1,70,0,0
282969,-66.6666666666667,4,2,1,5,0,0
283036,-66.6666666666667,4,2,1,70,0,0
283773,-66.6666666666667,4,2,1,5,0,0
283840,-66.6666666666667,4,2,1,70,0,0
284375,-66.6666666666667,4,2,1,70,0,0
284576,-66.6666666666667,4,2,1,5,0,0
284643,-66.6666666666667,4,2,1,70,0,0
285380,-66.6666666666667,4,2,1,5,0,0
285447,-66.6666666666667,4,2,1,70,0,0
286183,-66.6666666666667,4,2,1,5,0,0
286250,-66.6666666666667,4,2,1,70,0,0
286719,-66.6666666666667,4,2,1,5,0,0
286786,-66.6666666666667,4,2,1,70,0,0
287255,-66.6666666666667,4,2,1,5,0,0
287322,-66.6666666666667,4,2,1,70,0,0
287724,-66.6666666666667,4,2,1,75,0,0
288661,-55.5555555555556,4,2,1,85,0,1
290804,-50,4,2,1,85,0,1
291005,-50,4,2,1,5,0,1
291072,-50,4,2,1,85,0,1
291808,-50,4,2,1,5,0,1
291875,-50,4,2,1,85,0,1
292880,-50,4,2,1,5,0,1
292947,-55.5555555555556,4,2,1,85,0,1
302523,-55.5555555555556,4,2,1,5,0,1
302590,-55.5555555555556,4,2,1,85,0,1
303661,-55.5555555555556,4,2,1,100,0,1
303929,-55.5555555555556,4,2,1,90,0,1
304197,-55.5555555555556,4,2,1,80,0,1
304465,-55.5555555555556,4,2,1,70,0,1
304733,-55.5555555555556,4,2,1,80,0,1
305000,-55.5555555555556,4,2,1,90,0,1
305268,-55.5555555555556,4,2,1,100,0,1
305804,-45.4545454545455,4,2,1,85,0,1
306005,-55.5555555555556,4,2,1,5,0,1
306072,-55.5555555555556,4,2,1,85,0,1
307947,-50,4,2,1,85,0,1
308148,-50,4,2,1,5,0,1
308215,-50,4,2,1,85,0,1
308951,-50,4,2,1,5,0,1
309018,-50,4,2,1,85,0,1
310023,-50,4,2,1,5,0,1
310090,-55.5555555555556,4,2,1,85,0,1
314375,-45.4545454545455,4,2,1,85,0,1
315045,-55.5555555555556,4,2,1,85,0,1
316451,-55.5555555555556,4,2,1,5,0,1
316518,-55.5555555555556,4,2,1,85,0,1
316987,-55.5555555555556,4,2,1,5,0,1
317054,-55.5555555555556,4,2,1,85,0,1
319666,-55.5555555555556,4,2,1,5,0,1
319733,-55.5555555555556,4,2,1,85,0,1
320804,-55.5555555555556,4,2,1,100,0,1
321072,-55.5555555555556,4,2,1,90,0,1
321340,-55.5555555555556,4,2,1,80,0,1
321608,-55.5555555555556,4,2,1,70,0,1
321875,-55.5555555555556,4,2,1,80,0,1
322143,-55.5555555555556,4,2,1,90,0,1
322411,-55.5555555555556,4,2,1,100,0,1
322679,-55.5555555555556,4,2,1,100,0,0
322947,-227.272727272727,4,2,1,70,0,1
325090,-227.272727272727,4,2,1,70,0,0
326697,-200,4,2,1,70,0,0
327166,-200,4,2,1,5,0,0
327233,-232.558139534884,4,2,1,70,0,1
327500,-200,4,2,1,70,0,1
329375,-217.391304347826,4,2,1,70,0,0
330447,-133.333333333333,4,2,1,70,0,0
331518,-83.3333333333333,4,2,1,70,0,1
331920,-83.3333333333333,4,2,1,5,0,1
332054,-83.3333333333333,4,2,1,70,0,1
332456,-83.3333333333333,4,2,1,5,0,1
332590,-83.3333333333333,4,2,1,70,0,1
332991,-83.3333333333333,4,2,1,5,0,1
333125,-83.3333333333333,4,2,1,70,0,1
333527,-83.3333333333333,4,2,1,5,0,1
333661,-83.3333333333333,4,2,1,70,0,0
335268,-250,4,2,1,70,0,0
335804,-83.3333333333333,4,2,1,70,0,1
336206,-83.3333333333333,4,2,1,5,0,1
336340,-83.3333333333333,4,2,1,70,0,1
336741,-83.3333333333333,4,2,1,5,0,1
336875,-83.3333333333333,4,2,1,70,0,1
337277,-83.3333333333333,4,2,1,5,0,1
337411,-83.3333333333333,4,2,1,70,0,1
337947,-100,4,2,1,70,0,0
339152,-66.6666666666667,4,2,1,70,0,0
340090,-66.6666666666667,4,2,1,70,0,0
340291,-66.6666666666667,4,2,1,5,0,0
340358,-66.6666666666667,4,2,1,70,0,0
340826,-66.6666666666667,4,2,1,5,0,0
340893,-66.6666666666667,4,2,1,70,0,0
342233,-66.6666666666667,4,2,1,70,0,0
342433,-66.6666666666667,4,2,1,5,0,0
342500,-66.6666666666667,4,2,1,70,0,0
342969,-66.6666666666667,4,2,1,5,0,0
343036,-66.6666666666667,4,2,1,70,0,0
344375,-66.6666666666667,4,2,1,70,0,0
344576,-66.6666666666667,4,2,1,5,0,0
344643,-66.6666666666667,4,2,1,70,0,0
345112,-66.6666666666667,4,2,1,5,0,0
345179,-66.6666666666667,4,2,1,70,0,0
346518,-66.6666666666667,4,2,1,70,0,0
346719,-66.6666666666667,4,2,1,5,0,0
346786,-66.6666666666667,4,2,1,70,0,0
347255,-66.6666666666667,4,2,1,5,0,0
347322,-66.6666666666667,4,2,1,70,0,0
348661,-66.6666666666667,4,2,1,70,0,0
348862,-66.6666666666667,4,2,1,5,0,0
348929,-66.6666666666667,4,2,1,70,0,0
349398,-66.6666666666667,4,2,1,5,0,0
349465,-66.6666666666667,4,2,1,70,0,0
350804,-66.6666666666667,4,2,1,70,0,0
351005,-66.6666666666667,4,2,1,5,0,0
351072,-66.6666666666667,4,2,1,70,0,0
353014,-66.6666666666667,4,2,1,30,0,0
356630,-66.6666666666667,4,2,1,5,0,0

[Colours]
Combo1 : 180,176,154
Combo2 : 131,148,180
Combo3 : 134,181,183
Combo4 : 148,135,175

[HitObjects]
185,320,99554,5,2,0:2:0:0:
185,320,100090,6,0,P|254:319|308:364,2,142.500005435944,4|2|0,1:2|0:2|0:0,0:0:0:0:
374,93,101697,1,2,0:2:0:0:
374,93,101965,6,0,P|358:44|274:59,1,142.500005435944,2|0,0:2|0:2,0:0:0:0:
279,50,102768,1,2,0:2:0:0:
234,123,103036,1,2,0:2:0:0:
310,161,103304,6,0,P|384:138|463:135,1,142.500005435944,0|2,0:2|0:2,0:0:0:0:
444,352,104108,2,0,L|405:348,1,35.625001358986,0|0,1:2|1:2,0:0:0:0:
394,355,104375,6,0,P|406:283|418:209,2,142.500005435944,2|0|0,1:2|0:2|0:0,0:0:0:0:
128,204,105983,1,2,0:2:0:0:
128,204,106250,6,0,B|102:234|64:236|64:236|98:243|116:285,1,142.500005435944,2|2,0:2|0:2,0:0:0:0:
113,279,107054,1,2,0:2:0:0:
38,321,107322,1,2,0:2:0:0:
99,380,107590,2,0,P|134:371|173:367,1,71.2500027179719,0|0,0:2|0:2,0:0:0:0:
296,194,108125,1,2,0:2:0:0:
296,194,108393,2,0,L|301:147,1,35.625001358986,0|0,1:2|1:2,0:0:0:0:
374,134,108661,6,0,L|233:106,2,142.500005435944,2|0|0,1:2|0:2|0:0,0:0:0:0:
374,134,110268,1,2,0:2:0:0:
248,264,110536,1,2,0:2:0:0:
392,375,110804,6,0,B|474:360|429:315|510:304,1,142.500005435944,2|0,0:2|0:2,0:0:0:0:
328,223,111608,2,0,B|364:231|347:245|391:251,2,71.2500027179719,2|0|0,0:2|0:2|0:2,0:0:0:0:
100,274,112411,1,2,0:0:0:0:
100,274,112679,2,0,L|93:321,1,35.625001358986,0|0,1:0|1:0,0:0:0:0:
162,356,112947,6,0,P|95:347|5:337,2,142.500005435944,2|0|0,1:2|0:2|0:0,0:0:0:0:
78,30,114554,1,2,0:2:0:0:
78,30,114822,6,0,P|139:17|168:83,1,142.500005435944,2|2,0:2|0:2,0:0:0:0:
118,140,115625,1,0,0:2:0:0:
49,101,115893,1,0,0:0:0:0:
51,264,116161,2,0,P|48:237|26:192,1,71.2500027179719,2|0,0:2|0:2,0:0:0:0:
29,197,116697,5,2,0:2:0:0:
118,61,116965,1,0,1:2:0:0:
175,224,117233,6,0,P|147:283|129:362,1,142.500005435944,2|0,1:2|0:2,0:0:0:0:
129,357,118036,1,2,0:2:0:0:
207,125,118773,2,0,P|196:87|164:33,1,89.0625033974649,2|2,0:2|0:2,0:0:0:0:
150,188,119375,6,0,P|206:168|297:157,1,142.500005435944,2|0,0:2|0:2,0:0:0:0:
283,25,120179,2,0,P|339:45|430:56,1,142.500005435944,2|0,0:2|0:2,0:0:0:0:
493,126,120983,2,0,P|461:128|419:150,1,71.2500027179719,2|0,0:2|1:2,0:0:0:0:
366,326,121518,6,0,P|354:254|338:180,2,142.500005435944,2|0|0,1:2|0:2|0:2,0:0:0:0:
297,378,122858,1,2,0:2:0:0:
244,310,123125,2,0,P|253:276|261:240,1,71.2500027179719,2|2,0:2|0:2,0:0:0:0:
259,69,123661,6,0,B|306:75|283:87|341:95,3,71.2500027179719,2|0|0|0,1:2|0:2|1:2|0:2,0:0:0:0:
411,55,124733,6,0,P|301:81|170:113,1,237.5,2|6,1:2|1:2,0:0:0:0:
89,380,125804,5,6,1:2:0:0:
42,309,126072,2,0,B|22:329|4:332|4:332|173:356,1,213.750008153916,2|0,1:2|0:2,0:0:0:0:
170,355,127143,6,0,L|147:290,1,59.375,2|0,1:2|0:0,0:0:0:0:
51,178,127411,1,8,0:2:0:0:
51,178,127545,2,0,B|102:191|102:191|108:199|108:199|162:212,1,118.75,2|0,1:2|0:2,0:0:0:0:
308,262,127947,5,6,1:2:0:0:
336,338,128215,2,0,B|365:350|375:384|375:384|368:295|433:235,1,213.750008153916,2|0,1:2|0:2,0:0:0:0:
422,245,129286,6,0,P|402:240|360:210,1,59.375,2|0,1:2|0:0,0:0:0:0:
413,76,129554,1,8,0:2:0:0:
413,76,129688,2,0,P|456:82|513:134,1,118.75,2|0,1:2|0:2,0:0:0:0:
319,148,130090,5,6,1:2:0:0:
284,226,130358,2,0,P|276:143|256:10,1,213.750008153916,2|0,1:2|0:2,0:0:0:0:
256,14,131429,6,0,L|198:33,1,59.375,2|0,1:2|0:0,0:0:0:0:
119,160,131697,1,8,0:2:0:0:
119,160,131831,2,0,B|51:153|84:116|12:109,1,118.75,2|0,1:2|0:2,0:0:0:0:
183,112,132233,1,6,1:2:0:0:
154,351,132500,6,0,P|149:311|140:270,2,71.2500027179719,2|0|0,1:2|0:2|1:2,0:0:0:0:
71,327,133304,1,0,0:2:0:0:
71,327,133572,6,0,P|38:334|5:345,1,59.375,0|0,1:2|1:2,0:0:0:0:
77,231,133840,1,8,0:2:0:0:
157,365,133974,1,8,0:2:0:0:
158,248,134108,2,0,P|191:241|224:230,1,59.375,8|8,0:2|0:2,0:0:0:0:
260,74,134375,6,0,P|254:57|246:18,2,47.5,2|0|2,1:2|0:0|0:2,0:0:0:0:
250,275,135447,2,0,P|259:303|272:369,1,95,2|0,0:2|0:2,0:0:0:0:
182,328,136250,6,0,P|156:322|133:317,1,47.5,0|2,0:0|1:2,0:0:0:0:
28,383,136786,2,0,P|46:363|62:346,1,47.5,0|2,1:2|0:2,0:0:0:0:
58,225,137322,2,0,P|65:250|72:272,1,47.5,0|2,0:2|0:2,0:0:0:0:
0,156,137858,6,0,L|74:138,1,71.25,0|0,1:2|1:2,0:0:0:0:
206,68,138661,6,0,P|209:41|216:15,2,47.5,2|0|2,1:2|1:2|0:2,0:0:0:0:
321,281,139733,2,0,P|315:328|301:374,1,95,2|0,0:2|0:2,0:0:0:0:
382,219,140536,6,0,P|405:205|428:198,1,47.5,2|0,0:2|1:2,0:0:0:0:
512,161,141072,2,0,P|488:147|470:130,1,47.5,2|0,1:2|0:2,0:0:0:0:
396,78,141608,2,0,P|395:105|390:128,1,47.5,2|2,0:2|0:2,0:0:0:0:
263,135,142143,6,0,P|255:100|252:64,1,71.25,0|0,1:2|1:2,0:0:0:0:
252,64,142947,6,0,P|230:70|199:72,2,47.5,2|0|2,1:2|1:2|0:2,0:0:0:0:
237,329,144018,2,0,P|276:315|333:309,1,95,2|0,0:2|0:2,0:0:0:0:
168,374,144822,6,0,P|160:342|148:323,1,47.5,2|0,0:2|1:2,0:0:0:0:
36,294,145358,2,0,P|67:303|90:302,1,47.5,2|0,1:2|0:2,0:0:0:0:
173,215,145893,2,0,P|149:237|138:257,1,47.5,2|2,0:2|0:2,0:0:0:0:
75,104,146429,6,0,B|118:109|97:123|147:130,1,71.25,0|0,1:2|1:2,0:0:0:0:
305,72,147233,6,0,P|307:46|313:24,2,47.5,2|0|2,1:2|1:2|0:2,0:0:0:0:
200,289,148304,2,0,P|192:344|179:382,1,95,2|0,0:2|0:2,0:0:0:0:
140,230,149108,6,0,P|144:205|155:182,1,47.5,2|0,0:2|1:2,0:0:0:0:
259,123,149643,2,0,P|235:132|209:134,1,47.5,2|0,1:2|0:2,0:0:0:0:
105,69,150179,2,0,P|124:84|139:105,1,47.5,2|2,0:2|0:2,0:0:0:0:
220,230,150715,6,0,B|260:224|241:212|296:204,1,71.25,0|2,1:2|1:2,0:0:0:0:
425,30,151518,6,0,P|451:41|473:48,1,35.625001358986,2|0,1:2|0:2,0:0:0:0:
503,109,151786,2,0,P|486:115|470:122,1,35.625001358986,0|0,1:2|0:2,0:0:0:0:
435,189,152054,2,0,L|438:227,2,35.625001358986,2|0|0,0:2|0:2|0:2,0:0:0:0:
435,189,152590,5,0,0:2:0:0:
512,295,152858,2,0,B|446:313|483:333|409:350,1,106.875004076958,0|0,1:2|1:2,0:0:0:0:
420,346,153661,6,0,P|417:324|408:303,1,35.625001358986,2|0,1:2|0:2,0:0:0:0:
340,268,153929,2,0,P|337:290|328:311,1,35.625001358986,0|0,1:2|0:2,0:0:0:0:
270,351,154197,2,0,P|245:355|219:359,2,35.625001358986,2|0|0,0:2|0:2|0:2,0:0:0:0:
270,351,154733,5,0,0:2:0:0:
110,273,155000,1,0,1:2:0:0:
283,221,155268,1,8,0:2:0:0:
283,221,155402,2,0,P|285:180|286:140,1,71.2500027179719,0|0,1:2|0:2,0:0:0:0:
285,130,155804,6,0,P|258:135|239:132,1,35.625001358986,2|0,1:2|0:2,0:0:0:0:
200,70,156072,2,0,P|182:69|165:74,1,35.625001358986,0|0,1:2|0:2,0:0:0:0:
107,123,156340,2,0,L|72:118,2,35.625001358986,2|0|0,0:2|0:2|0:2,0:0:0:0:
107,123,156875,5,0,0:2:0:0:
201,229,157143,2,0,B|135:247|172:267|98:284,1,106.875004076958,0|0,1:2|1:2,0:0:0:0:
109,280,157947,6,0,P|133:295|145:304,1,35.625001358986,2|0,1:2|0:2,0:0:0:0:
172,371,158215,2,0,P|186:360|201:351,1,35.625001358986,0|0,1:2|0:2,0:0:0:0:
262,304,158483,2,0,L|300:309,2,35.625001358986,2|0|0,0:2|0:2|0:2,0:0:0:0:
262,304,159018,5,0,0:2:0:0:
91,214,159286,1,0,1:2:0:0:
287,212,159554,1,8,0:2:0:0:
287,212,159688,2,0,P|291:173|296:139,1,71.2500027179719,0|0,1:2|0:0,0:0:0:0:
206,54,160090,6,0,P|206:70|214:89,1,35.625001358986,2|0,1:2|0:2,0:0:0:0:
392,61,160358,2,0,P|392:45|384:26,1,35.625001358986,0|0,1:2|0:2,0:0:0:0:
283,58,160625,6,0,L|321:67,2,35.625001358986,2|0|0,0:2|0:2|0:2,0:0:0:0:
283,58,161161,1,0,0:2:0:0:
215,235,161429,2,0,B|211:299|247:271|243:334,1,106.875004076958,0|0,1:2|1:2,0:0:0:0:
243,334,162233,6,0,P|224:324|195:321,1,35.625001358986,2|0,1:2|0:2,0:0:0:0:
19,329,162500,2,0,P|38:339|67:342,1,35.625001358986,0|0,1:2|0:2,0:0:0:0:
137,317,162768,6,0,P|127:344|124:362,2,35.625001358986,2|0|0,0:2|0:2|0:2,0:0:0:0:
137,317,163304,1,0,0:2:0:0:
279,187,163572,1,0,1:2:0:0:
385,347,163840,1,8,0:2:0:0:
453,308,163974,2,0,P|443:273|440:239,1,71.2500027179719,0|0,1:2|0:0,0:0:0:0:
441,221,164375,6,0,P|414:222|397:227,1,35.625001358986,2|0,1:2|0:2,0:0:0:0:
310,49,164643,2,0,P|327:52|345:51,1,35.625001358986,0|0,1:2|0:2,0:0:0:0:
367,154,164911,6,0,P|374:137|382:122,2,35.625001358986,2|0|0,0:2|0:2|0:2,0:0:0:0:
367,154,165447,1,0,0:2:0:0:
237,296,165715,1,0,1:2:0:0:
166,116,165983,1,8,0:2:0:0:
92,151,166116,2,0,P|52:143|9:140,1,71.2500027179719,0|0,1:2|0:0,0:0:0:0:
21,140,166518,6,0,L|31:177,1,35.625001358986,2|0,1:2|0:2,0:0:0:0:
39,368,166786,2,0,L|29:331,1,35.625001358986,0|0,1:2|0:2,0:0:0:0:
11,251,167054,6,0,L|48:256,2,35.625001358986,2|0|0,0:2|0:2|0:2,0:0:0:0:
11,251,167590,1,0,0:2:0:0:
175,150,167858,1,0,1:2:0:0:
186,341,168125,2,0,P|203:336|220:331,1,35.625001358986,8|0,0:2|1:2,0:0:0:0:
237,252,168393,1,0,1:2:0:0:
457,296,168661,6,0,L|444:338,1,35.625001358986,2|0,1:2|0:2,0:0:0:0:
322,234,168929,2,0,L|335:192,1,35.625001358986,0|0,1:2|0:2,0:0:0:0:
447,154,169197,2,0,L|460:112,1,35.625001358986,2|0,0:2|0:2,0:0:0:0:
425,48,169465,1,0,1:2:0:0:
425,48,169733,5,0,0:2:0:0:
332,199,170000,1,0,1:2:0:0:
295,24,170268,1,8,0:2:0:0:
241,91,170402,2,0,L|170:78,1,71.2500027179719,0|0,1:2|0:2,0:0:0:0:
170,78,170804,6,0,P|179:102|185:126,1,35.625001358986,2|0,1:2|0:2,0:0:0:0:
288,194,171072,2,0,P|281:210|276:227,1,35.625001358986,0|0,1:2|0:2,0:0:0:0:
148,266,171340,2,0,P|154:282|159:299,1,35.625001358986,2|0,0:2|0:2,0:0:0:0:
220,357,171608,1,0,1:2:0:0:
409,302,171875,1,0,0:2:0:0:
409,302,172143,6,0,B|399:333|399:333|401:335|401:335|388:377,1,71.2500027179719,0|0,1:2|1:2,0:0:0:0:
348,226,172411,1,8,0:2:0:0:
500,231,172545,1,8,0:2:0:0:
439,155,172679,2,0,B|448:123|448:123|446:121|446:121|459:79,1,71.2500027179719,0|8,1:2|0:2,0:0:0:0:
460,75,172947,6,0,B|418:111|371:79|374:50|378:50|382:22|335:-14|290:21,1,213.750008153916,4|0,1:2|0:2,0:0:0:0:
297,187,173884,5,0,3:0:0:0:
297,187,173951,1,0,3:0:0:0:
297,187,174018,2,0,P|298:143|314:103,1,71.2500027179719,8|0,0:2|1:2,0:0:0:0:
201,18,174286,2,0,P|210:52|210:87,1,71.2500027179719,0|0,1:2|1:2,0:0:0:0:
135,140,174554,1,8,0:2:0:0:
251,257,174688,1,8,0:2:0:0:
95,280,174822,2,0,P|60:288|25:294,1,71.2500027179719,8|8,0:2|0:2,0:0:0:0:
298,361,175090,6,0,B|337:377|365:359|368:334|364:335|368:307|403:286|445:309,1,156.750004783631,6|0,1:2|0:2,0:0:0:0:
440,308,175358,2,0,P|430:276|428:228,1,71.2500027179719,2|0,1:2|0:2,0:0:0:0:
317,231,175625,2,0,P|330:187|333:121,1,106.875004076958,10|0,0:2|0:2,0:0:0:0:
330,110,175893,1,0,1:2:0:0:
387,10,176027,6,0,P|316:30|214:39,1,142.500005435944,10|0,0:2|0:2,0:0:0:0:
169,173,176429,2,0,P|116:151|45:152,1,106.875004076958,0|0,1:2|0:2,0:0:0:0:
50,150,176697,1,8,0:2:0:0:
159,56,176831,1,0,1:2:0:0:
100,239,176965,2,0,P|112:280|119:317,1,71.2500027179719,2|2,1:2|1:2,0:0:0:0:
268,365,177233,6,0,P|275:278|318:192,1,156.750004783631,2|0,1:2|0:2,0:0:0:0:
312,200,177500,2,0,P|269:212|237:216,1,71.2500027179719,2|0,1:2|0:2,0:0:0:0:
325,64,177768,2,0,P|382:68|439:97,1,106.875004076958,10|0,0:2|0:2,0:0:0:0:
442,103,178036,1,0,1:2:0:0:
249,16,178170,6,0,P|194:45|101:49,1,142.500005435944,10|0,0:2|0:2,0:0:0:0:
247,239,178572,2,0,P|248:201|220:135,1,106.875004076958,0|0,1:2|0:2,0:0:0:0:
209,124,178840,1,8,0:2:0:0:
78,231,178974,1,0,1:2:0:0:
188,300,179108,2,0,P|175:330|174:375,1,71.2500027179719,2|2,1:2|1:2,0:0:0:0:
0,221,179375,6,0,B|39:237|67:219|70:194|66:195|70:167|105:146|147:169,1,156.750004783631,2|0,1:2|0:2,0:0:0:0:
145,172,179643,2,0,P|132:142|131:97,1,71.2500027179719,2|0,1:2|0:2,0:0:0:0:
281,51,179911,2,0,P|302:123|298:163,1,106.875004076958,10|0,0:2|0:2,0:0:0:0:
296,172,180179,1,0,1:2:0:0:
220,0,180313,2,0,P|294:28|377:33,1,142.500005435944,10|0,0:2|0:2,0:0:0:0:
479,190,180715,2,0,P|425:193|376:212,1,106.875004076958,0|0,1:2|0:2,0:0:0:0:
361,228,180983,5,8,0:2:0:0:
393,372,181116,1,0,1:2:0:0:
469,343,181250,5,2,0:2:0:0:
325,301,181384,1,2,1:2:0:0:
250,347,181518,6,0,P|177:357|104:370,1,142.500005435944,2|2,1:2|1:2,0:0:0:0:
77,87,182054,2,0,P|131:79|185:69,1,106.875004076958,10|0,0:2|0:2,0:0:0:0:
195,60,182322,1,0,1:2:0:0:
300,6,182456,6,0,B|323:43|310:75|284:83|285:79|256:88|241:128|272:168,1,178.125,10|0,0:2|0:2,0:0:0:0:
347,175,182724,2,0,B|366:207|402:208|402:208|280:238,1,178.125,10|0,0:2|0:2,0:0:0:0:
278,241,182991,1,2,1:2:0:0:
284,356,183125,2,0,B|214:337,1,71.2500027179719,10|0,0:2|1:2,0:0:0:0:
159,227,183393,1,0,1:2:0:0:
124,372,183527,1,10,0:2:0:0:
79,263,183661,6,0,P|162:252|245:243,1,156.750004783631,6|0,1:2|0:2,0:0:0:0:
249,247,183929,2,0,P|237:199|237:160,1,71.2500027179719,2|0,1:2|0:2,0:0:0:0:
94,167,184197,2,0,P|108:108|108:60,1,106.875004076958,10|0,0:2|0:2,0:0:0:0:
105,45,184464,1,0,1:2:0:0:
250,96,184599,2,0,P|327:104|397:117,1,142.500005435944,10|0,0:2|0:2,0:0:0:0:
308,8,185000,2,0,P|320:52|327:91,1,71.2500027179719,0|0,1:2|0:0,0:0:0:0:
294,207,185268,5,8,0:2:0:0:
428,296,185402,1,0,1:2:0:0:
413,217,185536,5,2,1:2:0:0:
309,332,185670,1,2,1:2:0:0:
243,288,185804,6,0,B|228:268|187:261|158:305|158:305|159:345|104:368,1,156.750004783631,2|0,1:2|0:2,0:0:0:0:
117,359,186072,2,0,P|79:347|40:340,1,71.2500027179719,2|0,1:2|0:2,0:0:0:0:
26,228,186340,2,0,P|81:227|139:207,1,106.875004076958,10|0,0:2|0:2,0:0:0:0:
144,200,186607,1,0,1:2:0:0:
36,6,186741,2,0,P|55:55|80:152,1,142.500005435944,10|0,0:2|0:2,0:0:0:0:
213,271,187143,2,0,P|226:218|245:167,1,106.875004076958,0|0,1:2|0:2,0:0:0:0:
253,152,187411,5,8,0:2:0:0:
140,54,187545,1,0,1:2:0:0:
154,134,187679,5,2,1:2:0:0:
240,14,187812,1,2,1:2:0:0:
307,61,187947,6,0,B|329:45|364:66|368:94|364:93|367:118|395:136|434:120,1,156.750004783631,2|0,1:2|0:2,0:0:0:0:
448,119,188215,2,0,P|430:152|424:195,1,71.2500027179719,2|0,1:2|0:2,0:0:0:0:
295,254,188483,2,0,P|322:304|331:369,1,106.875004076958,10|0,0:2|0:2,0:0:0:0:
333,371,188750,1,0,1:2:0:0:
349,188,188884,2,0,P|285:214|199:226,1,142.500005435944,10|0,0:2|0:2,0:0:0:0:
0,282,189286,2,0,P|54:290|105:311,1,106.875004076958,0|0,1:2|0:2,0:0:0:0:
117,327,189554,5,8,0:2:0:0:
212,225,189687,1,0,1:2:0:0:
212,306,189821,5,2,1:2:0:0:
115,187,189955,1,2,1:2:0:0:
186,144,190090,6,0,B|179:95|179:95|174:90|174:90|168:23,1,106.875004076958,2|0,1:2|0:2,0:0:0:0:
161,22,190358,2,0,P|202:30|243:38,1,71.2500027179719,2|0,1:2|0:2,0:0:0:0:
302,150,190625,2,0,P|345:139|423:125,1,106.875004076958,10|0,0:2|0:0,0:0:0:0:
426,123,190893,1,0,1:2:0:0:
470,303,191027,2,0,B|427:310|409:361|409:361|405:304|355:273,1,178.125,10|0,0:2|0:2,0:0:0:0:
357,270,191295,1,0,1:2:0:0:
406,127,191429,2,0,B|414:175|414:175|416:176|416:176|425:227,1,95,2|0,1:2|0:0,0:0:0:0:
255,253,191697,5,10,0:2:0:0:
170,370,191831,1,0,1:2:0:0:
170,225,191965,1,8,0:2:0:0:
255,342,192099,1,8,0:2:0:0:
118,298,192233,1,6,1:2:0:0:
118,298,192500,6,0,P|111:226|81:114,1,188.099999425964,0|8,1:2|0:2,0:0:0:0:
81,114,194108,6,0,L|121:120,1,31.3499999043274,0|0,1:2|0:2,0:0:0:0:
177,71,194375,1,0,1:2:0:0:
206,201,194643,2,0,P|259:188|332:183,1,125.39999961731,0|0,1:2|1:2,0:0:0:0:
292,46,195447,6,0,P|292:80|276:112,1,62.6999998086548,10|0,0:2|0:2,0:0:0:0:
400,241,195983,2,0,P|406:191|432:134,1,109.724999665146,2|0,0:2|0:2,0:0:0:0:
443,121,196518,5,2,1:2:0:0:
465,336,196786,2,0,P|380:349|279:369,1,188.099999425964,0|8,1:2|0:2,0:0:0:0:
279,368,198393,6,0,P|286:344|284:326,1,31.3499999043274,0|0,1:2|0:2,0:0:0:0:
261,264,198661,1,0,1:2:0:0:
148,373,198929,2,0,P|148:321|188:252,1,125.39999961731,0|0,1:2|1:2,0:0:0:0:
84,153,199733,6,0,P|104:181|112:206,1,47.0249998564911,10|0,0:2|0:2,0:0:0:0:
113,212,200000,1,0,1:2:0:0:
204,177,200134,2,0,P|181:142|166:83,1,94.0499997129822,2|8,1:2|0:2,0:0:0:0:
267,18,200804,5,6,1:2:0:0:
90,65,201072,2,0,P|179:61|272:15,1,188.099999425964,0|8,1:2|0:2,0:0:0:0:
306,357,202947,5,2,1:2:0:0:
430,338,203215,2,0,P|369:342|304:357,1,125.39999961731,0|2,1:2|1:2,0:0:0:0:
331,209,204018,6,0,P|334:240|356:278,1,62.6999998086548,8|0,0:2|0:2,0:0:0:0:
215,334,204554,2,0,P|210:294|178:225,1,109.724999665146,2|0,0:2|0:2,0:0:0:0:
171,220,205090,5,2,1:2:0:0:
55,62,205358,2,0,P|156:53|249:37,1,188.099999425964,0|8,1:2|0:2,0:0:0:0:
241,38,206697,5,0,0:2:0:0:
17,142,206965,1,0,0:2:0:0:
228,269,207233,5,2,1:2:0:0:
236,143,207500,2,0,P|230:206|228:269,1,125.39999961731,0|0,1:2|1:2,0:0:0:0:
34,215,208304,6,0,P|68:212|112:196,1,71.25,10|0,0:2|0:2,0:0:0:0:
119,187,208572,1,0,1:2:0:0:
179,338,208706,2,0,P|118:343|40:371,1,142.5,0|8,1:2|0:2,0:0:0:0:
34,54,209375,6,0,B|75:18|124:60|117:92|111:91|101:118|157:156|198:113,1,209.000006378174,6|0,1:2|1:2,0:0:0:0:
243,20,209777,1,0,0:2:0:0:
318,168,209911,2,0,P|282:166|240:200,1,71.2500027179719,10|0,0:2|0:2,0:0:0:0:
243,20,210179,2,0,P|304:52|403:63,2,142.500005435944,2|0|0,1:2|0:2|1:2,0:0:0:0:
88,29,210849,1,0,1:2:0:0:
192,119,210983,2,0,P|172:150|170:196,1,71.2500027179719,10|0,0:2|0:2,0:0:0:0:
45,224,211250,6,0,P|83:281|104:378,2,142.500005435944,2|4|0,1:2|1:2|1:2,0:0:0:0:
11,319,211920,1,0,0:0:0:0:
162,262,212054,2,0,B|203:270|185:286|238:291,1,71.2500027179719,10|0,0:2|0:2,0:0:0:0:
374,367,212322,2,0,B|454:356|409:298|490:290,1,142.500005435944,2|0,1:2|0:2,0:0:0:0:
485,290,212858,5,0,1:2:0:0:
508,173,212991,1,0,1:2:0:0:
377,163,213125,2,0,L|364:274,1,106.875004076958,8|0,0:2|0:2,0:0:0:0:
363,286,213393,1,0,1:2:0:0:
275,238,213527,1,0,1:2:0:0:
202,307,213661,5,2,1:2:0:0:
210,313,213728,1,0,3:2:0:0:
215,322,213795,2,0,P|220:339|212:388,5,35.625001358986,0|0|2|0|0|0,3:2|3:2|1:2|3:2|3:2|3:2,0:0:0:0:
135,381,214197,5,10,0:2:0:0:
127,375,214264,1,0,3:2:0:0:
122,366,214331,2,0,P|117:349|125:300,5,35.625001358986,0|0|2|0|0|0,3:2|3:2|1:2|3:2|3:2|3:2,0:0:0:0:
129,250,214733,5,2,1:2:0:0:
117,250,214799,2,0,L|67:255,2,35.625001358986,0|0|0,3:2|3:2|3:2,0:0:0:0:
184,168,215000,5,2,1:2:0:0:
196,168,215067,2,0,L|245:162,2,35.625001358986,0|0|0,3:2|3:2|3:2,0:0:0:0:
214,245,215268,5,10,0:2:0:0:
212,256,215335,2,0,P|209:276|217:303,2,35.625001358986,0|0|0,3:2|3:2|3:2,0:0:0:0:
102,168,215536,5,2,1:2:0:0:
104,157,215603,2,0,P|106:136|98:109,2,35.625001358986,0|0|0,3:2|3:2|3:2,0:0:0:0:
43,65,215804,6,0,P|125:86|216:12,1,190,6|0,1:2|1:2,0:0:0:0:
325,261,216340,2,0,B|269:245|302:221|244:208,1,95,10|0,0:2|0:2,0:0:0:0:
381,1,216608,2,0,B|362:89|362:89|366:97|366:97|340:223,2,190,2|0|0,1:2|0:0|1:2,0:0:0:0:
459,95,217277,1,0,1:2:0:0:
269,105,217411,2,0,P|223:97|156:69,1,95,10|0,0:2|0:2,0:0:0:0:
326,277,217679,2,0,P|370:260|417:252,1,95,2|0,1:2|1:2,0:0:0:0:
240,366,217947,6,0,P|228:291|197:210,2,142.500005435944,6|0|8,1:2|1:2|0:2,0:0:0:0:
240,366,218750,1,0,1:2:0:0:
143,291,218884,2,0,B|70:292|105:351|16:352,1,142.500005435944,0|0,1:2|0:2,0:0:0:0:
32,138,219286,6,0,B|43:188|73:171|81:217,1,95,2|0,1:2|1:2,0:0:0:0:
22,275,219554,1,10,0:2:0:0:
106,61,219822,2,0,B|62:55|62:55|61:51|61:51|-5:40,1,95,2|0,1:2|1:2,0:0:0:0:
228,41,220090,6,0,P|198:84|202:137,2,106.875004076958,2|2|2,1:2|3:2|3:2,0:0:0:0:
139,291,220625,2,0,P|191:295|236:267,2,106.875004076958,10|2|2,0:2|3:2|3:2,0:0:0:0:
400,243,221161,2,0,P|378:195|332:172,2,106.875004076958,2|2|2,1:2|3:2|3:2,0:0:0:0:
256,192,221697,1,10,0:2:0:0:
289,365,221965,6,0,B|253:362|253:362|251:364|251:364|218:363,1,71.2500027179719,2|2,1:2|1:2,0:0:0:0:
179,280,222233,5,2,1:2:0:0:
170,274,222299,1,0,3:2:0:0:
165,265,222366,1,0,3:2:0:0:
162,254,222433,1,0,3:2:0:0:
165,242,222501,2,0,P|176:228|197:219,3,23.75,2|0|0|0,1:2|3:2|3:2|3:2,0:0:0:0:
108,176,222768,5,10,0:2:0:0:
110,162,222834,1,0,3:2:0:0:
117,149,222901,1,0,3:2:0:0:
127,139,222968,1,0,3:2:0:0:
142,134,223036,2,0,P|166:137|192:156,3,31.5874986986352,2|0|0|0,1:2|3:2|3:2|3:2,0:0:0:0:
185,52,223304,5,2,1:2:0:0:
200,45,223370,1,0,3:2:0:0:
217,44,223437,1,0,3:2:0:0:
233,49,223504,1,0,3:2:0:0:
247,62,223572,2,0,P|257:88|253:124,3,39.4250005714989,2|0|0|0,1:2|3:2|3:2|3:2,0:0:0:0:
343,56,223840,5,10,0:2:0:0:
359,67,223906,1,0,3:2:0:0:
369,83,223973,1,0,3:2:0:0:
374,102,224040,1,0,3:2:0:0:
369,123,224108,2,0,P|350:148|311:164,3,47.5,2|0|0|0,1:2|3:2|3:2|3:2,0:0:0:0:
424,207,224375,5,2,1:2:0:0:
422,228,224441,1,0,3:2:0:0:
412,247,224508,1,0,3:2:0:0:
396,262,224575,1,0,3:2:0:0:
374,269,224643,2,0,P|339:264|302:236,3,55.3375022165061,2|0|0|0,1:2|3:2|3:2|3:2,0:0:0:0:
315,348,224911,5,10,0:2:0:0:
298,357,224977,1,0,1:2:0:0:
279,357,225044,1,0,3:2:0:0:
260,352,225111,1,0,3:2:0:0:
244,337,225179,2,0,P|231:308|237:266,1,47.5,2|0,1:2|3:2,0:0:0:0:
229,269,225313,6,0,B|151:283|151:283|148:285|148:285|68:300,1,157.700002285996,6|0,1:2|1:2,0:0:0:0:
101,123,225715,2,0,B|123:157|123:157|115:208,1,78.8500011429978,0|8,1:2|0:2,0:0:0:0:
32,375,225983,1,8,0:2:0:0:
10,174,226116,1,0,1:2:0:0:
124,317,226250,2,0,L|214:298,1,78.8500011429978,8|8,0:2|0:2,0:0:0:0:
401,368,226518,6,0,B|421:340|410:301|388:299|387:302|366:301|347:261|364:232,1,157.700002285996,6|0,1:2|0:2,0:0:0:0:
462,99,226920,1,8,0:2:0:0:
326,145,227054,2,0,B|364:150|364:150|366:153|366:153|409:158,1,78.8500011429978,2|0,1:2|0:2,0:0:0:0:
480,14,227322,2,0,B|443:18|443:18|441:21|441:21|403:26,1,78.8500011429978,8|0,0:2|0:2,0:0:0:0:
321,40,227590,1,2,1:2:0:0:
239,149,227724,2,0,P|135:131|78:126,1,157.700002285996,8|0,0:2|0:2,0:0:0:0:
83,126,228125,1,8,1:2:0:0:
196,53,228259,1,8,0:2:0:0:
136,222,228393,2,0,B|126:268|110:254|101:298,1,78.8500011429978,2|0,0:2|0:2,0:0:0:0:
25,316,228594,5,0,3:2:0:0:
25,316,228661,2,0,P|99:325|189:352,1,157.700002285996,8|2,1:2|0:2,0:0:0:0:
227,236,229063,1,8,0:2:0:0:
257,376,229197,2,0,B|261:332|280:347|283:290,1,78.8500011429978,0|0,1:2|0:2,0:0:0:0:
110,148,229465,2,0,P|131:192|135:229,1,78.8500011429978,10|0,0:2|0:2,0:0:0:0:
102,292,229733,1,2,1:2:0:0:
227,236,229866,2,0,P|302:257|380:268,1,157.700002285996,8|0,0:2|0:2,0:0:0:0:
380,268,230268,1,8,1:2:0:0:
289,347,230402,1,8,0:2:0:0:
322,171,230536,2,0,B|326:131|343:142|348:97,1,78.8500011429978,8|8,0:2|0:2,0:0:0:0:
271,66,230737,5,0,3:2:0:0:
271,66,230804,2,0,P|349:57|427:45,1,157.700002285996,6|0,1:2|0:2,0:0:0:0:
197,13,231206,1,8,0:2:0:0:
241,149,231340,2,0,B|198:136|212:123|161:108,1,78.8500011429978,2|0,1:2|0:2,0:0:0:0:
84,10,231608,2,0,P|84:59|62:115,1,78.8500011429978,8|0,0:2|0:2,0:0:0:0:
5,136,231875,1,2,1:2:0:0:
156,192,232009,2,0,P|131:258|121:355,1,157.700002285996,8|0,0:2|0:2,0:0:0:0:
120,344,232411,1,8,1:2:0:0:
51,226,232545,1,8,0:2:0:0:
218,311,232679,2,0,P|253:302|303:298,1,78.8500011429978,10|0,0:2|0:2,0:0:0:0:
342,192,232947,5,8,1:2:0:0:
345,378,233081,2,0,B|353:335|363:356|375:305,1,78.8500011429978,8|2,0:2|0:2,0:0:0:0:
264,212,233349,1,8,0:2:0:0:
451,290,233483,2,0,B|442:247|432:268|420:217,1,78.8500011429978,8|0,1:2|0:2,0:0:0:0:
484,164,233750,1,10,0:2:0:0:
352,83,233884,2,0,P|363:31|364:-13,1,78.8500011429978,8|2,0:2|1:2,0:0:0:0:
264,100,234152,2,0,B|340:116|340:116|344:120|344:120|421:137,1,157.700002285996,8|0,0:2|0:2,0:0:0:0:
272,190,234554,1,8,1:2:0:0:
252,16,234688,1,8,0:2:0:0:
139,99,234822,2,0,B|100:96|108:78|53:76,1,78.8500011429978,8|8,0:2|0:2,0:0:0:0:
10,15,235023,5,0,3:2:0:0:
10,15,235090,2,0,P|31:71|51:182,1,157.700002285996,6|0,1:2|0:2,0:0:0:0:
171,190,235492,1,8,0:2:0:0:
66,272,235626,2,0,B|31:260|40:245|0:232,1,78.8500011429978,2|0,1:2|0:2,0:0:0:0:
169,384,235893,2,0,P|179:337|202:291,1,78.8500011429978,8|0,0:2|0:2,0:0:0:0:
260,250,236162,1,2,1:2:0:0:
131,174,236295,2,0,B|221:182|167:240|260:250,1,157.700002285996,8|0,0:2|0:2,0:0:0:0:
259,249,236697,1,8,1:2:0:0:
397,230,236831,1,8,0:2:0:0:
313,377,236965,2,0,B|320:339|320:339|322:339|322:339|332:281,1,78.8500011429978,2|0,0:2|0:2,0:0:0:0:
437,156,237233,6,0,P|418:87|395:-15,1,157.700002285996,8|2,1:2|0:2,0:0:0:0:
512,202,237635,1,8,0:2:0:0:
390,228,237769,2,0,B|432:243|415:252|462:268,1,78.8500011429978,0|0,1:2|0:2,0:0:0:0:
377,85,238036,2,0,B|335:100|352:109|308:123,1,78.8500011429978,10|0,0:2|0:2,0:0:0:0:
242,75,238305,1,2,1:2:0:0:
299,230,238438,2,0,P|280:299|257:401,1,157.700002285996,8|0,0:2|0:2,0:0:0:0:
359,328,238840,1,8,1:2:0:0:
203,273,238974,1,8,0:2:0:0:
315,150,239108,2,0,B|312:105|290:123|286:77,1,78.8500011429978,8|8,0:2|0:2,0:0:0:0:
342,23,239308,5,0,3:2:0:0:
342,23,239375,2,0,P|273:42|171:65,1,157.700002285996,6|0,1:2|0:2,0:0:0:0:
22,131,239778,1,8,0:2:0:0:
201,211,239911,2,0,B|207:169|222:189|230:129,1,78.8500011429978,2|0,1:2|0:2,0:0:0:0:
73,1,240179,2,0,P|84:43|93:101,1,78.8500011429978,8|0,0:2|0:2,0:0:0:0:
152,128,240447,1,2,1:2:0:0:
0,227,240581,2,0,B|28:207|67:218|69:240|66:241|66:262|107:281|136:264,1,157.700002285996,8|0,0:2|0:2,0:0:0:0:
135,264,240983,1,8,1:2:0:0:
276,243,241117,1,8,0:2:0:0:
192,381,241251,2,0,B|200:345|200:345|198:341|198:341|213:287,1,78.8500011429978,2|0,0:2|0:2,0:0:0:0:
163,143,241518,5,8,1:2:0:0:
276,243,241652,2,0,B|228:234|244:219|204:212,1,78.8500011429978,8|2,0:2|0:2,0:0:0:0:
304,333,241921,1,8,0:2:0:0:
281,159,242054,2,0,B|295:89|295:89|291:87|291:87|312:-3,1,157.700002285996,8|10,1:2|0:2,0:0:0:0:
309,7,242456,1,8,0:2:0:0:
209,105,242590,1,2,1:2:0:0:
379,73,242724,1,8,0:2:0:0:
379,73,242858,2,0,B|426:81|410:96|450:103,1,78.8500011429978,0|0,1:2|0:2,0:0:0:0:
506,41,243126,5,8,1:2:0:0:
379,169,243259,1,8,0:2:0:0:
486,241,243394,2,0,P|488:278|498:319,1,78.8500011429978,8|8,1:2|0:2,0:0:0:0:
326,361,243661,6,0,P|326:302|304:233,1,128.250000489235,6|0,1:2|0:0,0:0:0:0:
107,384,244197,2,0,P|87:323|86:259,1,128.250000489235,10|0,0:2|0:2,0:0:0:0:
160,224,244599,1,0,1:2:0:0:
28,190,244733,2,0,P|75:179|106:168,1,64.1250002446175,2|0,1:2|0:2,0:0:0:0:
207,52,245000,2,0,P|133:34|84:17,1,128.250000489235,2|8,1:2|0:2,0:0:0:0:
308,39,245536,2,0,P|292:66|287:99,1,64.1250002446175,2|0,1:2|0:2,0:0:0:0:
358,135,245804,1,0,1:2:0:0:
233,158,245938,6,0,P|292:140|364:136,1,128.250000489235,0|0,1:2|1:2,0:0:0:0:
439,341,246340,2,0,P|413:338|374:324,1,64.1250002446175,8|0,0:2|0:2,0:0:0:0:
341,249,246608,1,2,1:2:0:0:
460,131,246741,2,0,P|442:179|424:264,1,128.250000489235,0|0,1:2|1:2,0:0:0:0:
280,372,247143,2,0,P|266:309|245:248,1,128.250000489235,0|8,1:2|0:2,0:0:0:0:
10,213,247679,2,0,P|29:241|59:257,1,64.1250002446175,0|0,1:2|0:0,0:0:0:0:
116,206,247947,6,0,P|129:143|150:82,1,128.250000489235,6|0,1:2|0:0,0:0:0:0:
328,260,248483,2,0,P|349:199|362:136,1,128.250000489235,10|0,0:2|0:2,0:0:0:0:
313,74,248885,1,0,1:2:0:0:
259,184,249019,2,0,P|249:157|248:112,1,64.1250002446175,2|0,1:2|0:2,0:0:0:0:
434,57,249286,2,0,P|452:110|459:205,1,128.250000489235,2|8,1:2|0:2,0:0:0:0:
413,369,249822,6,0,B|422:333|433:348|443:313,1,64.1250002446175,2|0,1:2|0:2,0:0:0:0:
385,223,250090,1,0,1:2:0:0:
512,241,250224,2,0,P|428:231|370:221,1,128.250000489235,0|0,1:2|0:2,0:0:0:0:
267,62,250625,2,0,B|230:70|244:79|191:90,1,64.1250002446175,8|0,0:2|0:2,0:0:0:0:
151,28,250894,1,2,1:2:0:0:
240,166,251027,2,0,P|226:228|216:291,1,128.250000489235,0|0,1:2|1:2,0:0:0:0:
68,119,251429,2,0,P|62:87|55:56,1,64.1250002446175,0|0,1:2|0:2,0:0:0:0:
55,227,251697,6,0,B|93:222|79:211|120:204,1,64.1250002446175,8|0,0:2|0:0,0:0:0:0:
200,367,251965,2,0,B|162:362|176:351|135:344,1,64.1250002446175,0|0,1:2|0:0,0:0:0:0:
55,355,252233,5,0,1:2:0:0:
216,291,252366,1,8,0:2:0:0:
216,291,252634,5,0,1:2:0:0:
55,227,252767,1,8,0:2:0:0:
107,292,253036,5,0,1:2:0:0:
153,223,253170,2,0,B|151:194|151:194|147:191|147:191|144:141,2,83.1250007927418,8|2|8,0:2|1:2|0:2,0:0:0:0:
38,328,253572,6,0,P|102:338|178:362,1,124.687501189113,0|0,1:2|0:2,0:0:0:0:
170,369,253840,1,8,0:2:0:0:
244,201,253974,1,8,0:2:0:0:
414,286,254108,2,0,B|359:298,1,41.5625003963709,0|0,1:2|3:2,0:0:0:0:
333,363,254241,1,0,3:2:0:0:
333,363,254308,1,0,3:2:0:0:
333,363,254375,6,0,B|342:296|342:296|337:291|337:291|347:219,1,142.500005435944,6|0,1:2|0:2,0:0:0:0:
452,175,254777,1,8,0:2:0:0:
311,120,254911,2,0,B|347:130|334:143|376:154,1,71.2500027179719,0|0,1:2|0:2,0:0:0:0:
512,42,255179,2,0,P|426:38|393:82,1,142.500005435944,0|0,1:2|0:2,0:0:0:0:
275,202,255581,1,8,0:2:0:0:
217,136,255715,2,0,P|229:103|237:66,1,71.2500027179719,0|0,1:2|0:2,0:0:0:0:
360,225,255983,2,0,P|335:293|318:369,1,142.500005435944,10|0,0:2|1:2,0:0:0:0:
0,244,256518,6,0,P|54:253|152:283,1,142.500005435944,2|0,1:2|0:2,0:0:0:0:
31,331,256920,1,8,0:2:0:0:
112,184,257054,2,0,P|105:149|98:100,1,71.2500027179719,0|0,1:2|0:2,0:0:0:0:
241,233,257322,2,0,P|227:276|202:394,1,142.500005435944,0|0,1:2|0:2,0:0:0:0:
319,191,257724,1,8,0:2:0:0:
191,148,257858,2,0,B|229:155|242:128|237:128|249:102|294:108,1,106.875004076958,0|0,1:2|0:2,0:0:0:0:
297,112,258125,6,0,P|275:39|273:3,1,95,10|0,0:2|1:2,0:0:0:0:
96,169,258661,2,0,P|88:109|57:26,1,142.500005435944,6|0,1:2|1:2,0:0:0:0:
32,220,259063,1,8,0:2:0:0:
170,237,259197,2,0,P|132:246|90:277,1,71.2500027179719,2|0,1:2|0:2,0:0:0:0:
60,32,259465,2,0,P|111:62|212:79,1,142.500005435944,0|0,1:2|0:2,0:0:0:0:
325,31,259866,1,8,0:2:0:0:
380,87,260000,2,0,P|365:125|354:178,1,71.2500027179719,0|0,1:2|0:2,0:0:0:0:
192,238,260268,2,0,P|224:301|239:395,1,142.500005435944,8|0,0:2|1:2,0:0:0:0:
238,370,260804,6,0,B|286:369|294:332|290:332|298:296|356:299,1,142.500005435944,0|0,1:2|0:2,0:0:0:0:
366,145,261206,1,8,0:2:0:0:
426,284,261340,2,0,B|418:248|407:257|397:219,1,71.2500027179719,0|0,1:2|0:0,0:0:0:0:
316,13,261608,2,0,P|298:83|275:152,1,142.500005435944,0|0,1:2|0:2,0:0:0:0:
387,78,262009,1,8,0:2:0:0:
212,77,262143,2,0,P|165:68|135:64,1,71.2500027179719,0|0,1:2|0:2,0:0:0:0:
78,127,262411,1,8,0:2:0:0:
162,262,262545,1,0,1:2:0:0:
275,149,262679,1,0,1:2:0:0:
146,366,262947,6,0,P|151:312|181:214,1,142.500005435944,6|0,1:2|0:2,0:0:0:0:
78,127,263349,1,8,0:2:0:0:
35,244,263483,2,0,P|60:282|65:329,1,71.2500027179719,0|0,1:2|0:2,0:0:0:0:
243,278,263750,2,0,P|212:213|194:144,1,142.500005435944,0|0,1:2|0:2,0:0:0:0:
276,0,264152,1,8,0:2:0:0:
337,52,264286,2,0,B|330:90|317:80|310:117,1,71.2500027179719,0|0,1:2|0:2,0:0:0:0:
211,205,264554,1,10,0:2:0:0:
368,241,264688,2,0,B|384:290|348:307|344:300|313:314|330:372,1,142.500005435944,0|0,1:2|0:2,0:0:0:0:
443,199,265090,6,0,P|351:198|323:141,1,142.500005435944,2|0,1:2|0:2,0:0:0:0:
315,46,265491,2,0,B|342:42|359:12|359:12|337:57|359:109,1,142.500005435944,8|0,0:2|0:2,0:0:0:0:
153,147,265893,2,0,P|201:98|269:110,1,142.500005435944,0|0,1:2|0:2,0:0:0:0:
181,18,266295,1,8,0:2:0:0:
250,189,266429,2,0,B|236:237|236:237|238:241|238:241|223:296,1,106.875004076958,0|0,1:2|0:2,0:0:0:0:
220,307,266697,5,10,0:2:0:0:
512,287,266965,1,0,1:2:0:0:
512,287,267233,6,0,B|489:271|454:269|436:311|436:311|437:352|405:366,1,142.500005435944,6|0,1:2|1:2,0:0:0:0:
412,201,267634,1,8,0:2:0:0:
296,279,267768,2,0,B|337:292|319:301|367:315,1,71.2500027179719,0|0,1:2|0:2,0:0:0:0:
478,149,268036,2,0,P|406:165|320:174,1,142.500005435944,0|0,1:2|0:2,0:0:0:0:
421,73,268438,1,8,0:2:0:0:
407,246,268572,2,0,P|432:288|435:329,1,71.2500027179719,0|0,1:2|0:2,0:0:0:0:
259,166,268840,2,0,B|257:126|287:105|291:114|321:96|313:43,1,142.500005435944,8|0,0:2|1:2,0:0:0:0:
305,340,269375,6,0,P|247:303|165:331,1,142.500005435944,0|0,1:2|0:2,0:0:0:0:
48,232,269777,1,8,0:2:0:0:
86,363,269911,2,0,B|91:324|104:336|108:278,1,71.2500027179719,0|0,1:2|0:2,0:0:0:0:
240,219,270179,2,0,P|215:154|208:66,1,142.500005435944,0|0,1:2|0:2,0:0:0:0:
278,13,270581,5,8,0:2:0:0:
115,74,270715,1,8,0:2:0:0:
291,124,270849,1,8,0:2:0:0:
183,160,270983,2,0,B|142:168|158:181|113:183,1,71.2500027179719,8|0,0:2|1:2,0:0:0:0:
39,146,271250,1,0,1:2:0:0:
183,379,271518,6,0,P|182:318|144:261,1,106.875004076958,6|0,1:2|0:2,0:0:0:0:
149,268,271786,1,0,1:2:0:0:
269,186,271920,1,8,0:2:0:0:
348,320,272054,2,0,P|312:323|278:333,1,71.2500027179719,0|0,1:2|0:2,0:0:0:0:
269,132,272322,6,0,P|270:193|308:250,1,106.875004076958,0|0,1:2|0:2,0:0:0:0:
304,243,272590,1,0,1:2:0:0:
342,78,272724,1,8,0:2:0:0:
277,26,272858,2,0,B|240:35|256:48|208:59,1,71.2500027179719,0|0,1:2|0:2,0:0:0:0:
45,108,273125,2,0,B|105:118|105:118|105:121|105:121|164:135,1,124.687501189113,10|0,0:2|0:2,0:0:0:0:
171,151,273393,2,0,P|149:183|144:223,1,71.2500027179719,0|0,1:2|0:2,0:0:0:0:
124,374,273661,6,0,P|114:314|62:265,1,106.875004076958,2|0,1:2|0:2,0:0:0:0:
70,270,273929,1,0,1:2:0:0:
164,135,274063,2,0,B|166:167|195:182|195:182|61:145,1,178.12500679493,8|0,0:2|0:2,0:0:0:0:
64,145,274465,6,0,B|73:67|116:118|128:17,1,142.500005435944,0|0,1:2|0:2,0:0:0:0:
240,117,274866,1,8,0:2:0:0:
143,211,275000,2,0,B|137:261|137:261|138:266|138:266|130:331,1,106.875004076958,0|0,1:2|0:2,0:0:0:0:
129,337,275268,5,10,0:2:0:0:
479,345,275536,1,0,1:2:0:0:
479,345,275804,6,0,P|408:349|378:309,1,106.875004076958,6|0,1:2|0:2,0:0:0:0:
383,309,276072,1,0,1:2:0:0:
512,223,276206,1,8,0:2:0:0:
481,152,276340,2,0,P|444:135|395:142,1,71.2500027179719,2|0,1:2|0:2,0:0:0:0:
307,238,276608,6,0,P|365:226|427:212,1,106.875004076958,0|0,1:2|0:2,0:0:0:0:
426,212,276875,1,0,1:2:0:0:
321,103,277009,1,8,0:2:0:0:
262,157,277143,2,0,L|190:147,1,71.2500027179719,0|0,1:2|0:2,0:0:0:0:
116,351,277411,2,0,B|118:293|75:320|77:246,1,106.875004076958,8|0,0:2|0:2,0:0:0:0:
89,237,277679,2,0,L|161:227,1,71.2500027179719,0|0,1:2|0:2,0:0:0:0:
157,56,277947,6,0,P|100:63|31:69,1,106.875004076958,0|0,1:2|0:2,0:0:0:0:
33,69,278215,1,0,1:2:0:0:
171,148,278349,2,0,B|216:153|237:199|237:199|236:149|287:115,1,178.12500679493,8|0,0:2|0:2,0:0:0:0:
297,112,278750,2,0,L|451:132,1,142.500005435944,0|0,1:2|0:2,0:0:0:0:
353,37,279152,1,8,0:2:0:0:
391,208,279286,2,0,B|414:273|429:229|450:298,1,106.875004076958,0|0,1:2|0:2,0:0:0:0:
446,314,279554,1,8,0:2:0:0:
338,384,279688,1,8,0:2:0:0:
293,228,279822,2,0,P|299:195|312:143,1,71.2500027179719,0|0,1:2|0:0,0:0:0:0:
172,368,280090,6,0,P|119:375|71:347,1,106.875004076958,6|0,1:2|0:2,0:0:0:0:
64,332,280358,1,0,1:2:0:0:
1,208,280491,1,8,0:2:0:0:
154,229,280625,2,0,P|139:257|135:313,1,71.2500027179719,0|0,1:2|0:2,0:0:0:0:
116,126,280894,6,0,B|164:138|164:138|164:141|164:141|219:152,1,106.875004076958,0|0,1:2|0:2,0:0:0:0:
236,157,281162,1,0,1:2:0:0:
321,45,281296,1,8,0:2:0:0:
397,176,281429,2,0,B|404:140|404:140|385:111,1,71.2500027179719,0|0,1:2|0:2,0:0:0:0:
239,74,281697,1,10,0:2:0:0:
337,237,281831,2,0,P|393:207|481:215,1,142.500005435944,0|0,1:2|0:2,0:0:0:0:
351,358,282233,6,0,P|296:338|233:323,1,106.875004076958,2|0,1:2|0:2,0:0:0:0:
232,323,282501,1,0,1:2:0:0:
29,325,282634,2,0,B|45:373|114:372|130:330|130:330|99:305|112:255,1,178.12500679493,8|0,0:2|0:2,0:0:0:0:
106,268,283036,2,0,B|174:254|174:254|175:247|175:247|258:232,1,142.500005435944,0|0,1:2|0:2,0:0:0:0:
96,174,283438,1,8,0:2:0:0:
238,130,283572,2,0,L|130:93,1,106.875004076958,0|0,1:2|0:2,0:0:0:0:
122,89,283840,5,10,0:2:0:0:
401,16,284108,1,0,1:2:0:0:
401,16,284375,6,0,B|392:76|431:65|425:120,1,106.875004076958,6|0,1:2|0:2,0:0:0:0:
420,134,284644,1,0,1:2:0:0:
303,171,284778,1,8,0:2:0:0:
468,205,284912,2,0,P|446:239|447:289,1,71.2500027179719,0|0,1:2|0:2,0:0:0:0:
329,360,285180,6,0,P|328:311|295:263,1,106.875004076958,0|0,1:2|0:2,0:0:0:0:
279,255,285447,1,0,1:2:0:0:
378,200,285581,1,8,0:2:0:0:
249,155,285715,2,0,B|283:146|283:146|284:144|284:144|323:135,1,71.2500027179719,0|0,1:2|0:2,0:0:0:0:
148,65,285983,2,0,B|102:35|102:35|56:76,1,106.875004076958,8|0,0:2|0:2,0:0:0:0:
49,86,286251,2,0,P|71:114|86:149,1,71.2500027179719,0|0,1:2|0:2,0:0:0:0:
167,251,286519,6,0,B|117:252|137:292|74:297,1,106.875004076958,0|0,1:2|0:2,0:0:0:0:
58,288,286787,1,0,1:2:0:0:
195,369,286921,2,0,B|232:342|231:292|231:292|252:338|304:346,1,178.12500679493,8|0,0:2|0:2,0:0:0:0:
313,361,287322,2,0,B|321:291|321:291|326:290|326:290|337:219,1,142.500005435944,0|0,1:2|0:2,0:0:0:0:
279,165,287724,5,0,1:2:0:0:
416,83,287858,1,10,0:2:0:0:
396,160,287991,5,10,0:2:0:0:
324,26,288125,2,0,P|287:33|230:31,1,71.2500027179719,2|2,1:2|1:2,0:0:0:0:
346,244,288393,2,0,P|381:244|416:251,1,71.2500027179719,10|10,0:2|0:2,0:0:0:0:
189,156,288661,6,0,P|98:139|11:124,1,170.999994781494,6|8,1:2|0:2,0:0:0:0:
99,18,289063,2,0,B|100:66|123:47|123:110,1,85.4999973907472,0|0,0:2|0:2,0:0:0:0:
42,219,289331,1,0,1:2:0:0:
248,216,289465,2,0,P|206:281|201:376,1,170.999994781494,8|0,0:2|1:2,0:0:0:0:
116,267,289866,1,0,1:2:0:0:
281,355,290000,6,0,P|301:321|304:268,1,85.4999973907472,10|0,0:2|1:2,0:0:0:0:
470,291,290268,2,0,P|430:290|383:314,1,85.4999973907472,0|0,0:2|1:2,0:0:0:0:
321,163,290536,2,0,P|340:197|384:226,1,85.4999973907472,10|0,0:2|0:2,0:0:0:0:
192,289,290804,6,0,P|130:302|43:320,1,142.5,6|0,1:2|0:2,0:0:0:0:
33,324,291072,1,8,0:2:0:0:
208,372,291206,1,0,0:2:0:0:
152,181,291340,2,0,B|141:235|123:213|113:266,1,95,6|0,1:2|1:2,0:0:0:0:
301,375,291608,2,0,B|292:302|292:302|289:300|289:300|278:225,1,142.5,8|0,0:2|0:0,0:0:0:0:
269,215,291875,6,0,L|374:226,1,95,6|0,1:2|1:2,0:0:0:0:
220,122,292143,1,8,0:2:0:0:
373,77,292277,1,0,1:2:0:0:
376,68,292344,1,2,1:2:0:0:
380,59,292411,2,0,L|261:45,1,95,6|0,1:2|1:2,0:0:0:0:
67,17,292679,6,0,B|61:65|98:78|102:71|139:83|133:140,1,142.5,10|0,0:2|0:0,0:0:0:0:
64,173,292947,2,0,L|251:138,2,170.999994781494,6|8|0,1:2|0:2|1:2,0:0:0:0:
19,250,293616,1,0,1:2:0:0:
190,333,293750,2,0,B|206:294|206:294|181:234,1,85.4999973907472,8|0,0:2|0:2,0:0:0:0:
19,250,294018,2,0,B|2:288|2:288|27:348,1,85.4999973907472,0|0,1:2|1:2,0:0:0:0:
95,370,294286,1,10,1:2:0:0:
131,186,294420,1,0,1:2:0:0:
278,320,294554,6,0,P|321:324|371:340,1,85.4999973907472,2|0,0:2|1:2,0:0:0:0:
214,170,294822,2,0,P|173:182|130:185,1,85.4999973907472,10|0,0:2|0:2,0:0:0:0:
329,222,295090,2,0,B|314:205|324:147|356:148|360:155|390:157|398:84|379:72,1,170.999994781494,2|8,1:2|0:2,0:0:0:0:
342,12,295491,1,0,0:2:0:0:
266,28,295625,1,2,1:2:0:0:
253,103,295759,1,0,1:2:0:0:
398,165,295893,2,0,P|451:175|503:192,1,85.4999973907472,8|0,0:2|1:2,0:0:0:0:
496,354,296161,6,0,P|412:330|289:316,1,170.999994781494,2|10,1:2|0:2,0:0:0:0:
252,308,296563,1,0,0:2:0:0:
200,365,296697,1,2,1:2:0:0:
91,267,296831,1,0,1:2:0:0:
232,232,296965,1,10,0:2:0:0:
0,253,297233,6,0,P|99:266|180:289,2,170.999994781494,6|8|0,1:2|0:2|0:0,0:0:0:0:
107,356,297902,1,0,1:2:0:0:
73,168,298036,2,0,B|86:121|101:143|117:74,1,85.4999973907472,10|0,0:2|0:2,0:0:0:0:
90,17,298304,1,0,1:2:0:0:
90,17,298438,1,0,1:2:0:0:
0,126,298572,1,8,0:2:0:0:
151,189,298706,2,0,P|228:170|324:161,1,170.999994781494,0|0,1:2|1:2,0:0:0:0:
270,2,299108,2,0,P|266:51|244:97,1,85.4999973907472,10|0,0:2|0:2,0:0:0:0:
418,176,299375,6,0,P|428:95|468:11,1,170.999994781494,2|8,1:2|0:2,0:0:0:0:
503,212,299777,1,0,1:2:0:0:
378,259,299911,2,0,P|416:263|466:288,1,85.4999973907472,2|0,0:2|1:2,0:0:0:0:
406,86,300179,2,0,P|367:104|325:109,1,85.4999973907472,10|0,0:2|0:2,0:0:0:0:
198,24,300447,5,0,1:2:0:0:
198,24,300581,1,0,1:2:0:0:
213,172,300715,2,0,B|223:123|237:145|248:77,1,85.4999973907472,8|0,0:2|1:2,0:0:0:0:
140,136,300983,1,2,1:2:0:0:
281,220,301116,1,0,1:2:0:0:
132,236,301250,2,0,P|169:243|225:283,1,85.4999973907472,8|0,0:2|0:0,0:0:0:0:
404,222,301518,6,0,B|420:234|423:293|391:298|386:292|356:297|363:370|379:373,1,170.999994781494,6|8,1:2|0:2,0:0:0:0:
357,51,302054,2,0,L|466:17,1,85.4999973907472,0|0,0:2|1:2,0:0:0:0:
473,187,302322,2,0,P|413:174|323:163,1,128.249996086121,8|0,0:2|0:2,0:0:0:0:
328,162,302590,1,0,1:2:0:0:
267,228,302724,1,0,1:2:0:0:
229,55,302858,1,8,0:2:0:0:
168,115,302991,2,0,P|91:107|-17:85,1,170.999994781494,0|0,1:2|1:2,0:0:0:0:
3,258,303393,2,0,P|56:241|99:240,1,85.4999973907472,8|0,0:2|0:2,0:0:0:0:
139,301,303661,5,14,0:2:0:0:
256,192,303795,1,0,3:2:0:0:
268,334,303929,6,0,P|298:301|303:256,1,85.4999973907472,0|0,1:2|3:2,0:0:0:0:
162,84,304197,2,0,P|157:125|176:163,1,85.4999973907472,0|0,1:2|3:2,0:0:0:0:
394,223,304465,2,0,P|374:186|337:166,1,85.4999973907472,0|0,1:2|3:2,0:0:0:0:
124,247,304733,2,0,P|162:265|204:259,1,85.4999973907472,0|0,1:2|3:2,0:0:0:0:
329,70,305000,2,0,P|288:77|258:107,1,85.4999973907472,0|0,1:2|3:2,0:0:0:0:
204,259,305268,5,12,0:2:0:0:
337,167,305402,1,8,0:2:0:0:
176,163,305536,1,8,0:2:0:0:
176,163,305804,6,0,B|148:131|103:141|90:170|90:170|86:216|35:229,1,156.750004783631,6|0,1:2|0:2,0:0:0:0:
45,227,306072,1,8,0:2:0:0:
115,381,306206,2,0,P|121:339|132:282,1,85.4999973907472,0|0,1:2|0:2,0:0:0:0:
204,259,306474,1,0,1:2:0:0:
91,167,306608,2,0,P|69:84|72:0,1,170.999994781494,8|0,0:2|1:2,0:0:0:0:
176,163,307009,1,0,1:2:0:0:
238,37,307143,6,0,P|251:73|245:126,1,85.4999973907472,10|0,0:2|1:2,0:0:0:0:
411,135,307411,2,0,P|371:129|329:97,1,85.4999973907472,2|0,0:2|1:2,0:0:0:0:
243,235,307679,2,0,P|267:204|315:183,1,85.4999973907472,10|0,0:2|0:2,0:0:0:0:
445,58,307947,6,0,L|468:236,1,142.5,6|0,1:2|0:2,0:0:0:0:
466,219,308215,1,8,0:2:0:0:
323,298,308349,1,0,0:2:0:0:
470,376,308483,2,0,B|480:321|498:343|507:290,1,95,6|0,1:2|1:2,0:0:0:0:
373,114,308751,2,0,B|393:264,1,142.5,8|0,0:2|0:0,0:0:0:0:
395,275,309018,6,0,P|342:267|288:265,1,95,6|0,1:2|1:2,0:0:0:0:
227,358,309286,1,8,0:2:0:0:
255,206,309420,1,0,1:2:0:0:
258,197,309487,1,2,1:2:0:0:
262,187,309554,2,0,P|209:179|155:177,1,95,6|0,1:2|1:2,0:0:0:0:
35,313,309822,6,0,B|63:330|64:372|64:372|83:335|121:333,1,142.5,10|0,0:2|0:0,0:0:0:0:
93,254,310090,2,0,B|88:175|88:175|85:173|85:173|80:79,2,170.999994781494,6|8|0,1:2|0:2|1:2,0:0:0:0:
0,227,310759,1,0,1:2:0:0:
170,118,310893,2,0,B|215:113|197:88|246:86,1,85.4999973907472,8|0,0:2|0:2,0:0:0:0:
83,5,311161,2,0,B|132:7|114:32|159:36,1,85.4999973907472,0|0,1:2|1:2,0:0:0:0:
233,9,311429,1,10,0:2:0:0:
316,138,311563,1,0,1:2:0:0:
196,205,311697,6,0,P|216:243|229:293,1,85.4999973907472,2|0,0:2|1:2,0:0:0:0:
334,375,311965,2,0,P|346:334|366:296,1,85.4999973907472,10|0,0:2|0:2,0:0:0:0:
405,91,312233,2,0,B|388:76|330:86|331:118|338:122|340:152|267:160|255:141,1,170.999994781494,2|8,1:2|0:2,0:0:0:0:
196,103,312634,1,0,0:2:0:0:
221,30,312768,1,2,1:2:0:0:
297,35,312902,1,0,1:2:0:0:
338,220,313036,2,0,P|323:253|320:312,1,85.4999973907472,8|0,0:2|1:2,0:0:0:0:
139,373,313304,6,0,P|128:286|106:202,1,170.999994781494,2|8,1:2|0:2,0:0:0:0:
20,182,313706,1,0,0:2:0:0:
80,121,313840,1,2,1:2:0:0:
211,259,313974,1,0,1:2:0:0:
44,330,314108,1,8,0:2:0:0:
164,39,314376,6,0,B|136:5|83:28|77:70|77:70|65:106|9:116|-22:69,2,209.000006378174,6|8|0,1:2|0:2|1:2,0:0:0:0:
328,84,315045,1,0,1:2:0:0:
227,195,315179,2,0,B|235:142|250:165|255:95,1,85.4999973907472,8|0,0:2|0:2,0:0:0:0:
247,34,315447,1,0,1:2:0:0:
247,34,315581,1,0,1:2:0:0:
317,194,315715,6,0,P|353:200|424:221,1,85.4999973907472,10|0,0:2|1:2,0:0:0:0:
512,90,315983,2,0,P|470:101|428:108,1,85.4999973907472,2|0,0:2|1:2,0:0:0:0:
493,368,316250,2,0,P|484:303|504:216,1,128.249996086121,10|0,0:2|0:2,0:0:0:0:
503,222,316518,5,2,1:2:0:0:
401,310,316652,1,0,1:2:0:0:
328,195,316786,2,0,P|337:130|317:43,1,128.249996086121,8|0,0:2|0:0,0:0:0:0:
318,49,317054,5,2,1:2:0:0:
420,137,317188,1,0,1:2:0:0:
254,135,317322,2,0,B|209:141|224:158|170:162,1,85.4999973907472,8|0,0:2|0:2,0:0:0:0:
147,50,317590,5,2,1:2:0:0:
147,50,317724,1,0,1:2:0:0:
170,241,317858,2,0,B|125:235|140:218|86:214,1,85.4999973907472,8|0,0:2|0:0,0:0:0:0:
62,326,318125,5,2,1:2:0:0:
62,326,318260,1,0,1:2:0:0:
84,139,318393,2,0,B|39:145|54:162|0:166,1,85.4999973907472,8|0,0:2|0:2,0:0:0:0:
4,166,318661,6,0,P|81:179|195:204,1,170.999994781494,6|8,1:2|0:2,0:0:0:0:
493,336,319197,2,0,P|450:342|409:352,1,85.4999973907472,0|0,1:2|1:2,0:0:0:0:
375,150,319465,2,0,B|372:225|328:187|326:274,1,128.249996086121,8|0,0:2|0:0,0:0:0:0:
332,288,319733,1,0,1:2:0:0:
412,266,319867,1,0,1:2:0:0:
293,147,320001,1,8,0:2:0:0:
441,87,320134,2,0,B|454:63|478:58|478:58|326:32,1,170.999994781494,0|0,1:2|1:2,0:0:0:0:
138,12,320536,2,0,B|146:54|146:54|149:55|149:55|158:115,1,85.4999973907472,8|0,0:2|0:2,0:0:0:0:
104,159,320804,5,12,0:2:0:0:
256,192,320938,1,0,3:2:0:0:
148,294,321072,6,0,P|156:238|198:213,1,85.4999973907472,0|0,1:2|3:2,0:0:0:0:
403,172,321340,2,0,P|378:206|337:216,1,85.4999973907472,0|0,1:2|3:2,0:0:0:0:
125,120,321608,2,0,P|165:108|204:124,1,85.4999973907472,0|0,1:2|3:2,0:0:0:0:
319,326,321875,2,0,P|279:312|258:277,1,85.4999973907472,0|0,1:2|3:0,0:0:0:0:
283,45,322143,2,0,P|307:80|304:121,1,85.4999973907472,0|0,1:2|3:2,0:0:0:0:
257,276,322411,5,10,0:2:0:0:
204,124,322545,1,8,0:2:0:0:
337,216,322679,1,8,0:2:0:0:
234,29,322947,6,0,L|279:361,1,334.400010205078,6|4,1:2|1:2,0:0:0:0:
229,291,326697,6,0,B|280:284|259:263|309:257,1,83.125,2|0,0:2|0:2,0:0:0:0:
317,265,327233,1,12,0:2:0:0:
233,31,327500,6,0,L|279:361,1,332.5,10|4,0:2|1:2,0:0:0:0:
283,365,330179,5,0,1:2:0:0:
283,365,330313,1,0,1:2:0:0:
228,295,330447,6,0,B|217:268|236:238|254:231|256:235|272:228|287:201|276:173,1,142.500005435944,8|2,0:2|0:2,0:0:0:0:
93,43,331518,6,0,L|68:223,1,170.999994781494,4|0,1:2|0:0,0:0:0:0:
162,69,332054,2,0,L|137:249,1,170.999994781494,0|0,1:0|0:0,0:0:0:0:
232,94,332590,2,0,L|207:274,1,170.999994781494,0|0,1:0|0:0,0:0:0:0:
302,120,333125,2,0,L|277:300,1,170.999994781494,0|0,1:2|0:0,0:0:0:0:
269,366,333661,5,4,1:2:0:0:
69,212,334197,1,0,1:2:0:0:
243,18,334733,1,0,1:2:0:0:
442,171,335268,1,2,1:2:0:0:
302,120,335804,6,0,L|277:300,1,170.999994781494,4|0,1:2|0:0,0:0:0:0:
372,145,336340,2,0,L|347:325,1,170.999994781494,0|0,1:0|0:0,0:0:0:0:
442,171,336876,2,0,L|417:351,1,170.999994781494,0|0,1:0|0:0,0:0:0:0:
418,340,337411,1,0,1:0:0:0:
512,182,337947,6,0,B|463:198|432:159|441:136|445:136|454:111|421:79|374:93,1,190,4|0,1:2|1:2,0:0:0:0:
376,92,338750,6,0,L|327:84,1,47.5,2|0,1:2|1:2,0:0:0:0:
253,25,339018,1,8,0:2:0:0:
227,171,339152,2,0,L|63:143,1,142.500005435944,8|0,0:2|1:2,0:0:0:0:
150,24,339554,2,0,P|173:52|174:92,1,71.2500027179719,10|0,0:2|0:0,0:0:0:0:
37,205,339822,2,0,P|14:177|13:137,1,71.2500027179719,8|0,0:2|0:0,0:0:0:0:
168,251,340090,6,0,P|146:291|141:369,1,106.875004076958,2|0,1:2|0:2,0:0:0:0:
140,368,340358,2,0,P|100:355|62:355,1,71.2500027179719,0|0,1:2|0:2,0:0:0:0:
27,175,340625,2,0,P|103:186|168:161,1,142.500005435944,8|0,0:2|1:2,0:0:0:0:
226,324,341027,2,0,P|278:301|372:320,1,142.500005435944,0|0,1:2|0:2,0:0:0:0:
333,157,341429,2,0,P|310:184|304:223,1,71.2500027179719,0|0,1:2|0:0,0:0:0:0:
443,312,341697,2,0,P|479:280|493:189,1,142.500005435944,8|0,0:2|1:2,0:0:0:0:
434,9,342233,6,0,P|395:38|401:104,1,106.875004076958,0|0,1:2|0:2,0:0:0:0:
403,105,342500,2,0,P|441:116|482:97,1,71.2500027179719,0|0,1:2|0:2,0:0:0:0:
303,58,342768,2,0,L|159:27,1,142.500005435944,8|0,0:2|1:2,0:0:0:0:
163,235,343170,2,0,L|246:223,1,71.2500027179719,0|0,1:2|0:2,0:0:0:0:
312,214,343438,1,0,1:2:0:0:
228,78,343572,2,0,P|218:109|219:155,1,71.2500027179719,0|0,1:2|1:2,0:0:0:0:
31,171,343840,2,0,P|38:97|19:20,1,142.500005435944,10|0,0:2|1:2,0:0:0:0:
0,305,344375,6,0,P|53:308|100:345,1,106.875004076958,6|0,1:2|0:2,0:0:0:0:
104,352,344643,2,0,L|118:281,1,71.2500027179719,0|0,1:2|0:2,0:0:0:0:
273,229,344911,2,0,P|283:299|296:380,1,142.500005435944,8|0,0:2|1:2,0:0:0:0:
314,161,345313,2,0,B|233:170|282:220|180:222,1,142.500005435944,0|0,1:2|0:2,0:0:0:0:
376,293,345715,2,0,P|408:305|452:307,1,71.2500027179719,0|0,1:2|0:2,0:0:0:0:
448,81,345983,2,0,P|434:152|423:227,1,142.500005435944,8|0,0:2|1:2,0:0:0:0:
234,192,346518,6,0,P|232:144|220:74,1,106.875004076958,0|0,1:2|0:2,0:0:0:0:
218,67,346786,2,0,P|179:78|136:90,1,71.2500027179719,0|0,1:2|0:2,0:0:0:0:
15,168,347054,2,0,B|65:181|65:181|78:212|78:212|143:229,1,142.500005435944,8|0,0:2|1:2,0:0:0:0:
170,357,347456,2,0,B|163:322|163:322|188:280,1,71.2500027179719,0|0,1:2|0:2,0:0:0:0:
259,269,347724,1,0,1:0:0:0:
179,159,347858,2,0,B|218:162|205:180|252:187,1,71.2500027179719,0|0,1:2|0:2,0:0:0:0:
399,243,348125,2,0,L|253:270,1,142.500005435944,10|0,0:2|1:2,0:0:0:0:
206,23,348661,6,0,P|252:32|317:44,1,106.875004076958,6|0,1:2|0:2,0:0:0:0:
326,48,348929,2,0,P|311:81|310:122,1,71.2500027179719,0|0,1:2|0:2,0:0:0:0:
483,180,349197,2,0,P|506:126|497:41,1,142.500005435944,8|0,0:2|1:2,0:0:0:0:
357,180,349599,2,0,B|436:197|386:239|477:261,1,142.500005435944,0|0,1:2|0:2,0:0:0:0:
385,351,350000,2,0,B|350:357|363:374|301:382,1,71.2500027179719,0|0,1:2|0:2,0:0:0:0:
206,249,350268,2,0,B|359:278,1,142.500005435944,8|0,0:2|0:2,0:0:0:0:
218,125,350670,1,0,1:0:0:0:
120,256,350804,6,0,B|121:291|142:311|146:304|166:322|162:374,1,106.875004076958,2|0,1:2|0:2,0:0:0:0:
148,366,351072,2,0,P|109:357|68:356,1,71.2500027179719,0|0,1:2|0:2,0:0:0:0:
10,191,351340,2,0,P|80:182|154:173,1,142.500005435944,8|0,0:2|1:2,0:0:0:0:
114,23,351741,2,0,P|70:73|83:157,1,142.500005435944,0|0,1:2|1:2,0:0:0:0:
221,234,352143,2,0,P|240:197|235:153,1,71.2500027179719,0|0,1:2|0:2,0:0:0:0:
218,90,352411,5,8,0:2:0:0:
322,184,352545,1,8,0:2:0:0:
368,27,352679,1,0,1:2:0:0:
481,128,352813,1,0,1:2:0:0:
481,128,352880,1,0,1:2:0:0:
481,128,352947,1,6,1:2:0:0:
256,192,353014,12,0,356697,0:2:0:0:
