osu file format v14

[General]
AudioFilename: audio.mp3
AudioLeadIn: 0
PreviewTime: 10271
Countdown: 0
SampleSet: None
StackLeniency: 0.7
Mode: 0
LetterboxInBreaks: 0
WidescreenStoryboard: 0

[Editor]
Bookmarks: 43181,75181
DistanceSpacing: 1.3
BeatDivisor: 6
GridSize: 8
TimelineZoom: 1

[Metadata]
Title:A Ghost's Pumpkin Soup
TitleUnicode:A Ghost's Pumpkin Soup
Artist:Hunnid-P
ArtistUnicode:Hunnid-P
Creator:Joe Castle
Version:ezek's Ghostly Hard
Source:ソニックアドベンチャー2
Tags:-Harpuia- ezek Nyantiaz Alphabet Sonic Adventure 2 Battle SA2 SA2B Hedgehog Knuckles The Echidna Team multi-dimensional ORIGINAL SOUND TRACK Official Soundtrack OST Marvelous Entertainment Tokyopop Soundtrax wavemaster studio WAVE MASTER SEGA Tomoya Ohtani Emmanuel Armoogam Pacent Halloween ...for Hill 20th Anniversary Edition
BeatmapID:1799876
BeatmapSetID:859181

[Difficulty]
HPDrainRate:5.6
CircleSize:4
OverallDifficulty:6.5
ApproachRate:7
SliderMultiplier:2.1
SliderTickRate:1

[Events]
//Background and Video events
0,0,"Que Pasa Calabaza.jpg",0,0
//Break Periods
//Storyboard Layer 0 (Background)
//Storyboard Layer 1 (Fail)
//Storyboard Layer 2 (Pass)
//Storyboard Layer 3 (Foreground)
//Storyboard Sound Samples

[TimingPoints]
521.33321429192,666.666666666667,4,3,1,30,1,0
11187,-90.9090909090909,4,3,1,60,0,0
31187,-76.9230769230769,4,3,1,60,0,0
31743,-66.6666666666667,4,3,1,60,0,0
32187,-50,4,3,1,60,0,0
32521,-90.9090909090909,4,3,1,60,0,0
48521,-142.857142857143,4,3,1,60,0,0
51187,-90.9090909090909,4,3,1,60,0,0
53854,-90.9090909090909,4,3,1,60,0,1
59187,-142.857142857143,4,3,1,60,0,0
64521,-90.9090909090909,4,3,1,60,0,1
75187,-90.9090909090909,4,3,1,60,0,0
96521,-100,4,3,1,30,0,0

[Colours]
Combo1 : 255,83,83
Combo2 : 255,205,155
Combo3 : 255,47,47
Combo4 : 255,140,85

[HitObjects]
505,133,521,5,0,0:0:0:0:
505,133,854,2,0,P|453:132|406:110,1,105,2|0,0:0|0:0,0:0:0:0:
330,57,1410,1,0,0:0:0:0:
330,57,1521,2,0,L|311:124,1,70,2|0,0:0|0:0,0:0:0:0:
272,148,1854,2,0,L|253:215,1,70,0|0,0:0|0:0,0:0:0:0:
222,249,2187,1,2,0:0:0:0:
165,176,2410,1,0,0:0:0:0:
165,176,2521,2,0,B|152:141|152:141|153:108,1,70,0|0,0:0|0:0,0:0:0:0:
176,69,2854,1,2,0:0:0:0:
48,15,3187,5,0,0:0:0:0:
48,15,3521,2,0,P|47:68|28:116,1,105,2|0,0:0|0:0,0:0:0:0:
0,205,4076,1,0,0:0:0:0:
0,205,4187,2,0,L|30:268,1,70,2|0,0:0|0:0,0:0:0:0:
69,291,4521,2,0,L|99:354,1,70,0|0,0:0|0:0,0:0:0:0:
139,374,4854,1,2,0:0:0:0:
178,292,5076,5,0,0:0:0:0:
178,292,5187,2,0,P|165:241|177:190,1,105,0|2,0:0|0:0,0:0:0:0:
228,115,5743,1,0,0:0:0:0:
228,115,5854,1,0,0:0:0:0:
278,241,6187,2,0,P|289:291|277:342,1,105,2|0,0:0|0:0,0:0:0:0:
418,362,6854,1,2,0:0:0:0:
383,277,7076,5,0,0:0:0:0:
383,277,7187,1,0,0:0:0:0:
416,192,7410,1,0,0:0:0:0:
416,192,7521,1,2,0:0:0:0:
378,109,7743,1,0,0:0:0:0:
378,109,7854,2,0,P|311:106|281:82,1,105,0|2,0:0|0:0,0:0:0:0:
158,27,8521,5,0,0:0:0:0:
158,27,8854,2,0,P|91:30|61:54,1,105,2|0,0:0|0:0,0:0:0:0:
122,175,9521,2,0,L|105:289,2,105,2|0|2,0:0|0:0|0:0,0:0:0:0:
248,123,10521,1,10,0:0:0:0:
343,220,10854,1,2,0:0:0:0:
230,319,11187,5,2,0:2:0:0:
230,319,11521,2,0,L|345:328,1,115.50000352478,0|8,0:0|0:0,0:0:0:0:
425,268,12076,1,0,0:0:0:0:
425,268,12187,2,0,P|417:230|422:192,1,77.0000023498536,0|0,0:0|0:0,0:0:0:0:
447,148,12521,2,0,P|454:110|449:72,1,77.0000023498536,0|0,0:2|0:0,0:0:0:0:
431,25,12854,1,0,0:0:0:0:
343,72,13076,1,2,0:2:0:0:
343,72,13187,1,8,0:0:0:0:
251,29,13410,1,0,0:0:0:0:
251,29,13521,1,0,0:0:0:0:
301,170,13854,5,2,0:2:0:0:
301,170,14187,2,0,B|323:225|323:225|301:277,1,115.50000352478,0|8,0:0|0:0,0:0:0:0:
260,368,14743,1,0,0:0:0:0:
260,368,14854,2,0,L|180:379,1,77.0000023498536,0|2,0:0|0:2,0:0:0:0:
143,349,15187,2,0,L|63:338,1,77.0000023498536,0|0,0:0|0:0,0:0:0:0:
19,356,15521,1,0,0:0:0:0:
55,262,15743,1,2,0:2:0:0:
55,262,15854,1,8,0:0:0:0:
8,173,16076,2,0,B|17:130|17:130|10:109|10:109|21:60,1,115.50000352478,0|0,0:0|0:0,0:0:0:0:
65,34,16521,5,2,0:2:0:0:
65,34,16854,2,0,P|118:55|168:30,1,115.50000352478,0|8,0:0|0:0,0:0:0:0:
262,0,17410,1,0,0:0:0:0:
262,0,17521,2,0,B|262:38|262:38|281:71,1,77.0000023498536,0|0,0:0|0:0,0:0:0:0:
319,104,17854,2,0,B|319:142|319:142|299:175,1,77.0000023498536,0|0,0:0|0:0,0:0:0:0:
264,211,18187,1,0,0:0:0:0:
323,292,18410,1,2,0:2:0:0:
323,292,18521,1,8,0:0:0:0:
265,373,18743,1,0,0:0:0:0:
265,373,18854,1,0,0:0:0:0:
407,324,19187,5,2,0:2:0:0:
407,324,19521,2,0,B|394:266|394:266|413:213,1,115.50000352478,0|8,0:0|0:0,0:0:0:0:
463,126,20076,1,0,0:0:0:0:
463,125,20187,2,0,P|425:135|388:125,1,77.0000023498536,0|2,0:0|0:2,0:0:0:0:
343,103,20521,2,0,P|305:93|268:102,1,77.0000023498536,0|0,0:0|0:0,0:0:0:0:
227,129,20854,1,0,0:0:0:0:
137,83,21076,1,2,0:2:0:0:
137,83,21187,2,0,P|154:136|138:191,1,115.50000352478,8|0,0:0|0:0,0:0:0:0:
34,300,21854,5,2,0:2:0:0:
34,300,22187,2,0,P|16:246|32:191,1,115.50000352478,0|8,0:0|0:0,0:0:0:0:
81,104,22743,1,0,0:0:0:0:
81,104,22854,2,0,L|160:112,1,77.0000023498536,0|0,0:0|0:0,0:0:0:0:
201,88,23187,2,0,L|280:80,1,77.0000023498536,0|0,0:0|0:0,0:0:0:0:
322,104,23521,1,0,0:0:0:0:
398,39,23743,1,2,0:2:0:0:
398,39,23854,2,0,B|423:91|423:91|412:147,1,115.50000352478,8|0,0:0|0:0,0:0:0:0:
339,279,24521,5,2,0:2:0:0:
339,279,24854,2,0,B|399:297|391:256|451:271,1,115.50000352478,0|8,0:0|0:0,0:0:0:0:
486,177,25410,1,0,0:0:0:0:
486,177,25521,2,0,P|475:140|482:103,1,77.0000023498536,0|2,0:0|0:2,0:0:0:0:
496,55,25854,2,0,P|459:65|422:58,1,77.0000023498536,0|0,0:0|0:0,0:0:0:0:
376,37,26187,1,0,0:0:0:0:
277,55,26410,1,2,0:2:0:0:
277,55,26521,1,8,0:0:0:0:
178,40,26743,1,0,0:0:0:0:
178,40,26854,1,0,0:0:0:0:
253,169,27187,5,2,0:2:0:0:
253,169,27521,2,0,L|121:175,1,115.50000352478,0|8,0:0|0:0,0:0:0:0:
51,226,28076,1,0,0:0:0:0:
51,226,28187,2,0,P|57:264|50:302,1,77.0000023498536,0|0,0:0|0:0,0:0:0:0:
77,345,28521,2,0,P|114:339|152:346,1,77.0000023498536,0|0,0:0|0:0,0:0:0:0:
196,370,28854,1,0,0:0:0:0:
263,296,29076,1,2,0:2:0:0:
263,296,29187,1,8,0:0:0:0:
331,369,29410,1,0,0:0:0:0:
331,369,29521,1,0,0:0:0:0:
446,273,29854,5,2,0:2:0:0:
446,273,30187,2,0,P|425:221|441:166,1,115.50000352478,0|8,0:0|0:0,0:0:0:0:
508,32,30854,2,0,L|432:37,1,77.0000023498536,0|0,0:0|0:0,0:0:0:0:
381,44,31187,6,2,B|338:71|338:71|331:103|331:103|286:134,1,136.499993751526,2|0,0:0|0:0,0:0:0:0:
136,91,31743,6,2,P|197:62|203:130,1,157.500006008148,2|0,0:0|0:0,0:0:0:0:
164,194,32187,6,2,B|141:227|141:227|144:261|144:261|147:291|147:291|178:321,1,140,2|0,0:0|0:0,0:0:0:0:
238,365,32521,5,2,0:2:0:0:
238,365,32854,2,0,P|287:337|344:340,1,115.50000352478,2|8,0:0|0:0,0:0:0:0:
436,299,33410,1,0,0:0:0:0:
436,299,33521,2,0,L|363:264,1,77.0000023498536,2|0,0:0|0:0,0:0:0:0:
326,235,33854,2,0,L|399:200,1,77.0000023498536,0|0,0:0|0:0,0:0:0:0:
425,161,34187,2,0,L|352:126,1,77.0000023498536,2|2,0:0|0:2,0:0:0:0:
309,106,34521,1,8,0:0:0:0:
368,26,34743,1,0,0:0:0:0:
368,26,34854,1,2,0:0:0:0:
218,10,35187,5,2,0:2:0:0:
218,10,35521,2,0,P|194:58|204:118,1,115.50000352478,2|8,0:0|0:0,0:0:0:0:
239,210,36076,1,0,0:0:0:0:
239,210,36187,2,0,P|201:213|165:226,1,77.0000023498536,2|2,0:0|0:2,0:0:0:0:
140,270,36521,2,0,P|179:273|215:286,1,77.0000023498536,0|0,0:0|0:0,0:0:0:0:
215,336,36854,2,0,P|177:339|141:352,1,77.0000023498536,2|2,0:0|0:2,0:0:0:0:
94,369,37187,1,8,0:0:0:0:
28,298,37410,1,0,0:0:0:0:
28,298,37521,1,2,0:0:0:0:
128,184,37854,5,2,0:2:0:0:
128,184,38187,2,0,L|251:223,1,115.50000352478,2|8,0:0|0:0,0:0:0:0:
337,240,38743,1,0,0:0:0:0:
337,240,38854,2,0,L|424:199,1,77.0000023498536,2|0,0:0|0:0,0:0:0:0:
451,183,39187,1,0,0:0:0:0:
389,45,39521,2,0,L|302:86,1,77.0000023498536,2|2,0:0|0:2,0:0:0:0:
275,102,39854,1,8,0:0:0:0:
247,197,40076,1,0,0:0:0:0:
247,197,40187,1,2,0:0:0:0:
160,73,40521,5,2,0:2:0:0:
160,73,40854,2,0,P|111:55|46:71,1,115.50000352478,2|8,0:0|0:0,0:0:0:0:
101,159,41410,1,0,0:0:0:0:
101,159,41521,2,0,L|114:234,1,77.0000023498536,2|2,0:0|0:2,0:0:0:0:
84,274,41854,2,0,L|97:349,1,77.0000023498536,0|0,0:0|0:0,0:0:0:0:
141,375,42187,2,0,L|216:362,1,77.0000023498536,2|2,0:0|0:2,0:0:0:0:
266,375,42521,1,8,0:0:0:0:
349,320,42743,1,0,0:0:0:0:
349,320,42854,1,2,0:0:0:0:
300,184,43187,5,2,0:2:0:0:
300,184,43521,2,0,L|421:197,1,115.50000352478,2|8,0:0|0:0,0:0:0:0:
463,109,44076,1,0,0:0:0:0:
463,109,44187,2,0,L|431:36,1,77.0000023498536,2|0,0:0|0:0,0:0:0:0:
381,40,44521,2,0,L|350:110,1,77.0000023498536,0|0,0:0|0:0,0:0:0:0:
299,113,44854,2,0,L|267:40,1,77.0000023498536,2|2,0:0|0:2,0:0:0:0:
239,1,45187,1,8,0:0:0:0:
151,50,45410,1,0,0:0:0:0:
151,50,45521,1,2,0:0:0:0:
225,179,45854,5,2,0:2:0:0:
225,179,46187,2,0,P|241:233|229:289,1,115.50000352478,2|8,0:0|0:0,0:0:0:0:
137,331,46743,1,0,0:0:0:0:
137,331,46854,2,0,P|98:330|62:343,1,77.0000023498536,2|2,0:0|0:2,0:0:0:0:
22,314,47187,2,0,P|21:275|8:239,1,77.0000023498536,0|0,0:0|0:0,0:0:0:0:
34,195,47521,2,0,P|71:195|107:181,1,77.0000023498536,2|2,0:0|0:2,0:0:0:0:
141,145,47854,1,8,0:0:0:0:
152,45,48076,1,0,0:0:0:0:
152,45,48187,1,2,0:0:0:0:
283,17,48521,6,0,B|311:42|295:50|326:75,1,73.4999977569581,2|2,0:2|0:0,0:0:0:0:
383,151,49187,1,0,0:0:0:0:
298,195,49521,1,2,0:0:0:0:
380,243,49854,2,0,B|408:268|392:276|423:301,1,73.4999977569581,0|2,0:0|0:0,0:0:0:0:
479,365,50521,1,8,0:0:0:0:
486,373,51187,5,2,0:2:0:0:
486,373,51521,2,0,L|369:370,1,115.50000352478,2|8,0:0|0:0,0:0:0:0:
273,347,52076,1,0,0:0:0:0:
273,347,52187,2,0,L|255:268,1,77.0000023498536,2|2,0:0|0:2,0:0:0:0:
272,224,52521,2,0,L|254:145,1,77.0000023498536,0|0,0:0|0:0,0:0:0:0:
272,101,52854,1,2,0:0:0:0:
183,55,53076,1,2,0:2:0:0:
183,55,53187,1,8,0:0:0:0:
93,100,53410,1,0,0:0:0:0:
93,100,53521,1,2,0:0:0:0:
180,221,53854,5,2,0:2:0:0:
180,221,54187,2,0,L|190:338,1,115.50000352478,2|8,0:0|0:0,0:0:0:0:
283,371,54743,1,0,0:0:0:0:
283,371,54854,2,0,B|313:348|313:348|351:340,1,77.0000023498536,2|0,0:0|0:0,0:0:0:0:
368,293,55187,2,0,B|337:270|337:270|299:262,1,77.0000023498536,0|0,0:0|0:0,0:0:0:0:
294,212,55521,2,0,B|324:189|324:189|362:181,1,77.0000023498536,2|2,0:0|0:2,0:0:0:0:
412,176,55854,1,8,0:0:0:0:
473,96,56076,1,0,0:0:0:0:
473,96,56187,1,2,0:0:0:0:
333,38,56521,5,2,0:2:0:0:
333,38,56854,2,0,P|286:52|239:50,1,77.0000023498536,2|0,0:0|0:0,0:0:0:0:
208,54,57187,1,8,0:0:0:0:
109,28,57410,1,0,0:0:0:0:
109,28,57521,2,0,P|123:64|113:100,1,77.0000023498536,2|2,0:0|0:2,0:0:0:0:
75,133,57854,2,0,P|61:168|71:204,1,77.0000023498536,0|0,0:0|0:0,0:0:0:0:
108,238,58187,1,2,0:0:0:0:
78,334,58410,1,2,0:2:0:0:
78,334,58521,1,8,0:0:0:0:
176,315,58743,1,0,0:0:0:0:
176,315,58854,1,2,0:0:0:0:
326,354,59187,6,0,B|346:330|346:330|347:321|347:321|369:296,1,73.4999977569581,2|0,0:2|0:0,0:0:0:0:
446,295,59743,1,0,0:0:0:0:
446,295,59854,1,8,0:0:0:0:
441,118,60521,2,0,B|421:142|421:142|420:151|420:151|398:176,1,73.4999977569581,0|0,0:0|0:0,0:0:0:0:
325,166,61076,1,2,0:2:0:0:
325,166,61188,1,8,0:0:0:0:
241,21,61854,6,0,P|208:37|184:65,1,73.4999977569581,2|0,0:2|0:0,0:0:0:0:
94,98,62521,2,0,P|126:113|150:141,1,73.4999977569581,8|0,0:0|0:0,0:0:0:0:
189,210,63076,1,2,0:2:0:0:
189,210,63187,2,0,L|191:288,1,73.4999977569581,0|0,0:0|0:0,0:0:0:0:
264,314,63743,1,2,0:2:0:0:
264,314,63854,2,0,L|262:236,1,73.4999977569581,8|2,0:0|0:0,0:0:0:0:
262,89,64521,5,2,0:2:0:0:
262,89,64854,2,0,P|319:90|367:58,1,115.50000352478,2|8,0:0|0:0,0:0:0:0:
452,4,65410,1,0,0:0:0:0:
452,4,65521,2,0,L|481:76,1,77.0000023498536,2|0,0:0|0:0,0:0:0:0:
438,101,65854,2,0,L|409:173,1,77.0000023498536,0|0,0:0|0:0,0:0:0:0:
454,194,66187,2,0,L|483:266,1,77.0000023498536,2|2,0:0|0:2,0:0:0:0:
456,308,66521,1,8,0:0:0:0:
375,366,66743,1,0,0:0:0:0:
375,366,66854,1,2,0:0:0:0:
237,304,67187,5,2,0:2:0:0:
237,304,67521,2,0,B|177:299|177:299|129:336,1,115.50000352478,2|8,0:0|0:0,0:0:0:0:
37,361,68076,1,0,0:0:0:0:
37,361,68187,2,0,P|47:324|39:286,1,77.0000023498536,2|2,0:0|0:2,0:0:0:0:
46,236,68521,2,0,P|82:246|120:238,1,77.0000023498536,0|0,0:0|0:0,0:0:0:0:
145,194,68854,2,0,P|155:157|147:119,1,77.0000023498536,2|2,0:0|0:2,0:0:0:0:
112,71,69187,1,8,0:0:0:0:
121,77,69854,5,2,0:0:0:0:
121,77,70187,2,0,L|197:44,1,77.0000023498536,2|2,0:0|0:2,0:0:0:0:
238,27,70521,1,8,0:0:0:0:
337,39,70743,1,0,0:0:0:0:
337,39,70854,2,0,P|366:63|402:76,1,77.0000023498536,2|0,0:0|0:0,0:0:0:0:
434,114,71187,2,0,P|404:138|368:151,1,77.0000023498536,2|0,0:0|0:0,0:0:0:0:
361,201,71521,2,0,P|390:225|426:238,1,77.0000023498536,2|2,0:0|0:2,0:0:0:0:
472,258,71854,1,8,0:0:0:0:
433,350,72076,1,0,0:0:0:0:
433,350,72187,1,2,0:0:0:0:
349,294,72410,5,2,0:0:0:0:
349,294,72521,2,0,L|267:286,1,77.0000023498536,2|0,0:2|0:0,0:0:0:0:
236,251,72854,2,0,L|228:333,1,77.0000023498536,2|0,0:0|0:0,0:0:0:0:
245,374,73187,2,0,L|163:366,1,77.0000023498536,8|0,0:0|0:0,0:0:0:0:
118,358,73521,1,2,0:0:0:0:
54,280,73743,1,2,0:2:0:0:
54,280,73854,2,0,P|47:233|58:205,1,77.0000023498536,0|0,0:0|0:0,0:0:0:0:
84,164,74187,1,2,0:0:0:0:
181,139,74410,1,2,0:2:0:0:
181,139,74521,1,10,0:0:0:0:
289,242,74854,1,2,0:0:0:0:
294,92,75187,5,2,0:2:0:0:
294,92,75521,2,0,P|345:69|400:83,1,115.50000352478,2|8,0:0|0:0,0:0:0:0:
502,194,76187,1,2,0:0:0:0:
415,315,76521,2,0,P|381:335|343:338,1,77.0000023498536,0|0,0:0|0:0,0:0:0:0:
296,323,76854,1,2,0:0:0:0:
354,241,77076,1,2,0:2:0:0:
354,241,77187,2,0,B|375:184|375:184|357:131,1,115.50000352478,8|2,0:0|0:0,0:0:0:0:
226,57,77854,6,0,L|111:70,1,115.50000352478,2|2,0:2|0:0,0:0:0:0:
25,123,78410,1,0,0:0:0:0:
25,123,78521,2,0,P|37:160|36:198,1,77.0000023498536,8|0,0:0|0:0,0:0:0:0:
14,243,78854,2,0,P|13:281|24:317,1,77.0000023498536,2|2,0:0|0:2,0:0:0:0:
58,354,79187,1,0,0:0:0:0:
149,312,79410,1,0,0:0:0:0:
149,312,79521,1,2,0:0:0:0:
240,351,79743,1,2,0:2:0:0:
240,351,79854,1,8,0:0:0:0:
272,204,80187,1,2,0:0:0:0:
367,320,80521,6,0,P|423:309|467:273,1,115.50000352478,2|2,0:2|0:0,0:0:0:0:
490,125,81187,2,0,P|433:135|389:171,1,115.50000352478,8|2,0:0|0:0,0:0:0:0:
326,249,81743,1,0,0:0:0:0:
326,249,81854,2,0,L|310:162,1,77.0000023498536,0|0,0:0|0:0,0:0:0:0:
271,144,82187,2,0,L|255:57,1,77.0000023498536,2|2,0:0|0:2,0:0:0:0:
216,38,82521,1,8,0:0:0:0:
126,82,82743,1,0,0:0:0:0:
126,82,82854,1,2,0:0:0:0:
200,212,83187,6,0,P|211:267|187:319,1,115.50000352478,2|2,0:2|0:0,0:0:0:0:
98,365,83743,1,0,0:0:0:0:
98,365,83854,2,0,L|67:291,1,77.0000023498536,8|0,0:0|0:0,0:0:0:0:
109,265,84187,2,0,L|140:191,1,77.0000023498536,2|2,0:0|0:2,0:0:0:0:
94,170,84521,2,0,L|63:96,1,77.0000023498536,0|0,0:0|0:0,0:0:0:0:
93,58,84854,1,2,0:0:0:0:
181,104,85076,1,2,0:2:0:0:
181,104,85187,1,10,0:0:0:0:
296,7,85521,1,2,0:0:0:0:
406,108,85854,5,2,0:2:0:0:
406,108,86187,2,0,B|466:104|466:104|506:141,1,115.50000352478,2|8,0:0|0:0,0:0:0:0:
489,291,86854,1,2,0:0:0:0:
401,339,87076,1,0,0:0:0:0:
401,339,87187,2,0,P|348:325|319:334,1,77.0000023498536,0|0,0:0|0:0,0:0:0:0:
280,311,87521,2,0,P|294:258|285:229,1,77.0000023498536,2|2,0:0|0:2,0:0:0:0:
280,188,87854,1,8,0:0:0:0:
280,188,88521,6,0,L|412:184,1,115.50000352478,2|2,0:2|0:0,0:0:0:0:
371,87,89076,1,0,0:0:0:0:
371,87,89187,2,0,L|273:90,1,77.0000023498536,8|0,0:0|0:0,0:0:0:0:
243,90,89521,1,2,0:0:0:0:
156,39,89743,1,2,0:2:0:0:
156,39,89854,1,0,0:0:0:0:
88,112,90076,1,0,0:0:0:0:
88,112,90187,2,0,L|90:195,1,77.0000023498536,2|2,0:0|0:2,0:0:0:0:
126,223,90521,1,8,0:0:0:0:
253,143,90854,1,2,0:0:0:0:
218,292,91187,5,2,0:2:0:0:
218,292,91521,2,0,P|167:315|112:301,1,115.50000352478,2|8,0:0|0:0,0:0:0:0:
10,190,92187,1,2,0:0:0:0:
97,69,92521,2,0,P|131:49|169:46,1,77.0000023498536,0|0,0:0|0:0,0:0:0:0:
216,61,92854,1,2,0:0:0:0:
158,143,93076,1,2,0:2:0:0:
158,143,93187,2,0,B|137:200|137:200|155:253,1,115.50000352478,8|2,0:0|0:0,0:0:0:0:
286,327,93854,6,0,L|401:314,1,115.50000352478,2|2,0:2|0:0,0:0:0:0:
487,261,94410,1,2,0:2:0:0:
487,261,94521,2,0,P|475:224|476:186,1,77.0000023498536,8|0,0:0|0:0,0:0:0:0:
498,141,94854,2,0,P|499:103|488:67,1,77.0000023498536,2|2,0:0|0:2,0:0:0:0:
454,30,95187,1,0,0:0:0:0:
363,72,95410,1,0,0:0:0:0:
363,72,95521,1,2,0:0:0:0:
272,33,95743,1,2,0:2:0:0:
272,33,95854,1,8,0:0:0:0:
216,172,96187,1,2,0:0:0:0:
77,107,96521,5,0,0:0:0:0:
77,107,96854,2,0,P|78:55|100:8,1,105,2|0,0:0|0:0,0:0:0:0:
182,57,97410,1,0,0:0:0:0:
182,57,97521,2,0,L|201:124,1,70,2|0,0:0|0:0,0:0:0:0:
240,148,97854,2,0,L|259:215,1,70,0|0,0:0|0:0,0:0:0:0:
290,249,98187,1,2,0:0:0:0:
347,176,98410,1,0,0:0:0:0:
347,176,98521,2,0,B|360:141|360:141|359:108,1,70,0|0,0:0|0:0,0:0:0:0:
336,69,98854,1,2,0:0:0:0:
463,16,99187,5,0,0:0:0:0:
464,15,99521,2,0,P|465:68|484:116,1,105,2|0,0:0|0:0,0:0:0:0:
512,205,100076,1,0,0:0:0:0:
512,205,100187,2,0,L|482:268,1,70,2|0,0:0|0:0,0:0:0:0:
443,291,100521,2,0,L|413:354,1,70,0|0,0:0|0:0,0:0:0:0:
373,374,100854,1,2,0:0:0:0:
296,324,101076,1,0,0:0:0:0:
296,324,101187,2,0,P|263:315|225:324,1,70,0|0,0:0|0:0,0:0:0:0:
187,342,101521,1,2,0:0:0:0:
73,266,101854,5,0,0:0:0:0:
158,159,102187,1,2,0:0:0:0:
61,61,102521,1,0,0:0:0:0:
191,22,102854,6,0,P|270:31|293:41,1,105,2|0,0:0|0:0,0:0:0:0:
403,120,103521,1,2,0:0:0:0:
403,120,103854,2,0,P|324:129|301:139,1,105,0|2,0:0|0:0,0:0:0:0:
217,247,104521,5,0,0:0:0:0:
217,247,104854,2,0,L|98:240,1,105,2|0,0:0|0:0,0:0:0:0:
209,337,105521,1,2,0:0:0:0:
209,337,105854,2,0,L|328:330,1,105,0|2,0:0|0:0,0:0:0:0:
450,323,106521,1,2,0:0:0:0:
450,323,106854,1,2,0:0:0:0:
