osu file format v14

[General]
AudioFilename: audio.mp3
AudioLeadIn: 0
PreviewTime: 10271
Countdown: 0
SampleSet: None
StackLeniency: 0.7
Mode: 0
LetterboxInBreaks: 0
WidescreenStoryboard: 0

[Editor]
DistanceSpacing: 1
BeatDivisor: 4
GridSize: 16
TimelineZoom: 0.6399999

[Metadata]
Title:A Ghost's Pumpkin Soup
TitleUnicode:A Ghost's Pumpkin Soup
Artist:Hunnid-P
ArtistUnicode:Hunnid-P
Creator:Joe Castle
Version:Nyantiaz's Scary Advanced
Source:ソニックアドベンチャー2
Tags:-Harpuia- ezek Nyantiaz Alphabet Sonic Adventure 2 Battle SA2 SA2B Hedgehog Knuckles The Echidna Team multi-dimensional ORIGINAL SOUND TRACK Official Soundtrack OST Marvelous Entertainment Tokyopop Soundtrax wavemaster studio WAVE MASTER SEGA Tomoya Ohtani Emmanuel Armoogam Pacent Halloween ...for Hill 20th Anniversary Edition
BeatmapID:1805538
BeatmapSetID:859181

[Difficulty]
HPDrainRate:3.5
CircleSize:3.7
OverallDifficulty:5
ApproachRate:6
SliderMultiplier:1.8
SliderTickRate:1

[Events]
//Background and Video events
0,0,"I+used+this+bg+because+silver+the+hedgehog+is+in+there+uwu.jpg",0,0
//Break Periods
2,59387,63471
//Storyboard Layer 0 (Background)
//Storyboard Layer 1 (Fail)
//Storyboard Layer 2 (Pass)
//Storyboard Layer 3 (Foreground)
//Storyboard Sound Samples

[TimingPoints]
521.33321429192,666.666666666667,4,3,1,30,1,0
11187,-100,4,3,1,60,0,0
53854,-100,4,3,1,60,0,1
59187,-100,4,3,1,60,0,0
64521,-100,4,3,1,60,0,1
75187,-100,4,3,1,60,0,0
96521,-100,4,3,1,30,0,0

[Colours]
Combo1 : 255,83,83
Combo2 : 255,205,155
Combo3 : 255,47,47
Combo4 : 255,140,85

[HitObjects]
67,78,521,6,0,L|174:71,1,90,0|2,0:0|0:0,0:0:0:0:
230,124,1187,1,0,0:0:0:0:
229,212,1520,1,2,0:0:0:0:
177,286,1854,2,0,P|220:302|272:292,1,90,0|2,0:0|0:0,0:0:0:0:
319,270,2410,2,0,L|303:141,1,120,0|2,0:0|0:0,0:0:0:0:
263,71,3187,6,0,P|226:105|214:161,1,90,0|2,0:0|0:0,0:0:0:0:
131,177,3854,1,0,0:0:0:0:
176,256,4187,1,2,0:0:0:0:
234,325,4521,2,0,L|335:311,1,90,0|2,0:0|0:0,0:0:0:0:
371,276,5076,2,0,B|422:279|422:279|481:236,1,120,0|2,0:0|0:0,0:0:0:0:
398,190,5854,6,0,B|354:180|354:180|305:201,1,90,0|2,0:0|0:0,0:0:0:0:
229,232,6521,1,0,0:0:0:0:
233,142,6854,1,2,0:0:0:0:
193,61,7187,2,0,P|161:97|103:115,1,90,0|2,0:0|0:0,0:0:0:0:
64,126,7743,2,0,L|65:255,1,120,0|2,0:0|0:0,0:0:0:0:
143,290,8521,6,0,P|190:296|245:281,1,90,0|2,0:0|0:0,0:0:0:0:
296,225,9187,1,0,0:0:0:0:
306,140,9521,1,2,0:0:0:0:
222,172,9854,1,0,0:0:0:0:
296,225,10187,1,2,0:0:0:0:
306,140,10521,2,0,P|288:95|248:55,1,90,10|2,0:0|0:0,0:0:0:0:
175,103,11187,6,0,P|125:126|82:131,1,90,2|0,0:2|0:0,0:0:0:0:
6,94,11854,1,8,0:0:0:0:
18,183,12187,1,0,0:0:0:0:
87,239,12521,2,0,B|136:240|136:240|189:216,1,90,2|0,0:2|0:0,0:0:0:0:
231,171,13076,1,2,0:2:0:0:
231,171,13187,2,0,B|268:154|268:154|317:155,1,90,8|0,0:0|0:0,0:0:0:0:
388,209,13854,6,0,L|375:316,1,90,2|0,0:2|0:0,0:0:0:0:
436,366,14521,1,8,0:0:0:0:
489,293,14854,1,0,0:0:0:0:
482,203,15187,2,0,P|467:153|476:100,1,90,2|0,0:2|0:0,0:0:0:0:
487,39,15743,1,2,0:2:0:0:
487,39,15854,1,8,0:0:0:0:
404,8,16187,1,0,0:0:0:0:
314,19,16521,6,0,P|313:69|343:133,1,90,2|0,0:2|0:0,0:0:0:0:
337,195,17187,1,8,0:0:0:0:
256,153,17521,1,0,0:0:0:0:
173,188,17854,2,0,L|72:170,1,90,2|0,0:2|0:0,0:0:0:0:
31,229,18410,1,2,0:2:0:0:
31,229,18521,2,0,P|61:262|75:317,1,90,8|0,0:0|0:0,0:0:0:0:
151,352,19187,6,0,L|257:325,1,90,2|0,0:2|0:0,0:0:0:0:
276,248,19854,1,8,0:0:0:0:
214,182,20187,1,0,0:0:0:0:
258,103,20521,2,0,P|302:126|372:137,1,90,2|0,0:2|0:0,0:0:0:0:
418,113,21076,1,2,0:2:0:0:
418,113,21187,1,8,0:0:0:0:
471,190,21521,1,0,0:0:0:0:
396,240,21854,6,0,L|382:338,1,90,2|0,0:2|0:0,0:0:0:0:
297,356,22521,1,8,0:0:0:0:
245,282,22854,1,0,0:0:0:0:
315,226,23187,2,0,L|302:136,1,90,2|0,0:2|0:0,0:0:0:0:
262,69,23743,1,2,0:2:0:0:
262,69,23854,2,0,P|217:58|157:80,1,90,8|0,0:0|0:0,0:0:0:0:
130,150,24521,6,0,P|175:161|235:139,1,90,2|0,0:2|0:0,0:0:0:0:
293,200,25187,1,8,0:0:0:0:
222,256,25521,1,0,0:0:0:0:
288,318,25854,2,0,L|380:307,1,90,2|0,0:2|0:0,0:0:0:0:
422,243,26410,1,2,0:2:0:0:
422,243,26521,1,8,0:0:0:0:
386,160,26854,1,0,0:0:0:0:
299,185,27187,6,0,P|251:189|187:171,1,90,2|0,0:2|0:0,0:0:0:0:
139,124,27854,1,8,0:0:0:0:
72,184,28187,1,0,0:0:0:0:
142,240,28521,2,0,L|184:322,1,90,2|0,0:2|0:0,0:0:0:0:
257,359,29076,1,2,0:2:0:0:
257,359,29187,1,8,0:0:0:0:
332,310,29521,1,0,0:0:0:0:
283,236,29854,6,0,P|285:188|308:137,1,90,2|0,0:2|0:0,0:0:0:0:
377,194,30521,1,8,0:0:0:0:
410,110,30854,1,0,0:0:0:0:
345,47,31187,2,0,L|237:57,1,90,2|0,0:0|0:0,0:0:0:0:
207,91,31743,2,0,P|218:138|201:208,1,120,2|2,0:0|0:0,0:0:0:0:
155,284,32521,6,0,P|201:296|263:274,1,90,2|2,0:2|0:0,0:0:0:0:
305,223,33187,1,8,0:0:0:0:
341,307,33521,1,2,0:0:0:0:
422,268,33854,2,0,L|407:177,1,90,2|2,0:2|0:0,0:0:0:0:
372,109,34410,1,2,0:2:0:0:
372,109,34521,2,0,P|327:126|268:126,1,90,8|2,0:0|0:0,0:0:0:0:
218,68,35187,6,0,P|198:115|200:162,1,90,2|2,0:2|0:0,0:0:0:0:
202,242,35854,1,8,0:0:0:0:
113,224,36187,1,2,0:0:0:0:
149,306,36521,2,0,P|203:323|264:306,1,90,2|2,0:2|0:0,0:0:0:0:
283,257,37076,1,2,0:2:0:0:
283,257,37187,1,8,0:0:0:0:
257,171,37521,1,2,0:0:0:0:
302,93,37854,6,0,P|257:80|194:109,1,90,2|2,0:2|0:0,0:0:0:0:
165,164,38521,1,8,0:0:0:0:
257,171,38854,1,2,0:0:0:0:
320,234,39187,2,0,L|311:328,1,90,2|2,0:2|0:0,0:0:0:0:
236,346,39743,1,2,0:2:0:0:
236,346,39854,2,0,P|187:345|143:316,1,90,8|2,0:0|0:0,0:0:0:0:
66,295,40521,6,0,L|52:202,1,90,2|2,0:2|0:0,0:0:0:0:
100,129,41187,1,8,0:0:0:0:
168,187,41521,1,2,0:0:0:0:
235,127,41854,2,0,L|334:133,1,90,2|2,0:2|0:0,0:0:0:0:
391,183,42410,1,2,0:2:0:0:
391,183,42521,1,8,0:0:0:0:
356,267,42854,1,2,0:0:0:0:
284,321,43187,6,0,P|238:328|195:318,1,90,2|2,0:2|0:0,0:0:0:0:
125,262,43854,1,8,0:0:0:0:
204,220,44187,1,2,0:0:0:0:
141,155,44521,2,0,L|154:62,1,90,2|2,0:2|0:0,0:0:0:0:
230,45,45076,1,2,0:2:0:0:
230,45,45187,2,0,P|272:63|326:61,1,90,8|2,0:0|0:0,0:0:0:0:
399,30,45854,6,0,L|390:136,1,90,2|2,0:2|0:0,0:0:0:0:
368,206,46521,1,8,0:0:0:0:
292,156,46854,1,2,0:0:0:0:
295,245,47187,2,0,P|305:288|273:351,1,90,2|2,0:2|0:0,0:0:0:0:
216,352,47743,1,2,0:2:0:0:
216,352,47854,1,8,0:0:0:0:
137,307,48187,1,2,0:0:0:0:
82,235,48521,6,0,B|152:210|128:125|128:125|179:165|237:141|237:141|259:75|207:33,1,360,2|0,0:2|0:0,0:0:0:0:
394,66,50521,2,0,P|409:105|398:176,1,90,8|2,0:0|0:0,0:0:0:0:
376,238,51187,6,0,L|356:325,1,90,2|2,0:2|0:0,0:0:0:0:
276,369,51854,1,8,0:0:0:0:
208,309,52187,1,2,0:0:0:0:
265,239,52521,2,0,L|247:143,1,90,2|2,0:2|0:0,0:0:0:0:
222,76,53076,1,2,0:2:0:0:
222,76,53187,2,0,P|175:89|103:76,1,90,8|2,0:0|0:0,0:0:0:0:
58,135,53854,6,0,L|66:249,1,90,2|2,0:2|0:0,0:0:0:0:
123,292,54521,1,8,0:0:0:0:
190,232,54854,1,2,0:0:0:0:
263,284,55187,2,0,L|359:263,1,90,2|2,0:2|0:0,0:0:0:0:
376,190,55743,1,2,0:2:0:0:
376,190,55854,2,0,P|371:143|343:79,1,90,8|2,0:0|0:0,0:0:0:0:
296,36,56521,6,0,P|281:78|276:123,1,90,2|2,0:2|0:0,0:0:0:0:
203,175,57187,1,8,0:0:0:0:
148,103,57521,1,2,0:0:0:0:
77,158,57854,2,0,L|56:257,1,90,2|2,0:2|0:0,0:0:0:0:
75,327,58410,1,2,0:2:0:0:
75,327,58521,1,8,0:0:0:0:
159,296,58854,1,2,0:0:0:0:
235,342,59187,5,2,0:2:0:0:
420,75,64521,6,0,P|378:98|312:95,1,90,2|2,0:2|0:0,0:0:0:0:
261,51,65187,1,8,0:0:0:0:
269,140,65521,1,2,0:0:0:0:
209,207,65854,2,0,L|119:199,1,90,2|2,0:2|0:0,0:0:0:0:
54,243,66410,1,2,0:2:0:0:
54,243,66521,2,0,P|65:291|93:342,1,90,8|2,0:0|0:0,0:0:0:0:
167,359,67187,6,0,L|263:347,1,90,2|2,0:2|0:0,0:0:0:0:
329,294,67854,1,8,0:0:0:0:
278,219,68187,1,2,0:0:0:0:
367,212,68521,2,0,L|349:119,1,90,2|2,0:2|0:0,0:0:0:0:
317,52,69076,1,2,0:2:0:0:
317,52,69187,1,8,0:0:0:0:
256,119,69521,1,2,0:0:0:0:
176,77,69854,6,0,L|92:123,1,90,2|2,0:0|0:0,0:0:0:0:
64,204,70521,2,0,P|61:255|80:302,1,90,8|2,0:0|0:0,0:0:0:0:
145,344,71187,1,2,0:0:0:0:
207,279,71521,1,2,0:0:0:0:
268,336,71743,1,2,0:2:0:0:
268,336,71854,2,0,L|368:320,1,90,8|2,0:0|0:0,0:0:0:0:
423,259,72521,6,0,P|436:214|428:160,1,90,2|2,0:2|0:0,0:0:0:0:
388,92,73187,1,8,0:0:0:0:
328,159,73521,1,2,0:0:0:0:
273,87,73854,2,0,L|183:76,1,90,2|2,0:2|0:0,0:0:0:0:
108,97,74410,1,2,0:2:0:0:
108,97,74521,2,0,P|111:143|122:205,1,90,10|2,0:0|0:0,0:0:0:0:
187,248,75187,6,0,P|193:203|196:158,1,90,2|2,0:2|0:0,0:0:0:0:
276,119,75854,1,8,0:0:0:0:
335,187,76187,1,2,0:0:0:0:
411,139,76521,2,0,P|425:190|410:245,1,90,2|2,0:2|0:0,0:0:0:0:
375,290,77076,1,2,0:2:0:0:
375,290,77187,2,0,L|264:299,1,90,8|2,0:0|0:0,0:0:0:0:
203,258,77854,6,0,L|216:162,1,90,2|2,0:2|0:0,0:0:0:0:
169,90,78521,1,8,0:0:0:0:
95,141,78854,1,2,0:0:0:0:
59,223,79187,2,0,L|71:312,1,90,2|2,0:2|0:0,0:0:0:0:
147,345,79743,1,2,0:2:0:0:
147,345,79854,1,8,0:0:0:0:
227,304,80187,1,2,0:0:0:0:
315,321,80521,6,0,P|310:273|280:225,1,90,2|2,0:2|0:0,0:0:0:0:
227,304,81187,1,8,0:0:0:0:
187,222,81521,1,2,0:0:0:0:
244,152,81854,2,0,L|343:159,1,90,2|2,0:2|0:0,0:0:0:0:
405,122,82410,1,2,0:2:0:0:
405,122,82521,2,0,P|420:79|416:24,1,90,8|2,0:0|0:0,0:0:0:0:
334,64,83187,6,0,L|234:56,1,90,2|2,0:2|0:0,0:0:0:0:
168,105,83854,1,8,0:0:0:0:
244,152,84187,1,2,0:0:0:0:
169,203,84521,2,0,P|180:246|176:295,1,90,2|2,0:2|0:0,0:0:0:0:
122,346,85076,1,2,0:2:0:0:
122,346,85187,1,10,0:0:0:0:
34,325,85521,1,2,0:0:0:0:
71,243,85854,6,0,L|63:138,1,90,2|2,0:2|0:0,0:0:0:0:
105,72,86521,1,8,0:0:0:0:
178,123,86854,1,2,0:0:0:0:
259,85,87187,2,0,P|263:141|236:202,1,90,2|2,0:2|0:0,0:0:0:0:
221,244,87743,1,2,0:2:0:0:
221,244,87854,2,0,P|217:300|244:361,1,90,8|2,0:0|0:0,0:0:0:0:
304,284,88521,6,0,L|407:274,1,90,2|2,0:2|0:0,0:0:0:0:
470,227,89187,1,8,0:0:0:0:
395,174,89521,1,2,0:0:0:0:
403,84,89854,2,0,P|354:94|317:134,1,90,2|2,0:2|0:0,0:0:0:0:
277,182,90410,1,2,0:2:0:0:
277,182,90521,1,8,0:0:0:0:
195,142,90854,1,2,0:0:0:0:
123,197,91187,6,0,L|117:303,1,90,2|2,0:2|0:0,0:0:0:0:
34,251,91854,1,8,0:0:0:0:
23,161,92187,1,2,0:0:0:0:
77,89,92521,2,0,P|125:102|192:89,1,90,2|2,0:2|0:0,0:0:0:0:
232,59,93076,1,2,0:2:0:0:
232,59,93187,2,0,P|280:49|322:61,1,90,8|2,0:0|0:0,0:0:0:0:
279,140,93854,6,0,L|285:243,1,90,2|2,0:2|0:0,0:0:0:0:
226,299,94521,1,8,0:0:0:0:
152,247,94854,1,2,0:0:0:0:
428,322,96521,6,0,L|417:220,1,90,0|2,0:0|0:0,0:0:0:0:
447,147,97187,1,0,0:0:0:0:
387,79,97521,1,2,0:0:0:0:
315,133,97854,2,0,L|215:123,1,90,0|2,0:0|0:0,0:0:0:0:
177,160,98410,2,0,P|188:213|181:285,1,120,0|2,0:0|0:0,0:0:0:0:
96,300,99187,6,0,P|94:255|104:211,1,90,0|2,0:0|0:0,0:0:0:0:
48,140,99854,1,0,0:0:0:0:
107,71,100187,1,2,0:0:0:0:
179,125,100521,2,0,L|276:112,1,90,0|2,0:0|0:0,0:0:0:0:
316,148,101076,2,0,L|438:131,1,120,0|2,0:0|0:0,0:0:0:0:
397,215,101854,6,0,P|391:263|392:310,1,90,0|2,0:0|0:0,0:0:0:0:
328,369,102521,1,0,0:0:0:0:
269,300,102854,1,2,0:0:0:0:
189,342,103187,2,0,P|182:293|205:231,1,90,0|2,0:0|0:0,0:0:0:0:
224,203,103743,2,0,P|231:147|193:83,1,120,0|2,0:0|0:0,0:0:0:0:
145,161,104521,6,0,L|47:167,1,90,0|2,0:0|0:0,0:0:0:0:
1,97,105187,1,0,0:0:0:0:
73,43,105521,1,2,0:0:0:0:
154,80,105854,2,0,L|260:74,1,90,0|2,0:0|0:0,0:0:0:0:
321,121,106521,1,2,0:0:0:0:
272,196,106854,1,2,0:0:0:0:
