osu file format v14

[General]
AudioFilename: audio.mp3
AudioLeadIn: 0
PreviewTime: 10271
Countdown: 0
SampleSet: None
StackLeniency: 0.7
Mode: 0
LetterboxInBreaks: 0
WidescreenStoryboard: 0

[Editor]
Bookmarks: 32515,53626,64515,85848,107181
DistanceSpacing: 1.9
BeatDivisor: 6
GridSize: 4
TimelineZoom: 1.6

[Metadata]
Title:A Ghost's Pumpkin Soup
TitleUnicode:A Ghost's Pumpkin Soup
Artist:Hunnid-P
ArtistUnicode:Hunnid-P
Creator:Joe Castle
Version:Haunted Place
Source:ソニックアドベンチャー2
Tags:-Harpuia- ezek Nyantiaz Alphabet Sonic Adventure 2 Battle SA2 SA2B Hedgehog Knuckles The Echidna Team multi-dimensional ORIGINAL SOUND TRACK Official Soundtrack OST Marvelous Entertainment Tokyopop Soundtrax wavemaster studio WAVE MASTER SEGA Tomoya Ohtani Emmanuel Armoogam Pacent Halloween ...for Hill 20th Anniversary Edition
BeatmapID:1805537
BeatmapSetID:859181

[Difficulty]
HPDrainRate:6.5
CircleSize:5
OverallDifficulty:8
ApproachRate:9
SliderMultiplier:2.2
SliderTickRate:1

[Events]
//Background and Video events
0,0,"I+used+this+bg+because+silver+the+hedgehog+is+in+there+uwu.jpg",0,0
//Break Periods
//Storyboard Layer 0 (Background)
//Storyboard Layer 1 (Fail)
//Storyboard Layer 2 (Pass)
//Storyboard Layer 3 (Foreground)
//Storyboard Sound Samples

[TimingPoints]
521.33321429192,666.666666666667,4,3,1,30,1,0
1187,-100,4,3,1,15,0,0
1410,-100,4,3,1,30,0,0
3854,-100,4,3,1,15,0,0
4076,-100,4,3,1,30,0,0
6521,-100,4,3,1,15,0,0
6743,-100,4,3,1,30,0,0
9187,-100,4,3,1,15,0,0
10410,-100,4,3,1,30,0,0
11187,-83.3333333333333,4,3,1,60,0,0
31187,-62.5,4,3,1,60,0,0
32187,-45.4545454545455,4,3,1,60,0,0
32521,-83.3333333333333,4,3,1,60,0,0
48521,-100,4,3,1,60,0,0
50521,-71.4285714285714,4,3,1,60,0,0
50854,-55.5555555555556,4,3,1,60,0,0
51187,-83.3333333333333,4,3,1,60,0,0
53854,-76.9230769230769,4,3,1,60,0,1
59187,-100,4,3,1,60,0,0
60187,-100,4,3,1,15,0,0
60410,-100,4,3,1,60,0,0
61521,-100,4,3,1,15,0,0
61743,-100,4,3,1,60,0,0
63854,-83.3333333333333,4,3,1,60,0,0
64521,-76.9230769230769,4,3,1,60,0,1
69521,-62.5,4,3,1,60,0,1
69854,-45.4545454545455,4,3,1,60,0,1
70187,-76.9230769230769,4,3,1,60,0,1
70854,-62.5,4,3,1,60,0,1
71187,-45.4545454545455,4,3,1,60,0,1
71521,-76.9230769230769,4,3,1,60,0,1
75187,-83.3333333333333,4,3,1,60,0,0
96521,-100,4,3,1,30,0,0
97187,-100,4,3,1,15,0,0
97410,-100,4,3,1,30,0,0
99854,-100,4,3,1,15,0,0
100076,-100,4,3,1,30,0,0
102521,-100,4,3,1,15,0,0
102854,-100,4,3,1,30,0,0
105187,-100,4,3,1,15,0,0
105521,-100,4,3,1,30,0,0

[Colours]
Combo1 : 255,83,83
Combo2 : 255,205,155
Combo3 : 255,47,47
Combo4 : 255,140,85

[HitObjects]
245,68,521,6,0,B|194:87|194:87|129:81,2,110,0|2|0,0:0|0:0|0:0,0:0:0:0:
375,14,1410,5,0,0:0:0:0:
375,14,1521,2,0,P|375:59|400:100,1,73.3333333333333,2|0,0:0|0:0,0:0:0:0:
438,130,1854,2,0,P|445:174|428:219,1,73.3333333333333
401,259,2186,1,2,0:0:0:0:
503,361,2410,5,0,0:0:0:0:
503,361,2521,2,0,B|466:347|428:362,1,73.3333333333333
365,382,2854,1,2,0:0:0:0:
285,273,3076,1,2,0:0:0:0:
285,273,3187,6,0,P|231:298|179:279,2,110,0|2|0,0:0|0:0|0:0,0:0:0:0:
365,382,4076,5,0,0:0:0:0:
365,382,4187,2,0,B|345:350|353:311,1,73.3333333333333,2|0,0:0|0:0,0:0:0:0:
377,245,4521,2,0,P|340:246|305:231,1,73.3333333333333
252,188,4854,1,2,0:0:0:0:
139,270,5076,5,0,0:0:0:0:
139,270,5187,2,0,B|144:233|144:233|132:194|132:194|139:149,1,110,0|2,0:0|0:0,0:0:0:0:
275,180,5743,1,0,0:0:0:0:
275,180,5854,6,0,B|270:143|270:143|282:104|282:104|277:72,2,110,0|2|0,0:0|0:0|0:0,0:0:0:0:
297,317,6743,5,0,0:0:0:0:
297,317,6854,2,0,P|263:331|229:320,1,73.3333333333333,2|0,0:0|0:0,0:0:0:0:
166,292,7187,2,0,P|131:281|98:295,1,73.3333333333333
46,341,7521,1,2,0:0:0:0:
86,209,7743,5,0,0:0:0:0:
86,209,7854,2,0,P|92:173|83:137,1,73.3333333333333
55,74,8187,1,2,0:0:0:0:
195,107,8410,1,2,0:0:0:0:
195,107,8521,6,0,B|250:112|250:112|301:93,2,110,0|2|0,0:0|0:0|0:0,0:0:0:0:
86,209,9521,5,2,0:0:0:0:
122,312,9743,1,0,0:0:0:0:
122,312,9854,1,0,0:0:0:0:
192,228,10076,1,0,0:0:0:0:
192,228,10187,1,2,0:0:0:0:
254,360,10410,5,0,0:0:0:0:
254,360,10521,2,0,P|293:343|369:373,1,110,10|2,0:0|0:0,0:0:0:0:
476,253,11076,1,0,0:0:0:0:
476,253,11187,6,0,P|441:264|386:247,1,87.9999973144532,2|0,0:2|0:0,0:0:0:0:
328,210,11521,2,0,P|286:197|244:208,1,87.9999973144532
181,247,11854,1,8,0:0:0:0:
74,351,12076,5,0,0:0:0:0:
74,351,12187,2,0,L|80:259,1,87.9999973144532
123,202,12521,2,0,L|117:110,1,87.9999973144532,0|0,0:2|0:0,0:0:0:0:
64,60,12854,1,0,0:0:0:0:
197,126,13076,5,2,0:2:0:0:
197,126,13187,1,8,0:0:0:0:
336,71,13410,1,0,0:0:0:0:
336,71,13521,2,0,P|349:113|345:157,1,87.9999973144532
384,220,13854,6,0,P|303:217|283:188,1,87.9999973144532,2|0,0:2|0:0,0:0:0:0:
233,187,14187,1,0,0:0:0:0:
91,236,14409,1,0,0:0:0:0:
91,236,14520,2,0,P|172:233|192:204,1,87.9999973144532,8|0,0:0|0:0,0:0:0:0:
233,187,14853,6,0,L|244:290,1,87.9999973144532,0|2,0:0|0:2,0:0:0:0:
206,339,15187,2,0,P|251:348|297:325,1,87.9999973144532
347,285,15521,1,0,0:0:0:0:
475,361,15743,5,2,0:2:0:0:
475,361,15854,1,8,0:0:0:0:
476,210,16076,2,0,P|413:196|377:142,1,131.99999597168
416,77,16521,6,0,B|381:59|348:73|348:73|312:88|288:72,1,131.99999597168,2|0,0:2|0:0,0:0:0:0:
151,13,17076,1,0,0:0:0:0:
151,13,17187,1,8,0:0:0:0:
164,162,17410,5,0,0:0:0:0:
164,162,17521,2,0,P|204:177|245:165,1,87.9999973144532
313,133,17854,2,0,L|324:236,1,87.9999973144532
369,278,18187,2,0,P|328:293|286:284,1,87.9999973144532,0|2,0:0|0:2,0:0:0:0:
225,240,18521,5,8,0:0:0:0:
148,368,18743,1,0,0:0:0:0:
148,368,18854,1,0,0:0:0:0:
23,286,19075,1,0,0:0:0:0:
23,286,19187,6,0,B|16:239|16:239|31:190|31:190|25:150,1,131.99999597168,2|0,0:2|0:0,0:0:0:0:
115,36,19743,1,0,0:0:0:0:
115,36,19854,2,0,L|133:152,1,87.9999973144532,8|0,0:0|0:0,0:0:0:0:
153,193,20187,6,0,P|194:205|234:189,1,87.9999973144532,0|2,0:0|0:2,0:0:0:0:
297,148,20521,2,0,P|337:132|378:144,1,87.9999973144532
445,178,20854,1,0,0:0:0:0:
468,327,21076,5,2,0:2:0:0:
468,327,21187,2,0,P|406:287|336:298,1,131.99999597168,8|0,0:0|0:0,0:0:0:0:
224,373,21743,1,0,0:0:0:0:
224,373,21854,6,0,P|194:314|206:250,1,131.99999597168,2|0,0:2|0:0,0:0:0:0:
310,144,22410,1,0,0:0:0:0:
310,144,22521,1,8,0:0:0:0:
163,112,22743,5,0,0:0:0:0:
163,112,22854,2,0,L|76:107,1,87.9999973144532
14,63,23187,2,0,P|0:104|11:146,1,87.9999973144532
78,180,23521,2,0,P|89:221|75:263,1,87.9999973144532,0|2,0:0|0:2,0:0:0:0:
46,332,23854,6,0,B|94:327|94:327|136:342,1,87.9999973144532,8|0,0:0|0:0,0:0:0:0:
192,383,24187,1,0,0:0:0:0:
341,371,24410,1,0,0:0:0:0:
341,371,24521,6,0,P|305:331|305:280,1,87.9999973144532,2|0,0:2|0:0,0:0:0:0:
258,236,24854,2,0,P|302:234|338:200,1,87.9999973144532
363,137,25187,1,8,0:0:0:0:
507,177,25410,5,0,0:0:0:0:
507,177,25521,2,0,P|466:191|424:179,1,87.9999973144532,0|2,0:0|0:2,0:0:0:0:
363,137,25854,2,0,P|298:118|235:140,1,131.99999597168
194,282,26410,5,2,0:2:0:0:
194,281,26521,2,0,B|168:247|168:247|123:232,1,87.9999973144532,8|0,0:0|0:0,0:0:0:0:
50,232,26854,1,0,0:0:0:0:
0,96,27076,1,0,0:0:0:0:
0,96,27187,6,0,L|132:90,1,131.99999597168,2|0,0:2|0:0,0:0:0:0:
271,34,27743,1,0,0:2:0:0:
271,34,27854,1,8,0:0:0:0:
254,182,28076,5,0,0:0:0:0:
254,182,28187,2,0,P|251:263|222:283,1,87.9999973144532
215,330,28521,2,0,L|302:324,1,87.9999973144532
371,352,28854,1,0,0:0:0:0:
406,206,29076,5,2,0:2:0:0:
406,206,29187,2,0,P|409:125|438:105,1,87.9999973144532,8|0,0:0|0:0,0:0:0:0:
464,69,29521,1,0,0:0:0:0:
316,46,29743,1,0,0:0:0:0:
316,46,29854,6,0,B|180:44,1,131.99999597168,2|0,0:2|0:0,0:0:0:0:
73,147,30410,1,0,0:0:0:0:
73,147,30521,2,0,B|209:149,1,131.99999597168,8|0,0:0|0:0,0:0:0:0:
316,247,31076,1,0,0:0:0:0:
316,247,31187,6,2,B|279:220|234:245|234:245|233:238|233:238|233:246|233:246|194:267|164:246,1,176,2|0,0:0|0:0,0:0:0:0:
40,344,31743,6,2,B|80:317|125:342|125:342|124:350|124:350|126:343|126:343|161:361|195:343,1,176,2|0,0:0|0:0,0:0:0:0:
331,350,32187,6,2,P|283:308|285:371,1,161.333338256836,2|0,0:0|0:0,0:0:0:0:
422,381,32521,6,2,B|433:354|418:328|418:328|423:309|423:309|408:284|422:254,1,131.99999597168,2|2,0:2|0:0,0:0:0:0:
499,126,33076,1,0,0:0:0:0:
498,126,33187,2,0,P|456:138|416:122,1,87.9999973144532,8|0,0:0|0:0,0:0:0:0:
349,89,33521,5,2,0:0:0:0:
234,188,33743,1,0,0:0:0:0:
234,188,33854,2,0,L|240:280,1,87.9999973144532
278,339,34187,2,0,P|237:351|197:335,1,87.9999973144532,2|2,0:0|0:2,0:0:0:0:
150,275,34521,5,8,0:0:0:0:
20,349,34743,1,0,0:0:0:0:
20,349,34854,1,2,0:0:0:0:
28,199,35076,1,2,0:0:0:0:
28,199,35187,6,0,P|69:211|109:195,1,87.9999973144532,2|0,0:2|0:0,0:0:0:0:
172,154,35521,2,0,P|212:138|253:150,1,87.9999973144532,2|0,0:0|0:0,0:0:0:0:
318,188,35854,1,8,0:0:0:0:
425,292,36076,5,0,0:0:0:0:
425,292,36187,2,0,L|419:204,1,87.9999973144532,2|2,0:0|0:2,0:0:0:0:
442,132,36521,2,0,P|400:140|361:120,1,87.9999973144532
301,75,36854,1,2,0:0:0:0:
172,154,37076,5,2,0:2:0:0:
172,154,37187,1,8,0:0:0:0:
225,294,37410,1,0,0:0:0:0:
225,294,37521,2,0,P|183:281|142:297,1,87.9999973144532,2|0,0:0|0:0,0:0:0:0:
82,340,37854,5,2,0:2:0:0:
51,197,38076,1,0,0:0:0:0:
51,197,38187,2,0,P|58:153|47:109,1,87.9999973144532,2|0,0:0|0:0,0:0:0:0:
9,46,38521,2,0,L|96:51,1,87.9999973144532,8|0,0:0|0:0,0:0:0:0:
150,104,38854,5,2,0:0:0:0:
271,16,39076,1,0,0:0:0:0:
271,16,39187,2,0,B|255:39|270:75|270:75|284:108|266:143,1,131.99999597168,0|2,0:0|0:0,0:0:0:0:
150,238,39743,5,2,0:2:0:0:
150,238,39854,2,0,P|196:225|241:244,1,87.9999973144532,8|0,0:0|0:0,0:0:0:0:
289,287,40187,1,2,0:0:0:0:
419,371,40410,1,2,0:0:0:0:
419,371,40521,6,0,L|413:279,1,87.9999973144532,2|0,0:2|0:0,0:0:0:0:
370,222,40854,2,0,L|376:130,1,87.9999973144532,2|0,0:0|0:0,0:0:0:0:
429,80,41188,1,8,0:0:0:0:
281,53,41410,5,0,0:0:0:0:
280,53,41521,2,0,P|238:65|198:49,1,87.9999973144532,2|2,0:0|0:2,0:0:0:0:
128,21,41854,2,0,B|123:54|123:54|138:102|138:102|129:150,1,131.99999597168,0|2,0:0|0:0,0:0:0:0:
44,273,42410,5,2,0:2:0:0:
44,273,42521,2,0,P|80:250|122:254,1,87.9999973144532,8|0,0:0|0:0,0:0:0:0:
191,287,42854,1,2,0:0:0:0:
304,383,43076,1,0,0:0:0:0:
304,383,43187,6,0,P|289:343|301:302,1,87.9999973144532,2|0,0:2|0:0,0:0:0:0:
332,232,43521,2,0,P|289:236|252:213,1,87.9999973144532,2|0,0:0|0:0,0:0:0:0:
210,152,43854,1,8,0:0:0:0:
73,212,44076,5,0,0:0:0:0:
73,212,44187,1,2,0:0:0:0:
96,63,44410,1,0,0:0:0:0:
96,63,44521,2,0,P|137:75|177:59,1,87.9999973144532
236,12,44854,1,2,0:0:0:0:
344,115,45076,5,2,0:2:0:0:
344,115,45187,2,0,P|300:102|236:165,1,131.99999597168,8|2,0:0|0:0,0:0:0:0:
99,208,45743,1,2,0:0:0:0:
99,208,45854,6,0,P|114:249|100:291,1,87.9999973144532,2|0,0:2|0:0,0:0:0:0:
50,346,46187,1,2,0:0:0:0:
200,347,46410,1,0,0:0:0:0:
200,347,46521,2,0,B|223:331|258:348|258:348|291:363|327:346,1,131.99999597168,8|2,0:0|0:0,0:0:0:0:
474,368,47076,5,2,0:2:0:0:
474,368,47187,2,0,P|461:327|472:285,1,87.9999973144532
509,219,47521,1,2,0:0:0:0:
359,229,47743,1,2,0:2:0:0:
359,229,47854,6,0,L|226:226,1,131.99999597168,8|2,0:0|0:0,0:0:0:0:
99,304,48410,1,0,0:0:0:0:
99,304,48521,6,0,B|104:267|104:267|92:228|92:228|99:183,1,110,2|2,0:2|0:0,0:0:0:0:
209,115,49076,5,0,0:0:0:0:
209,115,49187,2,0,B|204:152|204:152|216:191|216:191|209:236,1,110,0|2,0:0|0:0,0:0:0:0:
324,304,49743,5,0,0:0:0:0:
324,304,49854,2,0,B|329:267|329:267|317:228|317:228|324:183,1,110,0|2,0:0|0:0,0:0:0:0:
436,115,50410,5,2,0:2:0:0:
436,115,50521,2,0,B|431:145|431:145|441:178|441:178|436:215,1,102.666663533529,8|0,0:0|0:0,0:0:0:0:
422,287,50854,6,2,B|402:309|368:304|368:304|368:309|368:309|371:305|371:305|328:295|321:264,1,131.99999597168
312,197,51187,6,0,P|277:186|222:203,1,87.9999973144532,2|0,0:2|0:0,0:0:0:0:
171,247,51521,1,2,0:0:0:0:
27,203,51743,1,0,0:0:0:0:
27,203,51854,1,8,0:0:0:0:
142,107,52076,5,0,0:0:0:0:
142,107,52187,2,0,B|163:103|163:103|195:113|195:113|226:108,1,87.9999973144532,2|2,0:0|0:2,0:0:0:0:
270,46,52521,2,0,P|297:78|302:123,1,87.9999973144532
312,197,52854,1,2,0:0:0:0:
366,336,53076,5,2,0:2:0:0:
366,336,53187,2,0,P|313:300|254:323,1,131.99999597168,8|2,0:0|0:0,0:0:0:0:
112,361,53743,1,0,0:0:0:0:
112,361,53854,6,0,P|128:316|115:270,1,95.3333289693199,2|0,0:2|0:0,0:0:0:0:
52,220,54187,2,0,P|39:174|55:130,1,95.3333289693199,2|0,0:0|0:0,0:0:0:0:
95,59,54521,1,8,0:0:0:0:
199,185,54743,5,0,0:0:0:0:
199,185,54854,2,0,L|296:191,1,95.3333289693199,2|0,0:0|0:0,0:0:0:0:
363,234,55187,2,0,L|460:227,1,95.3333289693199
511,165,55521,1,2,0:0:0:0:
441,311,55743,5,2,0:2:0:0:
441,311,55854,1,8,0:0:0:0:
284,354,56076,1,0,0:0:0:0:
284,354,56187,2,0,P|273:308|288:261,1,95.3333289693199,2|2,0:0|0:0,0:0:0:0:
317,187,56521,6,0,B|215:193,1,95.3333289693199,2|0,0:2|0:0,0:0:0:0:
146,164,56854,1,2,0:0:0:0:
77,310,57076,1,0,0:0:0:0:
77,310,57187,2,0,B|82:209,1,95.3333289693199,8|0,0:0|0:0,0:0:0:0:
146,164,57521,6,0,B|149:135|149:135|140:105|140:105|146:70,1,95.3333289693199,2|2,0:0|0:2,0:0:0:0:
220,101,57854,2,0,P|265:117|311:104,1,95.3333289693199
347,33,58187,1,2,0:0:0:0:
489,118,58409,5,2,0:2:0:0:
489,118,58521,2,0,L|482:219,1,95.3333289693199,8|0,0:0|0:0,0:0:0:0:
423,268,58854,2,0,P|390:231|341:226,1,95.3333289693199,2|0,0:0|0:0,0:0:0:0:
270,196,59187,6,0,B|265:227|265:227|277:266|277:266|272:303,1,110,2|0,0:2|0:0,0:0:0:0:
145,363,59743,1,0,0:0:0:0:
145,363,59854,2,0,P|92:351|62:306,1,110,8|0,0:0|0:0,0:0:0:0:
30,174,60410,5,0,0:0:0:0:
30,174,60521,2,0,P|60:183|107:168,1,73.3333333333333
161,139,60855,2,0,P|197:127|233:137,1,73.3333333333333,0|2,0:0|0:2,0:0:0:0:
283,180,61187,2,0,B|404:174,1,110,8|0,0:0|0:0,0:0:0:0:
493,76,61743,5,0,0:0:0:0:
493,76,61854,2,0,B|372:82,1,110,2|0,0:2|0:0,0:0:0:0:
260,144,62410,1,0,0:0:0:0:
260,144,62521,2,0,P|204:125|149:145,1,110,8|0,0:0|0:0,0:0:0:0:
49,50,63076,5,2,0:2:0:0:
49,50,63187,2,0,B|54:87|54:87|42:126|42:126|46:157,1,110
30,296,63743,1,2,0:2:0:0:
30,296,63854,2,0,P|67:271|108:278,1,87.9999973144532,8|0,0:0|0:0,0:0:0:0:
173,312,64187,1,2,0:0:0:0:
316,371,64410,1,0,0:0:0:0:
316,371,64521,6,0,P|283:307|296:237,1,142.99999345398,2|2,0:2|0:0,0:0:0:0:
421,135,65077,1,0,0:0:0:0:
421,135,65188,1,8,0:0:0:0:
264,94,65410,5,0,0:0:0:0:
264,94,65521,2,0,P|180:90|159:60,1,95.3333289693199,2|0,0:0|0:0,0:0:0:0:
113,35,65854,2,0,L|101:141,1,95.3333289693199
51,192,66187,1,2,0:0:0:0:
212,171,66410,5,2,0:2:0:0:
212,171,66521,2,0,L|224:277,1,95.3333289693199,8|0,0:0|0:0,0:0:0:0:
274,328,66854,1,2,0:0:0:0:
117,369,67076,1,2,0:0:0:0:
117,369,67187,6,0,P|83:335|77:289,1,95.3333289693199,2|0,0:2|0:0,0:2:0:0:
27,225,67520,2,0,P|73:221|106:189,1,95.3333289693199,2|0,0:0|0:0,0:0:0:0:
122,108,67854,1,8,0:0:0:0:
252,213,68076,5,0,0:0:0:0:
252,213,68187,1,2,0:0:0:0:
261,64,68410,1,2,0:2:0:0:
261,64,68521,2,0,B|286:81|326:65|326:65|363:49|401:69,1,142.99999345398,0|2,0:0|0:0,0:0:0:0:
496,200,69076,5,2,0:2:0:0:
496,200,69187,2,0,P|448:200|414:232,1,95.3333289693199,8|0,0:0|0:0,0:0:0:0:
431,312,69521,6,2,B|403:320|381:308|381:308|372:318|372:318|352:307|319:315,1,117.333333333333,2|0,0:0|0:0,0:0:0:0:
188,292,69854,6,2,P|233:337|234:274,1,161.333338256836,2|0,0:0|0:0,0:0:0:0:
181,212,70187,5,2,0:0:0:0:
32,278,70410,1,2,0:2:0:0:
32,278,70521,1,8,0:0:0:0:
54,117,70743,1,0,0:0:0:0:
54,117,70854,6,2,B|79:101|108:115|108:115|108:121|108:121|109:116|109:116|134:127|158:115,1,117.333333333333,2|0,0:0|0:0,0:0:0:0:
289,89,71187,6,2,P|226:102|279:137,1,161.333338256836,2|0,0:0|0:0,0:0:0:0:
357,129,71521,5,2,0:0:0:0:
486,31,71743,1,2,0:2:0:0:
486,31,71854,2,0,B|481:132,1,95.3333289693199,8|0,0:0|0:0,0:0:0:0:
417,175,72187,1,2,0:0:0:0:
465,335,72410,5,2,0:0:0:0:
465,335,72521,2,0,P|412:299|338:320,1,142.99999345398,2|2,0:2|0:0,0:0:0:0:
219,212,73076,1,0,0:0:0:0:
219,212,73187,2,0,P|272:248|346:227,1,142.99999345398,8|2,0:0|0:0,0:0:0:0:
464,119,73743,5,2,0:2:0:0:
464,119,73854,2,0,L|367:113,1,95.3333289693199
300,70,74187,1,2,0:0:0:0:
148,128,74410,5,2,0:2:0:0:
148,128,74521,1,10,0:0:0:0:
38,14,74743,1,0,0:0:0:0:
38,14,74854,1,2,0:0:0:0:
2,171,75076,1,0,0:0:0:0:
2,171,75187,6,0,P|-5:213|11:253,1,87.9999973144532,2|0,0:2|0:0,0:0:0:0:
19,329,75521,2,0,P|54:304|98:307,1,87.9999973144532,2|0,0:0|0:0,0:0:0:0:
164,339,75854,2,0,P|226:348|269:301,1,131.99999597168,8|2,0:0|0:0,0:0:0:0:
364,185,76410,1,0,0:0:0:0:
364,185,76521,1,0,0:0:0:0:
411,326,76743,5,0,0:0:0:0:
411,326,76854,2,0,P|395:282|408:238,1,87.9999973144532,2|2,0:0|0:2,0:0:0:0:
466,200,77187,2,0,P|478:155|463:113,1,87.9999973144532,8|0,0:0|0:0,0:0:0:0:
407,68,77521,1,2,0:0:0:0:
288,158,77743,1,2,0:0:0:0:
288,158,77854,6,0,B|152:156,1,131.99999597168,2|2,0:2|0:0,0:0:0:0:
8,186,78410,1,0,0:0:0:0:
8,186,78521,2,0,P|42:152|48:106,1,87.9999973144532,8|0,0:0|0:0,0:0:0:0:
27,42,78854,2,0,B|117:43,1,87.9999973144532,2|2,0:0|0:2,0:0:0:0:
187,22,79187,1,0,0:0:0:0:
284,136,79410,5,0,0:0:0:0:
284,136,79521,1,2,0:0:0:0:
136,161,79743,1,2,0:2:0:0:
136,161,79854,2,0,B|131:194|131:194|146:242|146:242|137:290,1,131.99999597168,8|2,0:0|0:0,0:0:0:0:
4,359,80410,1,0,0:0:0:0:
4,359,80521,6,0,P|43:340|86:345,1,87.9999973144532,2|0,0:2|0:0,0:0:0:0:
159,362,80854,2,0,P|202:366|241:348,1,87.9999973144532,2|0,0:0|0:0,0:0:0:0:
308,384,81187,2,0,B|323:347|308:314|308:314|290:280|305:255,1,131.99999597168,8|2,0:0|0:0,0:0:0:0:
397,138,81742,1,0,0:0:0:0:
397,138,81854,1,0,0:0:0:0:
248,118,82076,5,0,0:0:0:0:
248,118,82187,2,0,L|161:123,1,87.9999973144532,2|2,0:0|0:2,0:0:0:0:
99,167,82521,2,0,P|85:126|96:84,1,87.9999973144532,8|0,0:0|0:0,0:0:0:0:
133,18,82854,1,2,0:0:0:0:
279,46,83076,1,2,0:0:0:0:
279,46,83187,6,0,B|311:41|311:41|360:56|360:56|407:49,1,131.99999597168,2|2,0:2|0:0,0:0:0:0:
512,156,83743,1,0,0:0:0:0:
512,156,83854,2,0,P|470:143|430:159,1,87.9999973144532,8|0,0:0|0:0,0:0:0:0:
368,200,84188,2,0,P|328:216|286:204,1,87.9999973144532,2|2,0:0|0:2,0:0:0:0:
226,159,84521,1,0,0:0:0:0:
96,83,84743,5,0,0:0:0:0:
96,83,84854,1,2,0:0:0:0:
2,200,85077,1,2,0:2:0:0:
2,200,85187,2,0,P|66:193|118:231,1,131.99999597168,10|2,0:0|0:0,0:0:0:0:
17,342,85743,1,0,0:0:0:0:
17,342,85854,6,0,L|109:336,1,87.9999973144532,2|0,0:2|0:0,0:0:0:0:
166,293,86188,2,0,L|258:299,1,87.9999973144532,2|0,0:0|0:0,0:0:0:0:
306,352,86521,2,0,P|328:293|290:234,1,131.99999597168,8|2,0:0|0:0,0:0:0:0:
178,144,87076,1,0,0:0:0:0:
178,144,87187,1,0,0:0:0:0:
316,87,87410,5,0,0:0:0:0:
316,87,87521,2,0,P|397:84|417:55,1,87.9999973144532,2|2,0:0|0:2,0:0:0:0:
458,38,87854,2,0,L|469:141,1,87.9999973144532,8|0,0:0|0:0,0:0:0:0:
436,193,88187,1,2,0:0:0:0:
466,339,88410,1,2,0:0:0:0:
466,339,88521,6,0,P|417:297|355:314,1,131.99999597168,2|2,0:2|0:0,0:0:0:0:
223,382,89076,1,0,0:0:0:0:
223,382,89187,2,0,P|257:348|263:302,1,87.9999973144532,8|0,0:0|0:0,0:0:0:0:
312,252,89521,2,0,P|268:243|238:203,1,87.9999973144532,2|2,0:0|0:2,0:0:0:0:
225,138,89854,1,0,0:0:0:0:
98,216,90076,5,0,0:0:0:0:
98,216,90187,1,2,0:0:0:0:
0,101,90410,1,2,0:2:0:0:
0,101,90521,2,0,P|44:114|108:51,1,131.99999597168,8|2,0:0|0:0,0:0:0:0:
248,19,91076,1,0,0:0:0:0:
248,19,91187,6,0,P|259:60|247:101,1,87.9999973144532,2|0,0:2|0:0,0:0:0:0:
247,178,91521,2,0,P|209:156|166:164,1,87.9999973144532,2|0,0:0|0:0,0:0:0:0:
102,126,91854,2,0,B|84:161|98:194|98:194|113:230|97:254,1,131.99999597168,8|2,0:0|0:0,0:0:0:0:
1,368,92410,1,0,0:0:0:0:
1,368,92521,1,0,0:0:0:0:
149,352,92743,5,0,0:0:0:0:
149,352,92854,2,0,L|237:346,1,87.9999973144532,2|2,0:0|0:2,0:0:0:0:
309,369,93188,2,0,P|301:327|321:288,1,87.9999973144532,8|0,0:0|0:0,0:0:0:0:
366,228,93521,1,2,0:0:0:0:
485,137,93743,1,2,0:0:0:0:
485,137,93854,6,0,P|414:157|348:125,1,131.99999597168,2|2,0:2|0:0,0:0:0:0:
272,22,94410,1,0,0:0:0:0:
272,22,94521,2,0,P|259:63|221:89,1,87.9999973144532,8|0,0:0|0:0,0:0:0:0:
150,96,94854,1,2,0:0:0:0:
20,21,95076,1,2,0:2:0:0:
20,21,95187,1,0,0:0:0:0:
45,168,95410,5,0,0:0:0:0:
45,168,95521,2,0,B|39:203|39:203|48:233|48:233|45:262,1,87.9999973144532,2|2,0:0|0:2,0:0:0:0:
9,321,95854,2,0,P|50:333|90:317,1,87.9999973144532,10|0,0:0|0:0,0:0:0:0:
153,276,96188,2,0,P|193:260|234:272,1,87.9999973144532,2|0,0:0|0:0,0:0:0:0:
301,307,96521,6,0,B|352:326|352:326|417:320,2,110,0|2|0,0:0|0:0|0:0,0:0:0:0:
161,319,97409,5,0,0:0:0:0:
161,319,97520,2,0,B|181:287|173:248,1,73.3333333333333,2|0,0:0|0:0,0:0:0:0:
149,182,97854,2,0,P|186:183|221:168,1,73.3333333333333
274,125,98187,1,2,0:0:0:0:
400,184,98409,5,0,0:0:0:0:
400,184,98520,2,0,P|402:117|426:100,1,73.3333333333333
447,61,98854,1,2,0:0:0:0:
310,39,99076,1,2,0:0:0:0:
310,39,99187,6,0,B|273:34|273:34|234:46|234:46|202:41,2,110,0|2|0,0:0|0:0|0:0,0:0:0:0:
409,137,100075,5,0,0:0:0:0:
409,137,100187,2,0,P|375:123|341:134,1,73.3333333333333,2|0,0:0|0:0,0:0:0:0:
278,162,100521,2,0,P|243:173|210:159,1,73.3333333333333
158,112,100853,1,2,0:0:0:0:
41,36,101075,5,0,0:0:0:0:
41,36,101187,2,0,P|61:76|57:123,1,73.3333333333333
34,168,101521,2,0,P|36:204|54:235,1,73.3333333333333,2|0,0:0|0:0,0:0:0:0:
105,287,101854,6,0,B|54:306|54:306|-1:301,2,110,0|2|0,0:0|0:0|0:0,0:0:0:0:
267,155,102853,5,2,0:0:0:0:
321,250,103075,1,0,0:0:0:0:
321,250,103186,1,0,0:0:0:0:
401,179,103410,1,0,0:0:0:0:
401,179,103521,1,2,0:0:0:0:
446,311,103743,5,0,0:0:0:0:
446,311,103854,2,0,L|451:224,1,73.3333333333333
503,193,104187,1,2,0:0:0:0:
412,86,104410,1,2,0:0:0:0:
412,86,104521,6,0,P|467:107|518:84,2,110,0|2|0,0:0|0:0|0:0,0:0:0:0:
219,4,105520,5,2,0:0:0:0:
198,111,105742,1,0,0:0:0:0:
198,111,105853,1,0,0:0:0:0:
98,76,106076,1,0,0:0:0:0:
98,76,106186,1,2,0:0:0:0:
107,215,106409,5,0,0:0:0:0:
107,215,106520,2,0,P|137:206|184:221,1,73.3333333333333,2|0,0:0|0:0,0:0:0:0:
238,250,106854,2,0,P|274:262|310:252,1,73.3333333333333,2|0,0:0|0:0,0:0:0:0:
