osu file format v14

[General]
AudioFilename: audio.mp3
AudioLeadIn: 0
PreviewTime: 10271
Countdown: 0
SampleSet: None
StackLeniency: 0.7
Mode: 0
LetterboxInBreaks: 0
WidescreenStoryboard: 0

[Editor]
DistanceSpacing: 0.9
BeatDivisor: 4
GridSize: 8
TimelineZoom: 1

[Metadata]
Title:A Ghost's Pumpkin Soup
TitleUnicode:A Ghost's Pumpkin Soup
Artist:Hunnid-P
ArtistUnicode:Hunnid-P
Creator:Joe Castle
Version:Chilling Easy
Source:ソニックアドベンチャー2
Tags:-Harpuia- ezek Nyantiaz Alphabet Sonic Adventure 2 Battle SA2 SA2B Hedgehog Knuckles The Echidna Team multi-dimensional ORIGINAL SOUND TRACK Official Soundtrack OST Marvelous Entertainment Tokyopop Soundtrax wavemaster studio WAVE MASTER SEGA Tomoya Ohtani Emmanuel Armoogam Pacent Halloween ...for Hill 20th Anniversary Edition
BeatmapID:1795390
BeatmapSetID:859181

[Difficulty]
HPDrainRate:2.5
CircleSize:3
OverallDifficulty:2.5
ApproachRate:3
SliderMultiplier:1.2
SliderTickRate:1

[Events]
//Background and Video events
0,0,"I+used+this+bg+because+silver+the+hedgehog+is+in+there+uwu.jpg",0,0
//Break Periods
//Storyboard Layer 0 (Background)
//Storyboard Layer 1 (Fail)
//Storyboard Layer 2 (Pass)
//Storyboard Layer 3 (Foreground)
//Storyboard Sound Samples

[TimingPoints]
521.33321429192,666.666666666667,4,3,1,30,1,0
11187,-100,4,3,1,60,0,0
53854,-100,4,3,1,60,0,1
59187,-100,4,3,1,60,0,0
64521,-100,4,3,1,60,0,1
75187,-100,4,3,1,60,0,0
96521,-100,4,3,1,30,0,0

[Colours]
Combo1 : 255,83,83
Combo2 : 255,205,155
Combo3 : 255,47,47
Combo4 : 255,140,85

[HitObjects]
1,237,521,6,0,P|56:253|153:126,1,240,2|0,0:0|0:0,0:0:0:0:
103,32,2521,1,2,0:0:0:0:
210,37,3187,2,0,B|254:66|318:39|318:39|377:13|440:45,1,240,2|0,0:0|0:0,0:0:0:0:
512,127,5187,1,2,0:0:0:0:
470,226,5854,102,0,B|431:212|412:168|412:168|395:196|356:221|307:231|270:214,1,240,2|0,0:0|0:0,0:0:0:0:
174,178,7854,1,2,0:0:0:0:
192,284,8521,2,0,B|178:336|97:344|97:344|20:296|33:244,1,240,2|0,0:0|0:0,0:0:0:0:
70,150,10521,1,10,0:0:0:0:
174,178,11187,6,0,P|226:178|287:145,1,120,2|8,0:2|0:0,0:0:0:0:
363,72,12521,2,0,P|389:124|385:188,1,120,2|8,0:2|0:0,0:0:0:0:
365,288,13854,2,0,P|416:258|476:256,2,120,2|8|2,0:2|0:0|0:2,0:0:0:0:
301,375,15854,1,8,0:0:0:0:
195,352,16521,6,0,L|70:337,1,120,2|8,0:2|0:0,0:0:0:0:
2,260,17854,2,0,L|125:239,1,120,2|8,0:2|0:0,0:0:0:0:
227,255,19187,2,0,P|219:196|180:151,1,120,2|8,0:2|0:0,0:0:0:0:
75,129,20521,1,2,0:2:0:0:
100,24,21187,1,8,0:0:0:0:
205,45,21854,6,0,P|262:55|325:27,1,120,2|8,0:2|0:0,0:0:0:0:
368,127,23187,2,0,P|422:105|481:115,1,120,2|8,0:2|0:0,0:0:0:0:
434,213,24521,2,0,L|440:339,2,120,2|8|2,0:2|0:0|0:2,0:2:0:0:
368,127,26521,1,8,0:0:0:0:
327,226,27187,6,0,P|270:236|207:208,1,120,2|8,0:2|0:0,0:0:0:0:
152,128,28521,2,0,P|97:105|38:115,1,120,2|8,0:2|0:0,0:0:0:0:
85,212,29854,2,0,B|71:252|71:252|80:290|80:290|69:326,1,120,2|8,0:2|0:0,0:0:0:0:
164,376,31187,1,2,0:0:0:0:
246,306,31854,1,2,0:0:0:0:
342,356,32521,6,0,P|404:348|443:300,1,120,2|8,0:2|0:0,0:0:0:0:
511,225,33854,2,0,L|378:208,1,120,2|8,0:2|0:0,0:0:0:0:
298,257,35187,2,0,L|178:272,2,120,2|8|2,0:2|0:0|0:2,0:0:0:0:
391,209,37187,1,8,0:0:0:0:
458,124,37854,6,0,P|403:101|344:111,1,120,2|8,0:2|0:0,0:0:0:0:
250,158,39187,2,0,P|191:167|136:145,1,120,2|8,0:2|0:0,0:0:0:0:
75,56,40521,2,0,P|36:101|29:160,1,120,2|8,0:2|0:0,0:0:0:0:
93,246,41854,1,2,0:2:0:0:
39,340,42521,1,8,0:0:0:0:
146,342,43187,6,0,P|194:324|263:334,1,120,2|8,0:2|0:0,0:0:0:0:
345,266,44521,2,0,P|403:275|460:257,1,120,2|8,0:2|0:0,0:0:0:0:
396,169,45854,2,0,L|402:43,2,120,2|8|2,0:2|0:0|0:2,0:0:0:0:
345,266,47854,1,8,0:0:0:0:
240,292,48521,6,0,P|188:292|127:259,1,120,2|0,0:2|0:0,0:0:0:0:
48,188,49854,2,0,P|100:188|161:155,1,120,0|8,0:2|0:0,0:0:0:0:
201,57,51187,2,0,P|246:94|267:152,1,120,2|8,0:2|0:0,0:0:0:0:
248,257,52521,1,2,0:2:0:0:
339,314,53187,1,8,0:0:0:0:
427,255,53854,6,0,P|462:218|466:138,1,120,2|8,0:2|0:0,0:0:0:0:
511,51,55187,2,0,P|456:76|397:70,1,120,2|8,0:2|0:0,0:0:0:0:
300,117,56521,2,0,P|245:93|186:98,1,120,2|8,0:2|0:0,0:0:0:0:
83,130,57854,1,2,0:2:0:0:
134,225,58521,1,8,0:0:0:0:
66,309,59187,5,2,0:2:0:0:
165,350,59854,2,0,B|223:333|223:333|334:377|334:377|407:355,1,240,8|8,0:0|0:0,0:0:0:0:
446,268,61854,2,0,P|491:318|498:369,2,120,2|8|0,0:2|0:0|0:2,0:0:0:0:
354,210,63854,1,8,0:0:0:0:
269,276,64521,6,0,P|210:274|158:244,1,120,2|8,0:2|0:0,0:0:0:0:
77,315,65854,2,0,P|54:261|58:202,1,120,2|8,0:2|0:0,0:0:0:0:
144,135,67187,2,0,P|202:128|242:85,1,120,2|8,0:2|0:0,0:0:0:0:
318,9,68521,1,2,0:2:0:0:
372,102,69187,1,8,0:0:0:0:
477,80,69854,6,0,L|471:199,1,120,2|8,0:0|0:0,0:0:0:0:
500,303,71187,2,0,P|441:303|391:271,1,120,2|8,0:0|0:0,0:0:0:0:
327,183,72521,2,0,P|269:183|211:211,1,120,2|8,0:2|0:0,0:0:0:0:
144,293,73854,1,2,0:2:0:0:
42,254,74521,1,8,0:0:0:0:
49,146,75187,6,0,P|108:144|160:114,1,120,2|8,0:2|0:0,0:0:0:0:
243,45,76521,2,0,P|301:39|355:65,1,120,2|8,0:2|0:0,0:0:0:0:
429,143,77854,2,0,P|431:84|461:33,2,120,2|8|2,0:2|0:0|0:2,0:0:0:0:
461,248,79854,1,8,0:0:0:0:
353,227,80521,6,0,P|295:218|238:236,1,120,2|8,0:2|0:0,0:0:0:0:
206,340,81855,2,0,P|148:349|91:330,1,120,2|8,0:2|0:0,0:0:0:0:
7,263,83187,2,0,L|0:382,2,120,2|8|2,0:2|0:0|0:2,0:0:0:0:
107,222,85187,1,8,0:0:0:0:
41,135,85854,6,0,P|95:113|154:122,1,120,2|8,0:2|0:0,0:0:0:0:
213,212,87187,2,0,P|271:220|326:197,1,120,2|8,0:2|0:0,0:0:0:0:
408,128,88521,2,0,P|431:182|423:241,2,120,2|8|2,0:2|0:0|0:2,0:0:0:0:
306,90,90521,1,8,0:0:0:0:
238,174,91187,6,0,P|180:183|125:161,1,120,2|8,0:2|0:0,0:0:0:0:
39,94,92521,2,0,P|48:152|26:207,1,120,2|8,0:2|0:0,0:0:0:0:
120,257,93854,2,0,P|98:311|109:370,2,120,2|8|0,0:2|0:0|0:0,0:0:0:0:
190,174,95854,1,8,0:0:0:0:
285,224,96521,6,0,B|324:245|344:299|319:366|319:366|344:332|387:325,1,240,2|0,0:0|0:0,0:0:0:0:
493,336,98521,1,2,0:0:0:0:
449,237,99187,2,0,B|430:176|430:176|449:83|449:83|426:3,1,240,2|0,0:0|0:0,0:0:0:0:
350,84,101187,1,2,0:0:0:0:
327,189,101854,6,0,B|261:167|246:105|246:105|190:134|129:96,1,240,2|0,0:0|0:0,0:0:0:0:
49,32,103854,1,2,0:0:0:0:
5,130,104521,2,0,P|44:235|157:238,1,240,2|0,0:0|0:0,0:0:0:0:
256,192,106521,2,0,L|256:132,1,60,2|2,0:0|0:0,0:0:0:0:
