osu file format v14

[General]
AudioFilename: audio.mp3
AudioLeadIn: 0
PreviewTime: 50365
Countdown: 0
SampleSet: Normal
StackLeniency: 0.3
Mode: 0
LetterboxInBreaks: 0
WidescreenStoryboard: 0

[Editor]
Bookmarks: 1437,7151,12865,13579,19294,25008,30722,36436,39651,40276,50454,51794,53222,54651,56079,57508,58936,60365,61794,63222,68936,87507,96078,102507,104650,107864,110007,112150
DistanceSpacing: 3.4
BeatDivisor: 4
GridSize: 16
TimelineZoom: 3.759998

[Metadata]
Title:MENDES
TitleUnicode:MENDES
Artist:Humanoid
ArtistUnicode:Humanoid
Creator:purewhiteflame
Version:Insanity Stream
Source:beatmania IIDX
Tags:Alace Alazy Rokodo Roko-Don DeathStreams Yoshitaka IIDX15 DJTROOPERS Military Splash Extra Stage
BeatmapID:1612284
BeatmapSetID:767012

[Difficulty]
HPDrainRate:7.1
CircleSize:3.7
OverallDifficulty:9.2
ApproachRate:9.4
SliderMultiplier:1.4
SliderTickRate:1

[Events]
//Background and Video events
0,0,"3.jpg",0,0
//Break Periods
2,50565,51224
//Storyboard Layer 0 (Background)
//Storyboard Layer 1 (Fail)
//Storyboard Layer 2 (Pass)
//Storyboard Layer 3 (Foreground)
//Storyboard Sound Samples

[TimingPoints]
1437,357.142857142857,4,1,1,60,1,0
1437,-100,4,1,1,60,0,0
1526,-100,4,1,1,30,0,0
1794,-100,4,1,1,60,0,0
1883,-100,4,1,1,30,0,0
2151,-100,4,1,1,60,0,0
2240,-100,4,1,1,30,0,0
2508,-100,4,1,1,60,0,0
2597,-100,4,1,1,30,0,0
2865,-100,4,1,1,60,0,0
2954,-100,4,1,1,30,0,0
3222,-100,4,1,1,60,0,0
3311,-100,4,1,1,30,0,0
3579,-100,4,1,1,60,0,0
3669,-100,4,1,1,30,0,0
4294,-100,4,1,1,60,0,0
4383,-100,4,1,1,30,0,0
4651,-100,4,1,1,60,0,0
4740,-100,4,1,1,30,0,0
5008,-100,4,1,1,60,0,0
5097,-100,4,1,1,30,0,0
5365,-100,4,1,1,60,0,0
5454,-100,4,1,1,30,0,0
5722,-100,4,1,1,60,0,0
5811,-100,4,1,1,30,0,0
6079,-100,4,1,1,60,0,0
6169,-100,4,1,1,30,0,0
6436,-100,4,1,1,60,0,0
6526,-100,4,1,1,30,0,0
7151,-100,4,1,1,60,0,0
7240,-100,4,1,1,30,0,0
7508,-100,4,1,1,60,0,0
7597,-100,4,1,1,30,0,0
7865,-100,4,1,1,60,0,0
7954,-100,4,1,1,30,0,0
8222,-100,4,1,1,60,0,0
8311,-100,4,1,1,30,0,0
8579,-100,4,1,1,60,0,0
8669,-100,4,1,1,30,0,0
8936,-100,4,1,1,60,0,0
9026,-100,4,1,1,30,0,0
9294,-100,4,1,1,60,0,0
9383,-100,4,1,1,30,0,0
10008,-100,4,1,1,60,0,0
10097,-100,4,1,1,30,0,0
10365,-100,4,1,1,60,0,0
10454,-100,4,1,1,30,0,0
10722,-100,4,1,1,60,0,0
10811,-100,4,1,1,30,0,0
11079,-100,4,1,1,60,0,0
11169,-100,4,1,1,30,0,0
11436,-100,4,1,1,60,0,0
11526,-100,4,1,1,30,0,0
11794,-100,4,1,1,60,0,0
11883,-100,4,1,1,30,0,0
12151,-100,4,1,1,60,0,0
12240,-100,4,1,1,30,0,0
12508,-100,4,1,1,60,0,0
12597,-100,4,1,1,30,0,0
12865,-100,4,1,1,30,0,1
12954,-100,4,1,1,33,0,1
13044,-100,4,1,1,36,0,1
13133,-100,4,1,1,39,0,1
13222,-100,4,1,1,42,0,1
13311,-100,4,1,1,45,0,1
13401,-100,4,1,1,48,0,1
13490,-100,4,1,1,51,0,0
13579,-100,4,1,1,60,0,0
13669,-100,4,1,1,30,0,0
13936,-100,4,1,1,60,0,0
14026,-100,4,1,1,30,0,0
14293,-100,4,1,1,60,0,0
14383,-100,4,1,1,30,0,0
14651,-100,4,1,1,60,0,0
14740,-100,4,1,1,30,0,0
15008,-100,4,1,1,60,0,0
15097,-100,4,1,1,30,0,0
15365,-100,4,1,1,60,0,0
15454,-100,4,1,1,30,0,0
15722,-100,4,1,1,60,0,0
15811,-100,4,1,1,30,0,0
16079,-100,4,1,1,60,0,0
16168,-100,4,1,1,30,0,0
16436,-100,4,1,1,60,0,0
16526,-100,4,1,1,30,0,0
16793,-100,4,1,1,60,0,0
16883,-100,4,1,1,30,0,0
17151,-100,4,1,1,60,0,0
17240,-100,4,1,1,30,0,0
17508,-100,4,1,1,60,0,0
17597,-100,4,1,1,30,0,0
17865,-100,4,1,1,60,0,0
17954,-100,4,1,1,30,0,0
18222,-100,4,1,1,60,0,0
18311,-100,4,1,1,30,0,0
18579,-100,4,1,1,60,0,0
18668,-100,4,1,1,30,0,0
18936,-100,4,1,1,60,0,0
19026,-100,4,1,1,30,0,0
19293,-100,4,1,1,60,0,0
19383,-100,4,1,1,30,0,0
19650,-100,4,1,1,60,0,0
19740,-100,4,1,1,30,0,0
20008,-100,4,1,1,60,0,0
20097,-100,4,1,1,30,0,0
20365,-100,4,1,1,60,0,0
20454,-100,4,1,1,30,0,0
20722,-100,4,1,1,60,0,0
20811,-100,4,1,1,30,0,0
21079,-100,4,1,1,60,0,0
21168,-100,4,1,1,30,0,0
21436,-100,4,1,1,60,0,0
21525,-100,4,1,1,30,0,0
21793,-100,4,1,1,60,0,0
21883,-100,4,1,1,30,0,0
22150,-100,4,1,1,60,0,0
22240,-100,4,1,1,30,0,0
22508,-100,4,1,1,60,0,0
22597,-100,4,1,1,30,0,0
22865,-100,4,1,1,60,0,0
22954,-100,4,1,1,30,0,0
23222,-100,4,1,1,60,0,0
23311,-100,4,1,1,30,0,0
23579,-100,4,1,1,60,0,0
23668,-100,4,1,1,30,0,0
23936,-100,4,1,1,60,0,0
24025,-100,4,1,1,30,0,0
24293,-100,4,1,1,60,0,0
24383,-100,4,1,1,30,0,0
24650,-100,4,1,1,60,0,0
24740,-100,4,1,1,30,0,0
25008,-100,4,1,1,60,0,0
25097,-100,4,1,1,30,0,0
25722,-100,4,1,1,60,0,0
25811,-100,4,1,1,30,0,0
26436,-100,4,1,1,60,0,0
26525,-100,4,1,1,30,0,0
27150,-100,4,1,1,60,0,0
27240,-100,4,1,1,30,0,0
27865,-100,4,1,1,60,0,0
27954,-100,4,1,1,30,0,0
28579,-100,4,1,1,60,0,0
28668,-100,4,1,1,30,0,0
29293,-100,4,1,1,60,0,0
29383,-100,4,1,1,30,0,0
30008,-100,4,1,1,60,0,0
30097,-100,4,1,1,30,0,0
30365,-100,4,1,1,60,0,0
30454,-100,4,1,1,30,0,0
30722,-100,4,1,1,60,0,0
30811,-100,4,1,1,30,0,0
31079,-100,4,1,1,60,0,0
31168,-100,4,1,1,30,0,0
31436,-100,4,1,1,60,0,0
31525,-100,4,1,1,30,0,0
31793,-100,4,1,1,60,0,0
31883,-100,4,1,1,30,0,0
32150,-100,4,1,1,60,0,0
32240,-100,4,1,1,30,0,0
32508,-100,4,1,1,60,0,0
32597,-100,4,1,1,30,0,0
32865,-100,4,1,1,60,0,0
32954,-100,4,1,1,30,0,0
33222,-100,4,1,1,60,0,0
33311,-100,4,1,1,30,0,0
33579,-100,4,1,1,60,0,0
33668,-100,4,1,1,30,0,0
33936,-100,4,1,1,60,0,0
34025,-100,4,1,1,30,0,0
34293,-100,4,1,1,60,0,0
34383,-100,4,1,1,30,0,0
34650,-100,4,1,1,60,0,0
34740,-100,4,1,1,30,0,0
35008,-50,4,1,1,60,0,0
35097,-50,4,1,1,30,0,0
35365,-50,4,1,1,60,0,0
35454,-50,4,1,1,30,0,0
35722,-50,4,1,1,60,0,0
35811,-50,4,1,1,30,0,0
36079,-50,4,1,1,60,0,0
36168,-50,4,1,1,30,0,0
36436,-100,4,1,1,60,0,0
39650,-100,4,1,1,60,0,1
39740,-100,4,1,1,55,0,1
39829,-100,4,1,1,50,0,1
39918,-100,4,1,1,45,0,1
40008,-100,4,1,1,40,0,1
40097,-100,4,1,1,35,0,1
40186,-100,4,1,1,30,0,1
40275,-100,4,1,1,25,0,0
40365,-100,4,1,1,60,0,0
43579,-100,4,1,1,60,0,1
43668,-100,4,1,1,55,0,1
43758,-100,4,1,1,50,0,1
43847,-100,4,1,1,45,0,1
43936,-100,4,1,1,40,0,1
44025,-100,4,1,1,35,0,1
44115,-100,4,1,1,30,0,1
44204,-100,4,1,1,25,0,1
44294,-100,4,1,1,60,0,1
44383,-100,4,1,1,30,0,1
44472,-100,4,1,1,60,0,1
44561,-100,4,1,1,30,0,1
44650,-100,4,1,1,60,0,1
44740,-100,4,1,1,30,0,1
44829,-100,4,1,1,60,0,1
44918,-100,4,1,1,30,0,1
45008,-100,4,1,1,60,0,1
45097,-100,4,1,1,30,0,1
45186,-100,4,1,1,60,0,1
45275,-100,4,1,1,30,0,1
45365,-100,4,1,1,60,0,1
45454,-100,4,1,1,30,0,1
45543,-100,4,1,1,60,0,1
45633,-100,4,1,1,30,0,1
45722,-100,4,1,1,60,0,1
45811,-100,4,1,1,30,0,1
45900,-100,4,1,1,60,0,1
45990,-100,4,1,1,30,0,1
46079,-100,4,1,1,60,0,1
46168,-100,4,1,1,30,0,1
46258,-100,4,1,1,60,0,1
46347,-100,4,1,1,30,0,1
46436,-50,4,1,1,60,0,1
46481,-50,4,1,1,30,0,1
46525,-50,4,1,1,60,0,1
46570,-50,4,1,1,30,0,1
46615,-50,4,1,1,60,0,1
46659,-50,4,1,1,30,0,1
46704,-50,4,1,1,60,0,1
46749,-50,4,1,1,30,0,1
46793,-50,4,1,1,60,0,1
46838,-50,4,1,1,30,0,1
46883,-50,4,1,1,60,0,1
46927,-50,4,1,1,30,0,1
46972,-50,4,1,1,60,0,1
47017,-50,4,1,1,30,0,1
47061,-50,4,1,1,60,0,1
47106,-50,4,1,1,30,0,1
47150,-50,4,1,1,60,0,1
47195,-50,4,1,1,30,0,1
47240,-50,4,1,1,60,0,1
47284,-50,4,1,1,30,0,1
47329,-50,4,1,1,60,0,1
47374,-50,4,1,1,30,0,1
47418,-50,4,1,1,60,0,1
47463,-50,4,1,1,30,0,1
47508,-100,4,1,1,60,0,0
47597,-100,4,1,1,35,0,0
47686,-100,4,1,1,34,0,0
47775,-100,4,1,1,33,0,0
47865,-100,4,1,1,32,0,0
47954,-100,4,1,1,31,0,0
48043,-100,4,1,1,30,0,0
48133,-100,4,1,1,29,0,0
48222,-100,4,1,1,28,0,0
48312,-100,4,1,1,27,0,0
48401,-100,4,1,1,26,0,0
48490,-100,4,1,1,25,0,0
48579,-100,4,1,1,24,0,0
48669,-100,4,1,1,23,0,0
48758,-100,4,1,1,22,0,0
48847,-100,4,1,1,21,0,0
48937,-100,4,1,1,20,0,0
49026,-100,4,1,1,19,0,0
49115,-100,4,1,1,18,0,0
49204,-100,4,1,1,17,0,0
49294,-100,4,1,1,16,0,0
49383,-100,4,1,1,15,0,0
49472,-100,4,1,1,14,0,0
49562,-100,4,1,1,13,0,0
49651,-100,4,1,1,12,0,0
49740,-100,4,1,1,11,0,0
49829,-100,4,1,1,10,0,0
49919,-100,4,1,1,9,0,0
50008,-100,4,1,1,8,0,0
50097,-100,4,1,1,7,0,0
50187,-100,4,1,1,6,0,0
50276,-100,4,1,1,5,0,0
50365,-100,4,1,1,5,0,0
51793,357.142857142857,4,1,1,10,1,0
51794,-100,4,1,1,10,0,0
51913,-100,4,1,1,12,0,0
52032,-100,4,1,1,14,0,0
52151,-100,4,1,1,16,0,0
52270,-100,4,1,1,18,0,0
52389,-100,4,1,1,20,0,0
52508,-100,4,1,1,22,0,0
52627,-100,4,1,1,24,0,0
52746,-100,4,1,1,26,0,0
52865,-100,4,1,1,28,0,0
52984,-100,4,1,1,30,0,0
53103,-100,4,1,1,32,0,0
53222,-100,4,1,1,34,0,0
54651,-100,4,1,1,10,0,0
54770,-100,4,1,1,12,0,0
54889,-100,4,1,1,14,0,0
55008,-100,4,1,1,16,0,0
55127,-100,4,1,1,18,0,0
55246,-100,4,1,1,20,0,0
55365,-100,4,1,1,22,0,0
55484,-100,4,1,1,24,0,0
55603,-100,4,1,1,26,0,0
55722,-100,4,1,1,28,0,0
55841,-100,4,1,1,30,0,0
55960,-100,4,1,1,32,0,0
56079,-100,4,1,1,34,0,0
57508,-100,4,1,1,10,0,0
57627,-100,4,1,1,12,0,0
57746,-100,4,1,1,14,0,0
57865,-100,4,1,1,16,0,0
57984,-100,4,1,1,18,0,0
58103,-100,4,1,1,20,0,0
58222,-100,4,1,1,22,0,0
58341,-100,4,1,1,24,0,0
58460,-100,4,1,1,26,0,0
58579,-100,4,1,1,28,0,0
58698,-100,4,1,1,30,0,0
58817,-100,4,1,1,32,0,0
58936,-100,4,1,1,34,0,0
60365,-100,4,1,1,10,0,0
60484,-100,4,1,1,12,0,0
60603,-100,4,1,1,14,0,0
60722,-100,4,1,1,16,0,0
60841,-100,4,1,1,18,0,0
60960,-100,4,1,1,20,0,0
61079,-100,4,1,1,22,0,0
61198,-100,4,1,1,24,0,0
61317,-100,4,1,1,26,0,0
61436,-100,4,1,1,28,0,0
61555,-100,4,1,1,30,0,0
61674,-100,4,1,1,32,0,0
61793,-100,4,1,1,34,0,0
63222,-100,4,1,1,20,0,0
66793,-100,4,1,1,45,0,0
68935,-50,4,1,1,70,0,0
80364,-100,4,1,1,60,0,0
81078,-57.1428571428571,4,1,1,60,0,0
81792,-100,4,1,1,60,0,0
82507,-133.333333333333,4,1,1,60,0,0
83221,-200,4,1,1,60,0,0
84650,-66.6666666666667,4,1,1,60,0,0
85364,-50,4,1,1,60,0,0
86078,-100,4,1,1,16,0,0
86167,-100,4,1,1,15,0,0
86256,-100,4,1,1,14,0,0
86346,-100,4,1,1,13,0,0
86435,-100,4,1,1,12,0,0
86524,-100,4,1,1,11,0,0
86613,-100,4,1,1,10,0,0
86703,-100,4,1,1,9,0,0
86792,-100,4,1,1,16,0,0
86882,-100,4,1,1,24,0,0
86971,-100,4,1,1,32,0,0
87060,-100,4,1,1,40,0,0
87150,-100,4,1,1,48,0,0
87239,-100,4,1,1,56,0,0
87328,-100,4,1,1,64,0,0
87507,-100,4,2,1,60,0,1
87596,-100,4,3,1,30,0,1
87685,-100,4,2,1,60,0,1
87775,-100,4,3,1,30,0,1
87864,-100,4,2,1,60,0,1
87953,-100,4,3,1,30,0,1
88042,-100,4,3,1,60,0,1
88132,-100,4,3,1,30,0,1
88221,-100,4,3,1,60,0,1
88310,-100,4,3,1,30,0,1
88400,-100,4,3,1,60,0,1
88489,-100,4,3,1,30,0,1
88578,-100,4,3,1,60,0,1
88667,-100,4,3,1,30,0,1
88757,-100,4,3,1,60,0,1
88846,-100,4,3,1,30,0,1
88935,-100,4,3,1,60,0,1
89025,-100,4,3,1,30,0,1
89114,-100,4,3,1,60,0,1
89203,-100,4,3,1,30,0,1
89292,-100,4,3,1,60,0,1
89382,-100,4,3,1,30,0,1
89471,-100,4,3,1,60,0,1
89560,-100,4,3,1,30,0,1
89650,-100,4,2,1,60,0,1
89739,-100,4,3,1,30,0,1
89828,-100,4,2,1,60,0,1
89917,-100,4,3,1,30,0,1
90007,-100,4,2,1,60,0,1
90096,-100,4,3,1,30,0,1
90185,-100,4,3,1,60,0,1
90275,-100,4,3,1,30,0,1
90364,-100,4,3,1,60,0,1
90453,-100,4,3,1,30,0,1
90542,-100,4,3,1,60,0,1
90632,-100,4,3,1,30,0,1
90721,-100,4,3,1,60,0,1
90810,-100,4,3,1,30,0,1
90900,-100,4,3,1,60,0,1
90989,-100,4,3,1,30,0,1
91078,-100,4,3,1,60,0,1
91167,-100,4,3,1,30,0,1
91257,-100,4,3,1,60,0,1
91346,-100,4,3,1,30,0,1
91435,-100,4,3,1,60,0,1
91525,-100,4,3,1,30,0,1
91614,-100,4,3,1,60,0,1
91703,-100,4,3,1,30,0,1
91792,-100,4,2,1,60,0,1
91882,-100,4,3,1,30,0,1
91971,-100,4,2,1,60,0,1
92060,-100,4,3,1,30,0,1
92150,-100,4,2,1,60,0,1
92239,-100,4,3,1,30,0,1
92328,-100,4,3,1,60,0,1
92417,-100,4,3,1,30,0,1
92507,-100,4,3,1,60,0,1
92596,-100,4,3,1,30,0,1
92685,-100,4,3,1,60,0,1
92775,-100,4,3,1,30,0,1
92864,-100,4,3,1,60,0,1
92953,-100,4,3,1,30,0,1
93042,-100,4,3,1,60,0,1
93132,-100,4,3,1,30,0,1
93221,-100,4,3,1,60,0,1
93310,-100,4,3,1,30,0,1
93400,-100,4,3,1,60,0,1
93489,-100,4,3,1,30,0,1
93578,-100,4,3,1,60,0,1
93667,-100,4,3,1,30,0,1
93757,-100,4,3,1,60,0,1
93846,-100,4,3,1,30,0,1
93935,-100,4,2,1,60,0,1
94025,-100,4,3,1,30,0,1
94114,-100,4,2,1,60,0,1
94203,-100,4,3,1,30,0,1
94292,-100,4,2,1,60,0,1
94382,-100,4,3,1,30,0,1
94471,-100,4,3,1,60,0,1
94560,-100,4,3,1,30,0,1
94650,-100,4,3,1,60,0,1
94739,-100,4,3,1,30,0,1
94828,-100,4,3,1,60,0,1
94917,-100,4,3,1,30,0,1
95007,-100,4,3,1,60,0,1
95096,-100,4,3,1,30,0,1
95185,-100,4,3,1,60,0,1
95275,-100,4,3,1,30,0,1
95364,-100,4,3,1,60,0,1
95453,-100,4,3,1,30,0,1
95542,-100,4,3,1,60,0,1
95632,-100,4,3,1,30,0,1
95721,-100,4,3,1,60,0,1
95810,-100,4,3,1,30,0,1
95900,-100,4,3,1,60,0,1
95989,-100,4,3,1,30,0,1
96079,-100,4,2,1,60,0,1
96167,-100,4,3,1,30,0,1
96257,-100,4,2,1,60,0,1
96346,-100,4,3,1,30,0,1
96435,-100,4,2,1,60,0,1
96525,-100,4,3,1,30,0,1
96614,-100,4,3,1,60,0,1
96703,-100,4,3,1,30,0,1
96792,-100,4,3,1,60,0,1
96882,-100,4,3,1,30,0,1
96971,-100,4,3,1,60,0,1
97060,-100,4,3,1,30,0,1
97150,-100,4,2,1,60,0,1
97239,-100,4,3,1,30,0,1
97328,-100,4,2,1,60,0,1
97417,-100,4,3,1,30,0,1
97507,-100,4,2,1,60,0,1
97596,-100,4,3,1,30,0,1
97685,-100,4,3,1,60,0,1
97775,-100,4,3,1,30,0,1
97864,-100,4,3,1,60,0,1
97953,-100,4,3,1,30,0,1
98042,-100,4,3,1,60,0,1
98132,-100,4,3,1,30,0,1
98221,-100,4,2,1,60,0,1
98310,-100,4,3,1,30,0,1
98400,-100,4,2,1,60,0,1
98489,-100,4,3,1,30,0,1
98578,-100,4,2,1,60,0,1
98667,-100,4,3,1,30,0,1
98757,-100,4,3,1,60,0,1
98846,-100,4,3,1,30,0,1
98935,-100,4,3,1,60,0,1
99025,-100,4,3,1,30,0,1
99114,-100,4,3,1,60,0,1
99203,-100,4,3,1,30,0,1
99292,-100,4,2,1,60,0,1
99382,-100,4,3,1,30,0,1
99471,-100,4,2,1,60,0,1
99560,-100,4,3,1,30,0,1
99650,-100,4,2,1,60,0,1
99739,-100,4,3,1,30,0,1
99828,-100,4,3,1,60,0,1
99917,-100,4,3,1,30,0,1
100007,-100,4,3,1,60,0,1
100096,-100,4,3,1,30,0,1
100185,-100,4,3,1,60,0,1
100275,-100,4,3,1,30,0,1
100364,-100,4,2,1,60,0,1
100453,-100,4,3,1,30,0,1
100542,-100,4,2,1,60,0,1
100632,-100,4,3,1,30,0,1
100721,-100,4,2,1,60,0,1
100810,-100,4,3,1,30,0,1
100900,-100,4,3,1,60,0,1
100989,-100,4,3,1,30,0,1
101078,-100,4,3,1,60,0,1
101167,-100,4,3,1,30,0,1
101257,-100,4,3,1,60,0,1
101346,-100,4,3,1,30,0,1
101435,-100,4,2,1,60,0,1
101525,-100,4,3,1,30,0,1
101614,-100,4,2,1,60,0,1
101703,-100,4,3,1,30,0,1
101792,-100,4,2,1,60,0,1
101882,-100,4,3,1,30,0,1
101971,-100,4,3,1,60,0,1
102060,-100,4,3,1,30,0,1
102150,-100,4,3,1,60,0,1
102239,-100,4,3,1,30,0,1
102328,-100,4,3,1,60,0,1
102417,-100,4,3,1,30,0,1
102507,-100,4,2,1,60,0,1
102596,-100,4,3,1,30,0,1
102685,-100,4,2,1,60,0,1
102775,-100,4,3,1,30,0,1
102864,-100,4,2,1,60,0,1
102953,-100,4,3,1,30,0,1
103042,-100,4,2,1,60,0,1
103132,-100,4,3,1,30,0,1
103221,-100,4,2,1,60,0,1
103310,-100,4,3,1,30,0,1
103400,-100,4,2,1,60,0,1
103489,-100,4,3,1,30,0,1
103578,-100,4,2,1,60,0,1
103667,-100,4,3,1,30,0,1
103757,-100,4,2,1,60,0,1
103846,-100,4,3,1,30,0,1
103935,-100,4,2,1,60,0,1
104025,-100,4,3,1,30,0,1
104114,-100,4,2,1,60,0,1
104203,-100,4,3,1,30,0,1
104292,-100,4,2,1,60,0,1
104382,-100,4,3,1,30,0,1
104471,-100,4,2,1,60,0,1
104560,-100,4,3,1,30,0,1
104650,-100,4,1,1,5,0,0
104739,-100,4,1,1,6,0,0
104828,-100,4,1,1,7,0,0
104917,-100,4,1,1,8,0,0
105007,-100,4,1,1,9,0,0
105096,-100,4,1,1,10,0,0
105185,-100,4,1,1,11,0,0
105275,-100,4,1,1,12,0,0
105364,-100,4,1,1,13,0,0
105453,-100,4,1,1,14,0,0
105542,-100,4,1,1,15,0,0
105632,-100,4,1,1,16,0,0
105721,-100,4,1,1,17,0,0
105810,-100,4,1,1,18,0,0
105900,-100,4,1,1,19,0,0
105989,-100,4,1,1,20,0,0
106078,-100,4,1,1,21,0,0
106167,-100,4,1,1,22,0,0
106257,-100,4,1,1,23,0,0
106346,-100,4,1,1,24,0,0
106435,-100,4,1,1,25,0,0
106525,-100,4,1,1,26,0,0
106614,-100,4,1,1,27,0,0
106703,-100,4,1,1,28,0,0
106792,-100,4,1,1,29,0,0
106882,-100,4,1,1,30,0,0
106971,-100,4,1,1,31,0,0
107060,-100,4,1,1,32,0,0
107150,-100,4,1,1,33,0,0
107239,-100,4,1,1,34,0,0
107328,-100,4,1,1,35,0,0
107417,-100,4,1,1,36,0,0
107507,-100,4,1,1,37,0,0
107596,-100,4,1,1,38,0,0
107685,-100,4,1,1,39,0,0
107775,-100,4,1,1,40,0,0
107865,-100,4,1,1,55,0,0
109917,-100,4,1,1,5,0,0
110008,-100,4,1,1,28,0,0
110098,-100,4,1,1,27,0,0
110187,-100,4,1,1,26,0,0
110276,-100,4,1,1,25,0,0
110365,-100,4,1,1,24,0,0
110455,-100,4,1,1,23,0,0
110544,-100,4,1,1,22,0,0
110633,-100,4,1,1,21,0,0
110723,-100,4,1,1,20,0,0
110812,-100,4,1,1,19,0,0
110901,-100,4,1,1,18,0,0
110990,-100,4,1,1,17,0,0
111080,-100,4,1,1,16,0,0
111169,-100,4,1,1,15,0,0
111258,-100,4,1,1,14,0,0
111348,-100,4,1,1,13,0,0
111437,-100,4,1,1,12,0,0
111526,-100,4,1,1,11,0,0
111615,-100,4,1,1,10,0,0
111705,-100,4,1,1,9,0,0
111794,-100,4,1,1,8,0,0
111883,-100,4,1,1,7,0,0
111973,-100,4,1,1,6,0,0
112062,-100,4,1,1,5,0,0
112151,-1,4,1,1,4,0,0

[Colours]
Combo1 : 145,229,103
Combo2 : 255,213,128
Combo3 : 242,121,97
Combo4 : 255,140,179
Combo5 : 187,103,229
Combo6 : 140,236,255

[HitObjects]
99,177,1437,5,4,0:0:0:0:
117,201,1526,1,0,0:0:0:0:
145,216,1615,1,0,0:0:0:0:
175,220,1704,1,0,0:0:0:0:
206,211,1794,5,4,0:0:0:0:
236,187,1883,1,0,0:0:0:0:
275,182,1972,1,0,0:0:0:0:
310,199,2061,1,0,0:0:0:0:
332,231,2151,5,4,0:0:0:0:
335,199,2240,1,0,0:0:0:0:
337,168,2329,1,0,0:0:0:0:
339,137,2418,1,0,0:0:0:0:
342,105,2508,5,4,0:0:0:0:
366,125,2597,1,0,0:0:0:0:
395,137,2686,1,0,0:0:0:0:
426,138,2775,1,0,0:0:0:0:
456,129,2865,5,4,0:0:0:0:
433,109,2954,1,0,0:0:0:0:
405,95,3043,1,0,0:0:0:0:
374,90,3132,1,0,0:0:0:0:
342,93,3222,5,4,0:0:0:0:
308,112,3311,1,0,0:0:0:0:
269,115,3400,1,0,0:0:0:0:
233,102,3489,1,0,0:0:0:0:
205,75,3579,5,4,0:0:0:0:
245,52,3668,1,0,0:0:0:0:
292,49,3757,1,0,0:0:0:0:
335,67,3846,1,0,0:0:0:0:
366,102,3936,1,0,0:0:0:0:
379,146,4025,1,0,0:0:0:0:
371,192,4114,1,0,0:0:0:0:
344,230,4204,1,0,0:0:0:0:
303,252,4294,5,4,0:0:0:0:
268,255,4383,1,0,0:0:0:0:
233,259,4472,1,0,0:0:0:0:
198,262,4561,1,0,0:0:0:0:
166,227,4651,5,4,0:0:0:0:
131,223,4740,1,0,0:0:0:0:
96,219,4829,1,0,0:0:0:0:
61,216,4918,1,0,0:0:0:0:
83,188,5008,5,4,0:0:0:0:
91,222,5097,1,0,0:0:0:0:
99,256,5186,1,0,0:0:0:0:
107,290,5275,1,0,0:0:0:0:
115,324,5365,5,4,0:0:0:0:
120,307,5454,1,0,0:0:0:0:
125,290,5543,1,0,0:0:0:0:
129,273,5632,1,0,0:0:0:0:
134,256,5722,5,4,0:0:0:0:
107,233,5811,1,0,0:0:0:0:
74,223,5900,1,0,0:0:0:0:
39,227,5989,1,0,0:0:0:0:
9,244,6079,5,4,0:0:0:0:
40,229,6169,1,0,0:0:0:0:
63,202,6258,1,0,0:0:0:0:
73,169,6347,1,0,0:0:0:0:
101,210,6436,5,4,0:0:0:0:
131,211,6525,1,0,0:0:0:0:
165,253,6615,1,0,0:0:0:0:
196,254,6704,1,0,0:0:0:0:
233,193,6794,5,0,0:0:0:0:
264,194,6883,1,0,0:0:0:0:
298,236,6973,1,0,0:0:0:0:
329,237,7062,1,0,0:0:0:0:
357,220,7151,5,4,0:0:0:0:
377,196,7240,1,0,0:0:0:0:
385,165,7329,1,0,0:0:0:0:
382,135,7418,1,0,0:0:0:0:
365,108,7508,5,4,0:0:0:0:
352,144,7597,1,0,0:0:0:0:
359,182,7686,1,0,0:0:0:0:
386,210,7775,1,0,0:0:0:0:
424,220,7865,5,4,0:0:0:0:
382,224,7954,1,0,0:0:0:0:
340,227,8043,1,0,0:0:0:0:
298,232,8132,1,0,0:0:0:0:
271,263,8222,5,4,0:0:0:0:
229,267,8311,1,0,0:0:0:0:
188,270,8400,1,0,0:0:0:0:
145,274,8489,1,0,0:0:0:0:
103,278,8579,5,4,0:0:0:0:
118,241,8668,1,0,0:0:0:0:
147,216,8757,1,0,0:0:0:0:
184,205,8846,1,0,0:0:0:0:
223,212,8936,5,4,0:0:0:0:
201,162,9025,1,0,0:0:0:0:
157,129,9114,1,0,0:0:0:0:
103,124,9203,1,0,0:0:0:0:
54,146,9294,5,4,0:0:0:0:
93,177,9383,1,0,0:0:0:0:
141,196,9472,1,0,0:0:0:0:
191,200,9561,1,0,0:0:0:0:
242,190,9651,1,0,0:0:0:0:
286,166,9740,1,0,0:0:0:0:
322,131,9829,1,0,0:0:0:0:
347,86,9918,1,0,0:0:0:0:
358,37,10008,5,4,0:0:0:0:
363,99,10097,1,0,0:0:0:0:
368,162,10186,1,0,0:0:0:0:
374,225,10275,1,0,0:0:0:0:
378,287,10365,5,0,0:0:0:0:
383,264,10454,1,0,0:0:0:0:
388,241,10543,1,0,0:0:0:0:
392,217,10632,1,0,0:0:0:0:
400,194,10722,5,4,0:0:0:0:
321,201,10811,1,0,0:0:0:0:
242,209,10900,1,0,0:0:0:0:
164,216,10989,1,0,0:0:0:0:
86,225,11079,5,0,0:0:0:0:
117,232,11168,1,0,0:0:0:0:
147,240,11257,1,0,0:0:0:0:
178,248,11346,1,0,0:0:0:0:
208,255,11436,5,4,0:0:0:0:
203,224,11525,1,0,0:0:0:0:
197,193,11614,1,0,0:0:0:0:
192,162,11703,1,0,0:0:0:0:
187,131,11794,5,4,0:0:0:0:
179,178,11883,1,0,0:0:0:0:
171,224,11972,1,0,0:0:0:0:
163,271,12061,1,0,0:0:0:0:
155,317,12151,5,4,0:0:0:0:
218,311,12240,1,0,0:0:0:0:
280,305,12329,1,0,0:0:0:0:
343,299,12418,1,0,0:0:0:0:
405,293,12508,5,4,0:0:0:0:
327,287,12597,1,0,0:0:0:0:
249,281,12686,1,0,0:0:0:0:
170,276,12775,1,0,0:0:0:0:
92,270,12865,5,0,0:0:0:0:
78,246,12954,1,0,0:0:0:0:
65,207,13044,1,0,0:0:0:0:
68,153,13133,1,0,0:0:0:0:
98,93,13222,1,0,0:0:0:0:
155,37,13311,1,0,0:0:0:0:
245,10,13401,1,0,0:0:0:0:
351,18,13490,1,0,0:0:0:0:
436,102,13579,5,4,0:0:0:0:
432,136,13668,1,0,0:0:0:0:
428,171,13757,1,0,0:0:0:0:
424,206,13846,1,0,0:0:0:0:
420,241,13936,5,4,0:0:0:0:
371,276,14025,1,0,0:0:0:0:
311,277,14114,1,0,0:0:0:0:
260,244,14203,1,0,0:0:0:0:
239,188,14294,5,4,0:0:0:0:
204,191,14383,1,0,0:0:0:0:
169,195,14472,1,0,0:0:0:0:
134,199,14561,1,0,0:0:0:0:
99,202,14651,5,4,0:0:0:0:
168,208,14740,1,0,0:0:0:0:
229,175,14829,1,0,0:0:0:0:
260,114,14918,1,0,0:0:0:0:
251,45,15008,5,4,0:0:0:0:
217,52,15097,1,0,0:0:0:0:
183,59,15186,1,0,0:0:0:0:
148,66,15275,1,0,0:0:0:0:
114,72,15365,5,4,0:0:0:0:
182,67,15454,1,0,0:0:0:0:
244,98,15543,1,0,0:0:0:0:
280,157,15632,1,0,0:0:0:0:
281,226,15722,5,4,0:0:0:0:
289,192,15811,1,0,0:0:0:0:
296,158,15900,1,0,0:0:0:0:
304,124,15989,1,0,0:0:0:0:
312,90,16079,5,4,0:0:0:0:
235,93,16168,1,0,0:0:0:0:
177,145,16257,1,0,0:0:0:0:
165,221,16346,1,0,0:0:0:0:
204,288,16436,5,4,0:0:0:0:
239,290,16525,1,0,0:0:0:0:
273,293,16614,1,0,0:0:0:0:
308,295,16703,1,0,0:0:0:0:
343,298,16794,5,4,0:0:0:0:
308,238,16883,1,0,0:0:0:0:
247,207,16972,1,0,0:0:0:0:
178,215,17061,1,0,0:0:0:0:
125,260,17151,5,4,0:0:0:0:
122,225,17240,1,0,0:0:0:0:
118,190,17329,1,0,0:0:0:0:
114,155,17418,1,0,0:0:0:0:
111,121,17508,5,4,0:0:0:0:
159,156,17597,1,0,0:0:0:0:
220,161,17686,1,0,0:0:0:0:
273,132,17775,1,0,0:0:0:0:
303,79,17865,5,4,0:0:0:0:
268,74,17954,1,0,0:0:0:0:
234,68,18043,1,0,0:0:0:0:
199,62,18132,1,0,0:0:0:0:
164,57,18222,5,4,0:0:0:0:
213,37,18311,1,0,0:0:0:0:
265,38,18400,1,0,0:0:0:0:
311,61,18489,1,0,0:0:0:0:
344,101,18579,5,4,0:0:0:0:
346,125,18668,1,0,0:0:0:0:
348,148,18757,1,0,0:0:0:0:
350,171,18846,1,0,0:0:0:0:
326,208,18936,5,4,0:0:0:0:
327,231,19025,1,0,0:0:0:0:
329,254,19114,1,0,0:0:0:0:
331,277,19203,1,0,0:0:0:0:
306,313,19294,5,4,0:0:0:0:
254,344,19383,1,0,0:0:0:0:
193,346,19472,1,0,0:0:0:0:
140,318,19561,1,0,0:0:0:0:
108,267,19651,5,4,0:0:0:0:
131,254,19740,1,0,0:0:0:0:
156,247,19829,1,0,0:0:0:0:
182,246,19918,1,0,0:0:0:0:
208,251,20008,5,4,0:0:0:0:
188,193,20097,1,0,0:0:0:0:
143,153,20186,1,0,0:0:0:0:
83,142,20275,1,0,0:0:0:0:
26,163,20365,5,4,0:0:0:0:
55,181,20454,1,0,0:0:0:0:
90,185,20543,1,0,0:0:0:0:
123,174,20632,1,0,0:0:0:0:
147,150,20722,5,4,0:0:0:0:
112,209,20811,1,0,0:0:0:0:
116,278,20900,1,0,0:0:0:0:
158,332,20989,1,0,0:0:0:0:
224,353,21079,5,4,0:0:0:0:
220,318,21168,1,0,0:0:0:0:
205,287,21257,1,0,0:0:0:0:
181,261,21346,1,0,0:0:0:0:
150,244,21436,5,4,0:0:0:0:
194,191,21525,1,0,0:0:0:0:
258,164,21614,1,0,0:0:0:0:
327,168,21703,1,0,0:0:0:0:
387,204,21794,5,4,0:0:0:0:
347,220,21883,1,0,0:0:0:0:
304,213,21972,1,0,0:0:0:0:
271,185,22061,1,0,0:0:0:0:
256,145,22151,5,4,0:0:0:0:
331,123,22240,1,0,0:0:0:0:
404,149,22329,1,0,0:0:0:0:
448,213,22418,1,0,0:0:0:0:
447,290,22508,5,4,0:0:0:0:
404,236,22597,1,0,0:0:0:0:
342,204,22686,1,0,0:0:0:0:
273,202,22775,1,0,0:0:0:0:
208,228,22865,5,4,0:0:0:0:
266,211,22954,1,0,0:0:0:0:
325,225,23043,1,0,0:0:0:0:
369,267,23132,1,0,0:0:0:0:
388,324,23222,5,4,0:0:0:0:
351,288,23311,1,0,0:0:0:0:
301,274,23400,1,0,0:0:0:0:
250,285,23489,1,0,0:0:0:0:
210,319,23579,5,4,0:0:0:0:
252,332,23668,1,0,0:0:0:0:
295,328,23757,1,0,0:0:0:0:
333,307,23846,1,0,0:0:0:0:
358,272,23936,5,4,0:0:0:0:
363,306,24025,1,0,0:0:0:0:
382,335,24114,1,0,0:0:0:0:
412,353,24203,1,0,0:0:0:0:
447,356,24294,5,4,0:0:0:0:
434,333,24383,1,0,0:0:0:0:
416,313,24472,1,0,0:0:0:0:
395,299,24561,1,0,0:0:0:0:
370,289,24651,5,4,0:0:0:0:
384,278,24740,1,0,0:0:0:0:
400,271,24829,1,0,0:0:0:0:
417,268,24918,1,0,0:0:0:0:
434,266,25008,5,4,0:0:0:0:
399,226,25097,1,0,0:0:0:0:
353,202,25186,1,0,0:0:0:0:
301,196,25275,1,0,0:0:0:0:
251,209,25365,6,0,L|236:267,1,35,4|0,0:0|0:0,0:0:0:0:
133,247,25544,2,0,L|118:305,1,35,4|0,0:0|0:0,0:0:0:0:
32,203,25722,5,4,0:0:0:0:
25,151,25811,1,0,0:0:0:0:
43,102,25900,1,0,0:0:0:0:
82,67,25989,1,0,0:0:0:0:
132,54,26079,6,0,L|193:64,1,35,4|0,0:0|0:0,0:0:0:0:
280,125,26258,2,0,L|340:134,1,35,4|0,0:0|0:0,0:0:0:0:
437,90,26436,5,4,0:0:0:0:
460,136,26525,1,0,0:0:0:0:
457,188,26614,1,0,0:0:0:0:
429,231,26703,1,0,0:0:0:0:
382,254,26794,6,0,L|360:192,1,35,4|0,0:0|0:0,0:0:0:0:
223,232,26972,2,0,L|201:170,1,35,4|0,0:0|0:0,0:0:0:0:
64,210,27151,5,4,0:0:0:0:
78,260,27240,1,0,0:0:0:0:
112,299,27329,1,0,0:0:0:0:
159,321,27418,1,0,0:0:0:0:
211,320,27508,6,0,L|164:308,1,35,4|0,0:0|0:0,0:0:0:0:
393,279,27686,2,0,L|345:266,1,35,4|0,0:0|0:0,0:0:0:0:
511,132,27865,5,4,0:0:0:0:
463,81,27954,1,0,0:0:0:0:
397,61,28043,1,0,0:0:0:0:
329,75,28132,1,0,0:0:0:0:
277,120,28222,6,0,L|271:182,1,35,4|0,0:0|0:0,0:0:0:0:
258,308,28401,2,0,L|261:273,1,35,4|0,0:0|0:0,0:0:0:0:
206,353,28580,5,4,0:0:0:0:
138,367,28669,1,0,0:0:0:0:
72,347,28758,1,0,0:0:0:0:
25,296,28847,1,0,0:0:0:0:
16,226,28936,6,0,L|79:216,1,35,4|0,0:0|0:0,0:0:0:0:
258,179,29115,2,0,L|223:184,1,35,4|0,0:0|0:0,0:0:0:0:
309,224,29294,5,4,0:0:0:0:
377,236,29383,1,0,0:0:0:0:
442,212,29472,1,0,0:0:0:0:
485,157,29562,1,0,0:0:0:0:
493,88,29651,6,0,L|458:93,1,35
223,183,29829,2,0,L|286:173,1,35
331,276,30008,2,4,L|344:243,1,35,4|0,0:0|0:0,0:0:0:0:
384,0,30186,2,0,L|361:54,1,35
249,42,30365,2,4,L|271:70,1,35,4|0,0:0|0:0,0:0:0:0:
466,228,30543,2,0,L|426:179,1,35
272,69,30722,5,4,0:0:0:0:
243,104,30811,1,0,0:0:0:0:
238,150,30900,1,0,0:0:0:0:
260,190,30989,1,0,0:0:0:0:
353,234,31079,5,4,0:0:0:0:
381,269,31168,1,0,0:0:0:0:
386,315,31257,1,0,0:0:0:0:
364,355,31346,1,0,0:0:0:0:
272,318,31436,5,4,0:0:0:0:
250,278,31525,1,0,0:0:0:0:
255,232,31614,1,0,0:0:0:0:
283,197,31703,1,0,0:0:0:0:
375,153,31793,5,4,0:0:0:0:
397,113,31882,1,0,0:0:0:0:
392,67,31971,1,0,0:0:0:0:
364,32,32060,1,0,0:0:0:0:
310,122,32151,5,4,0:0:0:0:
254,137,32240,1,0,0:0:0:0:
200,116,32329,1,0,0:0:0:0:
169,68,32418,1,0,0:0:0:0:
254,26,32508,5,4,0:0:0:0:
310,11,32597,1,0,0:0:0:0:
364,32,32686,1,0,0:0:0:0:
395,80,32775,1,0,0:0:0:0:
412,178,32865,5,4,0:0:0:0:
356,193,32954,1,0,0:0:0:0:
302,172,33043,1,0,0:0:0:0:
271,124,33132,1,0,0:0:0:0:
356,82,33222,5,4,0:0:0:0:
412,67,33311,1,0,0:0:0:0:
466,88,33400,1,0,0:0:0:0:
497,136,33489,1,0,0:0:0:0:
459,237,33579,5,4,0:0:0:0:
400,242,33668,1,0,0:0:0:0:
342,248,33757,1,0,0:0:0:0:
284,253,33846,1,0,0:0:0:0:
398,253,33936,5,4,0:0:0:0:
339,258,34025,1,0,0:0:0:0:
281,264,34114,1,0,0:0:0:0:
223,269,34203,1,0,0:0:0:0:
337,269,34294,5,4,0:0:0:0:
278,274,34383,1,0,0:0:0:0:
220,280,34472,1,0,0:0:0:0:
162,285,34561,1,0,0:0:0:0:
276,285,34651,5,4,0:0:0:0:
217,290,34740,1,0,0:0:0:0:
159,296,34829,1,0,0:0:0:0:
101,301,34918,1,0,0:0:0:0:
63,141,35008,6,0,L|83:59,3,70,4|0|0|0,0:0|0:0|0:0|0:0,0:0:0:0:
191,166,35365,2,0,L|211:248,3,70,4|0|0|0,0:0|0:0|0:0|0:0,0:0:0:0:
312,111,35722,2,0,L|332:29,3,70,4|0|0|0,0:0|0:0|0:0|0:0,0:0:0:0:
440,136,36079,2,0,L|460:218,3,70,4|0|0|0,0:0|0:0|0:0|0:0,0:0:0:0:
256,340,36436,5,4,0:0:0:0:
90,53,36615,1,4,0:0:0:0:
423,52,36794,1,4,0:0:0:0:
90,331,37151,5,4,0:0:0:0:
256,44,37508,5,4,0:0:0:0:
423,332,37686,1,4,0:0:0:0:
256,340,38044,5,4,0:0:0:0:
90,53,38223,5,4,0:0:0:0:
423,52,38400,1,4,0:0:0:0:
256,340,38579,5,4,0:0:0:0:
256,44,38758,1,4,0:0:0:0:
423,332,39115,5,4,0:0:0:0:
90,331,39294,1,4,0:0:0:0:
256,44,39472,1,4,0:0:0:0:
499,227,39650,5,0,0:0:0:0:
481,148,39740,1,0,0:0:0:0:
441,89,39830,1,0,0:0:0:0:
388,60,39919,1,0,0:0:0:0:
338,52,40008,1,0,0:0:0:0:
299,62,40097,1,0,0:0:0:0:
273,80,40187,1,0,0:0:0:0:
259,95,40276,1,0,0:0:0:0:
256,112,40365,5,4,0:0:0:0:
256,240,40544,1,4,0:0:0:0:
256,368,40722,1,4,0:0:0:0:
48,16,41079,5,4,0:0:0:0:
464,16,41436,1,4,0:0:0:0:
256,16,41615,1,4,0:0:0:0:
256,368,41972,5,4,0:0:0:0:
137,281,42151,1,4,0:0:0:0:
182,141,42329,1,4,0:0:0:0:
329,141,42508,1,4,0:0:0:0:
374,281,42686,1,4,0:0:0:0:
480,176,43044,5,4,0:0:0:0:
256,288,43222,1,4,0:0:0:0:
32,176,43401,1,4,0:0:0:0:
32,176,43579,5,0,0:0:0:0:
99,221,43668,1,0,0:0:0:0:
168,237,43758,1,0,0:0:0:0:
227,222,43847,1,0,0:0:0:0:
269,194,43936,1,0,0:0:0:0:
290,160,44025,1,0,0:0:0:0:
297,129,44115,1,0,0:0:0:0:
297,108,44204,1,0,0:0:0:0:
291,83,44294,5,4,0:0:0:0:
280,108,44383,1,0,0:0:0:0:
277,139,44472,1,4,0:0:0:0:
282,173,44561,1,0,0:0:0:0:
304,204,44651,1,4,0:0:0:0:
338,228,44740,1,0,0:0:0:0:
382,235,44829,1,4,0:0:0:0:
431,231,44919,1,0,0:0:0:0:
479,210,45008,5,4,0:0:0:0:
450,162,45097,1,0,0:0:0:0:
406,122,45186,1,4,0:0:0:0:
346,100,45276,1,0,0:0:0:0:
280,96,45365,1,4,0:0:0:0:
211,105,45454,1,0,0:0:0:0:
151,148,45544,1,4,0:0:0:0:
117,217,45633,1,0,0:0:0:0:
104,296,45722,5,4,0:0:0:0:
185,314,45811,1,0,0:0:0:0:
272,300,45901,1,4,0:0:0:0:
355,264,45990,1,0,0:0:0:0:
422,203,46079,5,4,0:0:0:0:
342,151,46169,1,0,0:0:0:0:
249,118,46258,1,4,0:0:0:0:
148,104,46347,1,0,0:0:0:0:
41,112,46436,6,4,L|15:171,1,35
47,139,46526,2,4,L|28:200,1,35
72,179,46615,2,4,L|61:242,1,35
107,212,46704,2,4,L|103:276,1,35
157,236,46794,2,4,L|161:300,1,35
217,254,46883,2,4,L|229:317,1,35
285,269,46972,2,4,L|305:330,1,35
361,269,47061,2,4,L|398:327,1,35
448,243,47151,2,4,L|502:276,1,35
372,192,47240,2,4,L|432:170,1,35
278,164,47329,2,4,L|333:130,1,35
172,160,47419,2,4,L|218:115,1,35
66,195,47508,5,4,0:0:0:0:
256,192,47597,12,0,50365,0:0:0:0:
289,121,51794,5,0,0:0:0:0:
368,140,51913,5,0,0:0:0:0:
311,200,52032,5,0,0:0:0:0:
289,121,52151,5,0,0:0:0:0:
373,98,52270,5,0,0:0:0:0:
395,185,52389,5,0,0:0:0:0:
310,206,52508,5,0,0:0:0:0:
289,121,52627,5,0,0:0:0:0:
371,151,52746,5,0,0:0:0:0:
368,239,52865,5,0,0:0:0:0:
284,263,52984,5,0,0:0:0:0:
235,190,53103,5,0,0:0:0:0:
308,195,53222,5,0,0:0:0:0:
165,209,53936,5,0,0:0:0:0:
146,140,54651,5,0,0:0:0:0:
196,87,54770,5,0,0:0:0:0:
265,104,54889,5,0,0:0:0:0:
285,174,55008,5,0,0:0:0:0:
235,227,55127,5,0,0:0:0:0:
165,209,55246,5,0,0:0:0:0:
242,184,55365,5,0,0:0:0:0:
288,248,55484,5,0,0:0:0:0:
242,314,55603,5,0,0:0:0:0:
165,289,55722,5,0,0:0:0:0:
165,209,55841,5,0,0:0:0:0:
271,183,55960,5,0,0:0:0:0:
239,287,56079,5,0,0:0:0:0:
205,162,56436,5,0,0:0:0:0:
330,129,56794,5,0,0:0:0:0:
364,254,57151,5,0,0:0:0:0:
281,282,57508,5,0,0:0:0:0:
230,211,57627,5,0,0:0:0:0:
281,140,57746,5,0,0:0:0:0:
364,167,57865,5,0,0:0:0:0:
364,254,57984,5,0,0:0:0:0:
287,229,58103,5,0,0:0:0:0:
270,150,58222,5,0,0:0:0:0:
330,96,58341,5,0,0:0:0:0:
406,121,58460,5,0,0:0:0:0:
423,200,58579,5,0,0:0:0:0:
324,227,58697,5,0,0:0:0:0:
309,143,58816,5,0,0:0:0:0:
208,170,58934,5,0,0:0:0:0:
358,224,59651,5,0,0:0:0:0:
249,259,60364,5,0,0:0:0:0:
165,284,60483,5,0,0:0:0:0:
115,212,60602,5,0,0:0:0:0:
167,143,60721,5,0,0:0:0:0:
250,172,60840,5,0,0:0:0:0:
285,273,60959,5,0,0:0:0:0:
386,238,61078,5,0,0:0:0:0:
351,137,61197,5,0,0:0:0:0:
250,172,61316,5,0,0:0:0:0:
180,257,61435,5,0,0:0:0:0:
288,275,61554,5,0,0:0:0:0:
250,172,61674,5,0,0:0:0:0:
225,322,61793,5,0,0:0:0:0:
72,237,62507,5,0,0:0:0:0:
162,295,63221,5,4,0:0:0:0:
184,210,63310,1,4,0:0:0:0:
206,125,63399,1,4,0:0:0:0:
162,295,63578,1,0,0:0:0:0:
206,125,63756,1,0,0:0:0:0:
461,118,63935,5,4,0:0:0:0:
376,140,64024,1,4,0:0:0:0:
291,162,64113,1,4,0:0:0:0:
427,225,64292,5,4,0:0:0:0:
342,247,64381,1,4,0:0:0:0:
257,269,64470,1,4,0:0:0:0:
133,126,64650,5,4,0:0:0:0:
218,148,64739,1,4,0:0:0:0:
303,170,64828,1,4,0:0:0:0:
133,126,65007,1,0,0:0:0:0:
303,170,65185,1,0,0:0:0:0:
196,233,65364,5,0,0:0:0:0:
240,63,65542,1,0,0:0:0:0:
196,233,65721,1,4,0:0:0:0:
218,148,65810,1,4,0:0:0:0:
240,63,65899,1,4,0:0:0:0:
290,315,66078,5,4,0:0:0:0:
312,230,66167,1,4,0:0:0:0:
334,145,66256,1,4,0:0:0:0:
290,315,66435,1,0,0:0:0:0:
334,145,66613,1,0,0:0:0:0:
425,259,66793,5,0,0:0:0:0:
312,230,67060,1,0,0:0:0:0:
198,200,67328,1,0,0:0:0:0:
425,259,67508,1,4,0:0:0:0:
198,200,67685,1,4,0:0:0:0:
336,95,68221,5,4,0:0:0:0:
56,167,68400,1,4,0:0:0:0:
64,256,68935,6,0,P|160:304|320:288,1,210
352,240,69293,1,0,0:0:0:0:
224,272,69471,1,0,0:0:0:0:
128,176,69650,2,0,L|240:192,1,70
16,80,69918,2,0,L|128:96,1,70
272,32,70185,1,0,0:0:0:0:
384,80,70364,6,0,P|448:192|400:320,1,210
368,352,70721,1,0,0:0:0:0:
384,208,70900,1,0,0:0:0:0:
440,287,71078,1,0,0:0:0:0:
213,262,71257,1,0,0:0:0:0:
89,122,71435,2,0,L|54:205,1,70
214,20,71614,2,0,L|179:103,1,70
213,262,71793,6,0,P|285:304|427:288,1,210
479,153,72150,2,0,P|375:182|363:233,1,140
464,259,72507,1,0,0:0:0:0:
346,38,72685,1,0,0:0:0:0:
344,329,72864,1,0,0:0:0:0:
465,26,73042,1,0,0:0:0:0:
508,213,73221,6,0,B|450:234|450:234|248:181,1,210
175,118,73578,2,0,P|240:21|335:58,1,210
242,203,73935,2,0,L|226:283,1,70
188,49,74114,2,0,L|172:129,1,70
42,238,74292,2,0,P|151:295|264:234,1,210
355,166,74650,6,0,B|297:145|297:145|95:198,1,210
318,242,75007,2,0,P|422:229|439:158,1,140
356,163,75364,1,0,0:0:0:0:
413,347,75542,1,0,0:0:0:0:
453,238,75721,1,0,0:0:0:0:
130,335,75900,2,0,L|283:319,1,140
262,160,76257,6,0,P|288:225|276:271,1,70
390,246,76436,2,0,P|378:315|344:348,1,70
130,335,76614,2,0,P|141:265|175:232,1,70
64,195,76793,2,0,P|109:141|155:130,1,70
202,66,76971,2,0,L|396:92,2,140
103,310,77507,6,0,B|77:168|77:168|99:106,1,210
304,181,77864,2,0,P|251:253|157:218,1,140
229,47,78221,2,0,L|255:122,1,70
396,198,78489,2,0,L|422:273,1,70
76,327,78757,1,0,0:0:0:0:
344,309,78935,5,4,0:0:0:0:
0,243,79114,1,4,0:0:0:0:
344,309,79650,5,0,0:0:0:0:
496,221,80007,1,4,0:0:0:0:
70,302,80186,1,4,0:0:0:0:
206,354,80364,6,0,L|330:343,1,105
506,257,80721,2,0,L|401:266,1,105
226,220,81078,2,0,P|282:156|392:155,2,183.750001752377
337,250,81792,2,0,P|452:182|443:55,1,245
323,1,82507,2,0,L|357:179,1,157.500006008148
475,271,83221,2,0,L|332:249,1,140
252,302,84203,1,0,0:0:0:0:
93,247,84471,1,0,0:0:0:0:
42,101,84650,6,0,P|99:87|173:79,1,105.000004005432
120,195,85007,2,0,P|177:209|251:217,1,105.000004005432
312,119,85364,2,0,P|365:112|407:122,2,70
222,215,85721,1,0,0:0:0:0:
182,45,85900,1,0,0:0:0:0:
256,192,86078,12,0,87417,0:0:0:0:
362,158,87507,5,4,0:0:0:0:
392,199,87596,1,0,0:0:0:0:
394,251,87685,5,4,0:0:0:0:
361,191,87774,1,0,0:0:0:0:
296,168,87864,5,4,0:0:0:0:
332,227,87953,1,0,0:0:0:0:
322,294,88042,5,4,0:0:0:0:
255,339,88131,1,0,0:0:0:0:
186,355,88221,1,4,0:0:0:0:
127,340,88310,1,0,0:0:0:0:
85,312,88399,1,4,0:0:0:0:
64,278,88488,1,0,0:0:0:0:
57,247,88578,1,4,0:0:0:0:
57,226,88667,1,0,0:0:0:0:
63,201,88757,1,4,0:0:0:0:
83,173,88846,1,0,0:0:0:0:
121,149,88935,1,4,0:0:0:0:
176,138,89025,1,0,0:0:0:0:
234,187,89114,5,4,0:0:0:0:
315,207,89203,1,0,0:0:0:0:
402,182,89292,1,4,0:0:0:0:
308,151,89382,1,0,0:0:0:0:
206,174,89471,1,4,0:0:0:0:
114,237,89560,1,0,0:0:0:0:
70,344,89650,5,4,0:0:0:0:
121,336,89739,1,0,0:0:0:0:
165,309,89828,5,4,0:0:0:0:
97,311,89917,1,0,0:0:0:0:
48,264,90007,5,4,0:0:0:0:
130,282,90096,1,0,0:0:0:0:
194,227,90185,5,4,0:0:0:0:
212,148,90275,1,0,0:0:0:0:
252,89,90365,1,4,0:0:0:0:
305,60,90454,1,0,0:0:0:0:
355,52,90543,1,4,0:0:0:0:
394,62,90632,1,0,0:0:0:0:
420,80,90722,1,4,0:0:0:0:
434,95,90811,1,0,0:0:0:0:
437,112,90900,1,4,0:0:0:0:
435,129,90989,1,0,0:0:0:0:
394,119,91078,1,4,0:0:0:0:
350,90,91167,1,0,0:0:0:0:
372,149,91257,5,4,0:0:0:0:
434,186,91346,1,0,0:0:0:0:
512,214,91435,1,4,0:0:0:0:
431,249,91525,1,0,0:0:0:0:
337,247,91614,1,4,0:0:0:0:
245,207,91703,1,0,0:0:0:0:
180,122,91792,5,4,0:0:0:0:
213,83,91881,1,0,0:0:0:0:
264,70,91971,5,4,0:0:0:0:
223,126,92060,1,0,0:0:0:0:
217,195,92150,5,4,0:0:0:0:
259,121,92239,1,0,0:0:0:0:
340,91,92328,5,4,0:0:0:0:
336,172,92417,1,0,0:0:0:0:
309,237,92507,1,4,0:0:0:0:
262,276,92596,1,0,0:0:0:0:
214,293,92685,1,4,0:0:0:0:
174,290,92774,1,0,0:0:0:0:
146,277,92864,1,4,0:0:0:0:
128,266,92953,1,0,0:0:0:0:
155,251,93042,1,4,0:0:0:0:
196,241,93132,1,0,0:0:0:0:
244,244,93221,1,4,0:0:0:0:
298,266,93310,1,0,0:0:0:0:
342,320,93400,5,4,0:0:0:0:
265,327,93489,1,0,0:0:0:0:
183,307,93578,1,4,0:0:0:0:
272,293,93667,1,0,0:0:0:0:
363,255,93757,1,4,0:0:0:0:
437,181,93846,1,0,0:0:0:0:
475,76,93935,5,4,0:0:0:0:
411,49,94024,1,0,0:0:0:0:
344,64,94114,5,4,0:0:0:0:
417,108,94203,1,0,0:0:0:0:
444,189,94292,5,4,0:0:0:0:
360,128,94381,1,0,0:0:0:0:
257,118,94471,5,4,0:0:0:0:
177,133,94560,1,0,0:0:0:0:
117,171,94650,1,4,0:0:0:0:
86,223,94739,1,0,0:0:0:0:
76,272,94828,1,4,0:0:0:0:
85,311,94917,1,0,0:0:0:0:
102,338,95007,1,4,0:0:0:0:
117,353,95096,1,0,0:0:0:0:
148,350,95185,1,4,0:0:0:0:
184,329,95275,1,0,0:0:0:0:
233,313,95364,1,4,0:0:0:0:
295,303,95453,1,0,0:0:0:0:
365,321,95542,5,4,0:0:0:0:
292,359,95632,1,0,0:0:0:0:
205,347,95721,1,4,0:0:0:0:
123,301,95810,1,0,0:0:0:0:
79,207,95900,1,4,0:0:0:0:
77,99,95989,1,0,0:0:0:0:
167,176,96078,5,4,0:0:0:0:
217,188,96167,1,0,0:0:0:0:
268,177,96257,5,4,0:0:0:0:
200,173,96346,1,0,0:0:0:0:
160,118,96435,5,4,0:0:0:0:
239,149,96524,1,0,0:0:0:0:
317,113,96614,5,4,0:0:0:0:
225,75,96703,1,0,0:0:0:0:
138,73,96793,1,4,0:0:0:0:
72,106,96882,1,0,0:0:0:0:
29,150,96971,1,4,0:0:0:0:
10,197,97060,1,0,0:0:0:0:
13,233,97150,5,4,0:0:0:0:
33,279,97239,1,0,0:0:0:0:
71,314,97328,5,4,0:0:0:0:
51,249,97417,1,0,0:0:0:0:
83,190,97507,5,4,0:0:0:0:
88,272,97596,1,0,0:0:0:0:
137,338,97685,5,4,0:0:0:0:
228,376,97774,1,0,0:0:0:0:
316,378,97864,1,4,0:0:0:0:
381,344,97953,1,0,0:0:0:0:
425,301,98042,1,4,0:0:0:0:
443,254,98131,1,0,0:0:0:0:
441,217,98221,5,4,0:0:0:0:
379,187,98310,1,0,0:0:0:0:
312,204,98400,5,4,0:0:0:0:
374,146,98489,1,0,0:0:0:0:
458,157,98578,5,4,0:0:0:0:
372,99,98667,1,0,0:0:0:0:
269,103,98757,5,4,0:0:0:0:
274,200,98846,1,0,0:0:0:0:
246,283,98936,1,4,0:0:0:0:
192,333,99025,1,0,0:0:0:0:
137,360,99114,1,4,0:0:0:0:
87,361,99203,1,0,0:0:0:0:
47,325,99292,5,4,0:0:0:0:
98,279,99381,1,0,0:0:0:0:
167,276,99471,5,4,0:0:0:0:
91,238,99560,1,0,0:0:0:0:
14,272,99649,5,4,0:0:0:0:
80,192,99738,1,0,0:0:0:0:
180,168,99828,5,4,0:0:0:0:
271,201,99917,1,0,0:0:0:0:
358,198,100007,1,4,0:0:0:0:
422,161,100096,1,0,0:0:0:0:
464,116,100185,1,4,0:0:0:0:
479,69,100274,1,0,0:0:0:0:
464,23,100364,5,4,0:0:0:0:
490,66,100453,1,0,0:0:0:0:
487,118,100543,5,4,0:0:0:0:
446,62,100632,1,0,0:0:0:0:
383,35,100722,5,4,0:0:0:0:
440,98,100811,1,0,0:0:0:0:
444,184,100900,5,4,0:0:0:0:
359,100,100989,1,0,0:0:0:0:
253,92,101078,1,4,0:0:0:0:
163,119,101168,1,0,0:0:0:0:
106,175,101257,1,4,0:0:0:0:
76,235,101346,1,0,0:0:0:0:
73,289,101435,5,4,0:0:0:0:
138,268,101525,1,0,0:0:0:0:
176,210,101615,5,4,0:0:0:0:
170,295,101704,1,0,0:0:0:0:
101,344,101793,5,4,0:0:0:0:
203,328,101882,1,0,0:0:0:0:
276,255,101972,5,4,0:0:0:0:
171,239,102060,1,0,0:0:0:0:
91,189,102150,1,4,0:0:0:0:
50,120,102239,1,0,0:0:0:0:
37,55,102328,1,4,0:0:0:0:
48,2,102417,1,0,0:0:0:0:
66,46,102507,5,4,0:0:0:0:
122,84,102596,1,0,0:0:0:0:
190,78,102685,5,4,0:0:0:0:
128,136,102774,1,0,0:0:0:0:
44,128,102864,5,4,0:0:0:0:
124,192,102953,1,0,0:0:0:0:
227,185,103042,5,4,0:0:0:0:
130,154,103131,1,0,0:0:0:0:
44,209,103221,5,4,0:0:0:0:
127,188,103310,1,0,0:0:0:0:
197,236,103400,5,4,0:0:0:0:
129,230,103489,1,0,0:0:0:0:
74,271,103578,5,4,0:0:0:0:
88,295,103667,5,0,0:0:0:0:
118,314,103757,5,4,0:0:0:0:
160,325,103846,5,0,0:0:0:0:
209,314,103935,5,4,0:0:0:0:
256,282,104025,5,0,0:0:0:0:
295,245,104114,5,4,0:0:0:0:
250,192,104203,5,0,0:0:0:0:
171,162,104292,5,4,0:0:0:0:
88,174,104381,5,0,0:0:0:0:
35,249,104471,5,4,0:0:0:0:
7,358,104560,5,0,0:0:0:0:
28,348,104650,5,4,0:0:0:0:
57,365,104739,1,4,0:0:0:0:
91,349,104828,1,4,0:0:0:0:
123,367,104917,1,4,0:0:0:0:
154,347,105007,1,4,0:0:0:0:
188,357,105096,1,4,0:0:0:0:
216,331,105186,1,4,0:0:0:0:
251,341,105275,1,4,0:0:0:0:
272,310,105364,1,4,0:0:0:0:
308,316,105453,1,4,0:0:0:0:
312,276,105543,1,4,0:0:0:0:
348,276,105632,1,4,0:0:0:0:
335,237,105721,1,4,0:0:0:0:
372,228,105811,1,4,0:0:0:0:
347,194,105900,1,4,0:0:0:0:
384,180,105989,1,4,0:0:0:0:
347,152,106079,1,4,0:0:0:0:
380,132,106168,1,4,0:0:0:0:
337,112,106257,1,4,0:0:0:0:
364,92,106347,1,4,0:0:0:0:
320,76,106436,1,4,0:0:0:0:
340,56,106525,1,4,0:0:0:0:
288,52,106614,1,4,0:0:0:0:
304,32,106704,1,4,0:0:0:0:
248,44,106792,1,4,0:0:0:0:
260,24,106882,1,4,0:0:0:0:
208,44,106971,1,4,0:0:0:0:
216,24,107060,1,4,0:0:0:0:
168,52,107149,1,4,0:0:0:0:
176,32,107239,1,4,0:0:0:0:
129,66,107328,1,4,0:0:0:0:
129,43,107418,1,4,0:0:0:0:
95,87,107507,1,4,0:0:0:0:
92,66,107596,1,4,0:0:0:0:
65,114,107685,1,4,0:0:0:0:
61,93,107775,1,4,0:0:0:0:
50,146,107864,5,4,0:0:0:0:
256,192,107953,12,0,109917,0:0:0:0:
256,192,110007,5,4,0:0:0:0:
256,192,110096,12,0,113221,0:0:0:0:
