osu file format v14

[General]
AudioFilename: audio.mp3
AudioLeadIn: 0
PreviewTime: 50365
Countdown: 0
SampleSet: None
StackLeniency: 0.3
Mode: 0
LetterboxInBreaks: 0
WidescreenStoryboard: 1

[Editor]
Bookmarks: 1437,7151,12865,13579,19294,25008,30722,36436,39651,40276,50454,51794,53222,54651,56079,57508,58936,60365,61794,63222,68936,87507,96078,102507,104650,107864,110007,112150
DistanceSpacing: 3.4
BeatDivisor: 4
GridSize: 16
TimelineZoom: 3.759998

[Metadata]
Title:MENDES
TitleUnicode:MENDES
Artist:Humanoid
ArtistUnicode:Humanoid
Creator:purewhiteflame
Version:Easy
Source:beatmania IIDX
Tags:Alace Alazy Rokodo Roko-Don DeathStreams Yoshitaka IIDX15 DJTROOPERS Military Splash Extra Stage
BeatmapID:1632942
BeatmapSetID:767012

[Difficulty]
HPDrainRate:2
CircleSize:2
OverallDifficulty:2
ApproachRate:2
SliderMultiplier:0.6
SliderTickRate:4

[Events]
//Background and Video events
0,0,"3.jpg",0,0
//Break Periods
2,36278,38091
2,39851,42019
2,47707,50234
2,69135,84518
//Storyboard Layer 0 (Background)
//Storyboard Layer 1 (Fail)
//Storyboard Layer 2 (Pass)
//Storyboard Layer 3 (Foreground)
//Storyboard Sound Samples

[TimingPoints]
1437,357.142857142857,4,1,1,60,1,0
1437,-100,4,1,1,60,0,0
1526,-100,4,1,1,30,0,0
1794,-100,4,1,1,60,0,0
1883,-100,4,1,1,30,0,0
2151,-100,4,1,1,60,0,0
2240,-100,4,1,1,30,0,0
2508,-100,4,1,1,60,0,0
2597,-100,4,1,1,30,0,0
2865,-100,4,1,1,60,0,0
2954,-100,4,1,1,30,0,0
3222,-100,4,1,1,60,0,0
3311,-100,4,1,1,30,0,0
3579,-100,4,1,1,60,0,0
3669,-100,4,1,1,30,0,0
4294,-100,4,1,1,60,0,0
4383,-100,4,1,1,30,0,0
4651,-100,4,1,1,60,0,0
4740,-100,4,1,1,30,0,0
5008,-100,4,1,1,60,0,0
5097,-100,4,1,1,30,0,0
5365,-100,4,1,1,60,0,0
5454,-100,4,1,1,30,0,0
5722,-100,4,1,1,60,0,0
5811,-100,4,1,1,30,0,0
6079,-100,4,1,1,60,0,0
6169,-100,4,1,1,30,0,0
6436,-100,4,1,1,60,0,0
6526,-100,4,1,1,30,0,0
7151,-100,4,1,1,60,0,0
7240,-100,4,1,1,30,0,0
7508,-100,4,1,1,60,0,0
7597,-100,4,1,1,30,0,0
7865,-100,4,1,1,60,0,0
7954,-100,4,1,1,30,0,0
8222,-100,4,1,1,60,0,0
8311,-100,4,1,1,30,0,0
8579,-100,4,1,1,60,0,0
8669,-100,4,1,1,30,0,0
8936,-100,4,1,1,60,0,0
9026,-100,4,1,1,30,0,0
9294,-100,4,1,1,60,0,0
9383,-100,4,1,1,30,0,0
10008,-100,4,1,1,60,0,0
10097,-100,4,1,1,30,0,0
10365,-100,4,1,1,60,0,0
10454,-100,4,1,1,30,0,0
10722,-100,4,1,1,60,0,0
10811,-100,4,1,1,30,0,0
11079,-100,4,1,1,60,0,0
11169,-100,4,1,1,30,0,0
11436,-100,4,1,1,60,0,0
11526,-100,4,1,1,30,0,0
11794,-100,4,1,1,60,0,0
11883,-100,4,1,1,30,0,0
12151,-100,4,1,1,60,0,0
12240,-100,4,1,1,30,0,0
12508,-100,4,1,1,60,0,0
12597,-100,4,1,1,30,0,0
12865,-100,4,1,1,30,0,1
12954,-100,4,1,1,33,0,1
13044,-100,4,1,1,36,0,1
13133,-100,4,1,1,39,0,1
13222,-100,4,1,1,42,0,1
13311,-100,4,1,1,45,0,1
13401,-100,4,1,1,48,0,1
13490,-100,4,1,1,51,0,0
13579,-100,4,1,1,60,0,0
13669,-100,4,1,1,30,0,0
13936,-100,4,1,1,60,0,0
14026,-100,4,1,1,30,0,0
14293,-100,4,1,1,60,0,0
14383,-100,4,1,1,30,0,0
14651,-100,4,1,1,60,0,0
14740,-100,4,1,1,30,0,0
15008,-100,4,1,1,60,0,0
15097,-100,4,1,1,30,0,0
15365,-100,4,1,1,60,0,0
15454,-100,4,1,1,30,0,0
15722,-100,4,1,1,60,0,0
15811,-100,4,1,1,30,0,0
16079,-100,4,1,1,60,0,0
16168,-100,4,1,1,30,0,0
16436,-100,4,1,1,60,0,0
16526,-100,4,1,1,30,0,0
16793,-100,4,1,1,60,0,0
16883,-100,4,1,1,30,0,0
17151,-100,4,1,1,60,0,0
17240,-100,4,1,1,30,0,0
17508,-100,4,1,1,60,0,0
17597,-100,4,1,1,30,0,0
17865,-100,4,1,1,60,0,0
17954,-100,4,1,1,30,0,0
18222,-100,4,1,1,60,0,0
18311,-100,4,1,1,30,0,0
18579,-100,4,1,1,60,0,0
18668,-100,4,1,1,30,0,0
18936,-100,4,1,1,60,0,0
19026,-100,4,1,1,30,0,0
19293,-100,4,1,1,60,0,0
19383,-100,4,1,1,30,0,0
19650,-100,4,1,1,60,0,0
19740,-100,4,1,1,30,0,0
20008,-100,4,1,1,60,0,0
20097,-100,4,1,1,30,0,0
20365,-100,4,1,1,60,0,0
20454,-100,4,1,1,30,0,0
20722,-100,4,1,1,60,0,0
20811,-100,4,1,1,30,0,0
21079,-100,4,1,1,60,0,0
21168,-100,4,1,1,30,0,0
21436,-100,4,1,1,60,0,0
21525,-100,4,1,1,30,0,0
21793,-100,4,1,1,60,0,0
21883,-100,4,1,1,30,0,0
22150,-100,4,1,1,60,0,0
22240,-100,4,1,1,30,0,0
22508,-100,4,1,1,60,0,0
22597,-100,4,1,1,30,0,0
22865,-100,4,1,1,60,0,0
22954,-100,4,1,1,30,0,0
23222,-100,4,1,1,60,0,0
23311,-100,4,1,1,30,0,0
23579,-100,4,1,1,60,0,0
23668,-100,4,1,1,30,0,0
23936,-100,4,1,1,60,0,0
24025,-100,4,1,1,30,0,0
24293,-100,4,1,1,60,0,0
24383,-100,4,1,1,30,0,0
24650,-100,4,1,1,60,0,0
24740,-100,4,1,1,30,0,0
25008,-100,4,1,1,60,0,0
25097,-100,4,1,1,30,0,0
25722,-100,4,1,1,60,0,0
25811,-100,4,1,1,30,0,0
26436,-100,4,1,1,60,0,0
26525,-100,4,1,1,30,0,0
27150,-100,4,1,1,60,0,0
27240,-100,4,1,1,30,0,0
27865,-100,4,1,1,60,0,0
27954,-100,4,1,1,30,0,0
28579,-100,4,1,1,60,0,0
28668,-100,4,1,1,30,0,0
29293,-100,4,1,1,60,0,0
29383,-100,4,1,1,30,0,0
30008,-100,4,1,1,60,0,0
30097,-100,4,1,1,30,0,0
30365,-100,4,1,1,60,0,0
30454,-100,4,1,1,30,0,0
30722,-100,4,1,1,60,0,0
30811,-100,4,1,1,30,0,0
31079,-100,4,1,1,60,0,0
31168,-100,4,1,1,30,0,0
31436,-100,4,1,1,60,0,0
31525,-100,4,1,1,30,0,0
31793,-100,4,1,1,60,0,0
31883,-100,4,1,1,30,0,0
32150,-100,4,1,1,60,0,0
32240,-100,4,1,1,30,0,0
32508,-100,4,1,1,60,0,0
32597,-100,4,1,1,30,0,0
32865,-100,4,1,1,60,0,0
32954,-100,4,1,1,30,0,0
33222,-100,4,1,1,60,0,0
33311,-100,4,1,1,30,0,0
33579,-100,4,1,1,60,0,0
33668,-100,4,1,1,30,0,0
33936,-100,4,1,1,60,0,0
34025,-100,4,1,1,30,0,0
34293,-100,4,1,1,60,0,0
34383,-100,4,1,1,30,0,0
34650,-100,4,1,1,60,0,0
34740,-100,4,1,1,30,0,0
35008,-50,4,1,1,60,0,0
35097,-50,4,1,1,30,0,0
35365,-50,4,1,1,60,0,0
35454,-50,4,1,1,30,0,0
35722,-50,4,1,1,60,0,0
35811,-50,4,1,1,30,0,0
36079,-50,4,1,1,60,0,0
36168,-50,4,1,1,30,0,0
36436,-100,4,1,1,60,0,0
39650,-100,4,1,1,60,0,1
39740,-100,4,1,1,55,0,1
39829,-100,4,1,1,50,0,1
39918,-100,4,1,1,45,0,1
40008,-100,4,1,1,40,0,1
40097,-100,4,1,1,35,0,1
40186,-100,4,1,1,30,0,1
40275,-100,4,1,1,25,0,0
40365,-100,4,1,1,60,0,0
43579,-100,4,1,1,60,0,1
43668,-100,4,1,1,55,0,1
43758,-100,4,1,1,50,0,1
43847,-100,4,1,1,45,0,1
43936,-100,4,1,1,40,0,1
44025,-100,4,1,1,35,0,1
44115,-100,4,1,1,30,0,1
44204,-100,4,1,1,25,0,1
44294,-100,4,1,1,60,0,1
44383,-100,4,1,1,30,0,1
44472,-100,4,1,1,60,0,1
44561,-100,4,1,1,30,0,1
44650,-100,4,1,1,60,0,1
44740,-100,4,1,1,30,0,1
44829,-100,4,1,1,60,0,1
44918,-100,4,1,1,30,0,1
45008,-100,4,1,1,60,0,1
45097,-100,4,1,1,30,0,1
45186,-100,4,1,1,60,0,1
45275,-100,4,1,1,30,0,1
45365,-100,4,1,1,60,0,1
45454,-100,4,1,1,30,0,1
45543,-100,4,1,1,60,0,1
45633,-100,4,1,1,30,0,1
45722,-100,4,1,1,60,0,1
45811,-100,4,1,1,30,0,1
45900,-100,4,1,1,60,0,1
45990,-100,4,1,1,30,0,1
46079,-100,4,1,1,60,0,1
46168,-100,4,1,1,30,0,1
46258,-100,4,1,1,60,0,1
46347,-100,4,1,1,30,0,1
46436,-50,4,1,1,60,0,1
46481,-50,4,1,1,30,0,1
46525,-50,4,1,1,60,0,1
46570,-50,4,1,1,30,0,1
46615,-50,4,1,1,60,0,1
46659,-50,4,1,1,30,0,1
46704,-50,4,1,1,60,0,1
46749,-50,4,1,1,30,0,1
46793,-50,4,1,1,60,0,1
46838,-50,4,1,1,30,0,1
46883,-50,4,1,1,60,0,1
46927,-50,4,1,1,30,0,1
46972,-50,4,1,1,60,0,1
47017,-50,4,1,1,30,0,1
47061,-50,4,1,1,60,0,1
47106,-50,4,1,1,30,0,1
47150,-50,4,1,1,60,0,1
47195,-50,4,1,1,30,0,1
47240,-50,4,1,1,60,0,1
47284,-50,4,1,1,30,0,1
47329,-50,4,1,1,60,0,1
47374,-50,4,1,1,30,0,1
47418,-50,4,1,1,60,0,1
47463,-50,4,1,1,30,0,1
47508,-100,4,1,1,60,0,0
47597,-100,4,1,1,35,0,0
47686,-100,4,1,1,34,0,0
47775,-100,4,1,1,33,0,0
47865,-100,4,1,1,32,0,0
47954,-100,4,1,1,31,0,0
48043,-100,4,1,1,30,0,0
48133,-100,4,1,1,29,0,0
48222,-100,4,1,1,28,0,0
48312,-100,4,1,1,27,0,0
48401,-100,4,1,1,26,0,0
48490,-100,4,1,1,25,0,0
48579,-100,4,1,1,24,0,0
48669,-100,4,1,1,23,0,0
48758,-100,4,1,1,22,0,0
48847,-100,4,1,1,21,0,0
48937,-100,4,1,1,20,0,0
49026,-100,4,1,1,19,0,0
49115,-100,4,1,1,18,0,0
49204,-100,4,1,1,17,0,0
49294,-100,4,1,1,16,0,0
49383,-100,4,1,1,15,0,0
49472,-100,4,1,1,14,0,0
49562,-100,4,1,1,13,0,0
49651,-100,4,1,1,12,0,0
49740,-100,4,1,1,11,0,0
49829,-100,4,1,1,10,0,0
49919,-100,4,1,1,9,0,0
50008,-100,4,1,1,8,0,0
50097,-100,4,1,1,7,0,0
50187,-100,4,1,1,6,0,0
50276,-100,4,1,1,5,0,0
50365,-100,4,1,1,5,0,0
51793,476.190476190476,4,1,1,10,1,0
51794,-100,4,1,1,10,0,0
51913,-100,4,1,1,12,0,0
52032,-100,4,1,1,14,0,0
52151,-100,4,1,1,16,0,0
52270,-100,4,1,1,18,0,0
52389,-100,4,1,1,20,0,0
52508,-100,4,1,1,22,0,0
52627,-100,4,1,1,24,0,0
52746,-100,4,1,1,26,0,0
52865,-100,4,1,1,28,0,0
52984,-100,4,1,1,30,0,0
53103,-100,4,1,1,32,0,0
53222,-100,4,1,1,34,0,0
54651,-100,4,1,1,10,0,0
54770,-100,4,1,1,12,0,0
54889,-100,4,1,1,14,0,0
55008,-100,4,1,1,16,0,0
55127,-100,4,1,1,18,0,0
55246,-100,4,1,1,20,0,0
55365,-100,4,1,1,22,0,0
55484,-100,4,1,1,24,0,0
55603,-100,4,1,1,26,0,0
55722,-100,4,1,1,28,0,0
55841,-100,4,1,1,30,0,0
55960,-100,4,1,1,32,0,0
56079,-100,4,1,1,34,0,0
57508,-100,4,1,1,10,0,0
57627,-100,4,1,1,12,0,0
57746,-100,4,1,1,14,0,0
57865,-100,4,1,1,16,0,0
57984,-100,4,1,1,18,0,0
58103,-100,4,1,1,20,0,0
58222,-100,4,1,1,22,0,0
58341,-100,4,1,1,24,0,0
58460,-100,4,1,1,26,0,0
58579,-100,4,1,1,28,0,0
58698,-100,4,1,1,30,0,0
58817,-100,4,1,1,32,0,0
58936,-100,4,1,1,34,0,0
60365,-100,4,1,1,10,0,0
60484,-100,4,1,1,12,0,0
60603,-100,4,1,1,14,0,0
60722,-100,4,1,1,16,0,0
60841,-100,4,1,1,18,0,0
60960,-100,4,1,1,20,0,0
61079,-100,4,1,1,22,0,0
61198,-100,4,1,1,24,0,0
61317,-100,4,1,1,26,0,0
61436,-100,4,1,1,28,0,0
61555,-100,4,1,1,30,0,0
61674,-100,4,1,1,32,0,0
61793,-100,4,1,1,34,0,0
63221,357.142857142857,4,1,1,20,1,0
63222,-100,4,1,1,20,0,0
66792,-66.6666666666667,4,1,1,45,0,0
68935,-50,4,1,1,70,0,0
80364,-100,4,1,1,60,0,0
81078,-57.1428571428571,4,1,1,60,0,0
81792,-100,4,1,1,60,0,0
82507,-133.333333333333,4,1,1,60,0,0
83221,-200,4,1,1,60,0,0
84650,-66.6666666666667,4,1,1,60,0,0
85364,-50,4,1,1,60,0,0
86078,-100,4,1,1,16,0,0
86167,-100,4,1,1,15,0,0
86256,-100,4,1,1,14,0,0
86346,-100,4,1,1,13,0,0
86435,-100,4,1,1,12,0,0
86524,-100,4,1,1,11,0,0
86613,-100,4,1,1,10,0,0
86703,-100,4,1,1,9,0,0
86792,-100,4,1,1,16,0,0
86882,-100,4,1,1,24,0,0
86971,-100,4,1,1,32,0,0
87060,-100,4,1,1,40,0,0
87150,-100,4,1,1,48,0,0
87239,-100,4,1,1,56,0,0
87328,-100,4,1,1,64,0,0
87506,-66.6666666666667,4,2,1,60,0,1
87596,-100,4,3,1,30,0,1
87685,-100,4,2,1,60,0,1
87775,-100,4,3,1,30,0,1
87864,-100,4,2,1,60,0,1
87953,-100,4,3,1,30,0,1
88042,-100,4,3,1,60,0,1
88132,-100,4,3,1,30,0,1
88221,-100,4,3,1,60,0,1
88310,-100,4,3,1,30,0,1
88400,-100,4,3,1,60,0,1
88489,-100,4,3,1,30,0,1
88578,-66.6666666666667,4,3,1,60,0,1
88667,-100,4,3,1,30,0,1
88757,-100,4,3,1,60,0,1
88846,-100,4,3,1,30,0,1
88935,-100,4,3,1,60,0,1
89025,-100,4,3,1,30,0,1
89114,-100,4,3,1,60,0,1
89203,-100,4,3,1,30,0,1
89292,-100,4,3,1,60,0,1
89382,-100,4,3,1,30,0,1
89471,-100,4,3,1,60,0,1
89560,-100,4,3,1,30,0,1
89649,-66.6666666666667,4,2,1,60,0,1
89739,-100,4,3,1,30,0,1
89828,-100,4,2,1,60,0,1
89917,-100,4,3,1,30,0,1
90007,-100,4,2,1,60,0,1
90096,-100,4,3,1,30,0,1
90185,-100,4,3,1,60,0,1
90275,-100,4,3,1,30,0,1
90364,-100,4,3,1,60,0,1
90453,-100,4,3,1,30,0,1
90542,-100,4,3,1,60,0,1
90632,-100,4,3,1,30,0,1
90720,-66.6666666666667,4,3,1,60,0,1
90810,-100,4,3,1,30,0,1
90900,-100,4,3,1,60,0,1
90989,-100,4,3,1,30,0,1
91078,-100,4,3,1,60,0,1
91167,-100,4,3,1,30,0,1
91257,-100,4,3,1,60,0,1
91346,-100,4,3,1,30,0,1
91435,-100,4,3,1,60,0,1
91525,-100,4,3,1,30,0,1
91614,-100,4,3,1,60,0,1
91703,-100,4,3,1,30,0,1
91792,-66.6666666666667,4,2,1,60,0,1
91882,-100,4,3,1,30,0,1
91971,-100,4,2,1,60,0,1
92060,-100,4,3,1,30,0,1
92150,-100,4,2,1,60,0,1
92239,-100,4,3,1,30,0,1
92328,-100,4,3,1,60,0,1
92417,-100,4,3,1,30,0,1
92507,-100,4,3,1,60,0,1
92596,-100,4,3,1,30,0,1
92685,-100,4,3,1,60,0,1
92775,-100,4,3,1,30,0,1
92863,-66.6666666666667,4,3,1,60,0,1
92953,-100,4,3,1,30,0,1
93042,-100,4,3,1,60,0,1
93132,-100,4,3,1,30,0,1
93221,-100,4,3,1,60,0,1
93310,-100,4,3,1,30,0,1
93400,-100,4,3,1,60,0,1
93489,-100,4,3,1,30,0,1
93578,-100,4,3,1,60,0,1
93667,-100,4,3,1,30,0,1
93757,-100,4,3,1,60,0,1
93846,-100,4,3,1,30,0,1
93935,-66.6666666666667,4,2,1,60,0,1
94025,-100,4,3,1,30,0,1
94114,-100,4,2,1,60,0,1
94203,-100,4,3,1,30,0,1
94292,-100,4,2,1,60,0,1
94382,-100,4,3,1,30,0,1
94471,-100,4,3,1,60,0,1
94560,-100,4,3,1,30,0,1
94650,-100,4,3,1,60,0,1
94739,-100,4,3,1,30,0,1
94828,-100,4,3,1,60,0,1
94917,-100,4,3,1,30,0,1
95006,-66.6666666666667,4,3,1,60,0,1
95096,-100,4,3,1,30,0,1
95185,-100,4,3,1,60,0,1
95275,-100,4,3,1,30,0,1
95364,-100,4,3,1,60,0,1
95453,-100,4,3,1,30,0,1
95542,-100,4,3,1,60,0,1
95632,-100,4,3,1,30,0,1
95721,-100,4,3,1,60,0,1
95810,-100,4,3,1,30,0,1
95900,-100,4,3,1,60,0,1
95989,-100,4,3,1,30,0,1
96078,-66.6666666666667,4,2,1,60,0,1
96167,-100,4,3,1,30,0,1
96257,-100,4,2,1,60,0,1
96346,-100,4,3,1,30,0,1
96435,-100,4,2,1,60,0,1
96525,-100,4,3,1,30,0,1
96613,-66.6666666666667,4,3,1,60,0,1
96703,-100,4,3,1,30,0,1
96792,-100,4,3,1,60,0,1
96882,-100,4,3,1,30,0,1
96971,-100,4,3,1,60,0,1
97060,-100,4,3,1,30,0,1
97149,-66.6666666666667,4,2,1,60,0,1
97239,-100,4,3,1,30,0,1
97328,-100,4,2,1,60,0,1
97417,-100,4,3,1,30,0,1
97507,-100,4,2,1,60,0,1
97596,-100,4,3,1,30,0,1
97685,-66.6666666666667,4,3,1,60,0,1
97775,-100,4,3,1,30,0,1
97864,-100,4,3,1,60,0,1
97953,-100,4,3,1,30,0,1
98042,-100,4,3,1,60,0,1
98132,-100,4,3,1,30,0,1
98220,-66.6666666666667,4,2,1,60,0,1
98310,-100,4,3,1,30,0,1
98400,-100,4,2,1,60,0,1
98489,-100,4,3,1,30,0,1
98578,-100,4,2,1,60,0,1
98667,-100,4,3,1,30,0,1
98756,-66.6666666666667,4,3,1,60,0,1
98846,-100,4,3,1,30,0,1
98935,-100,4,3,1,60,0,1
99025,-100,4,3,1,30,0,1
99114,-100,4,3,1,60,0,1
99203,-100,4,3,1,30,0,1
99292,-66.6666666666667,4,2,1,60,0,1
99382,-100,4,3,1,30,0,1
99471,-100,4,2,1,60,0,1
99560,-100,4,3,1,30,0,1
99650,-100,4,2,1,60,0,1
99739,-100,4,3,1,30,0,1
99828,-66.6666666666667,4,3,1,60,0,1
99917,-100,4,3,1,30,0,1
100007,-100,4,3,1,60,0,1
100096,-100,4,3,1,30,0,1
100185,-100,4,3,1,60,0,1
100275,-100,4,3,1,30,0,1
100363,-66.6666666666667,4,2,1,60,0,1
100453,-100,4,3,1,30,0,1
100542,-100,4,2,1,60,0,1
100632,-100,4,3,1,30,0,1
100721,-100,4,2,1,60,0,1
100810,-66.6666666666667,4,3,1,30,0,1
100900,-100,4,3,1,60,0,1
100989,-100,4,3,1,30,0,1
101078,-100,4,3,1,60,0,1
101167,-100,4,3,1,30,0,1
101257,-100,4,3,1,60,0,1
101346,-100,4,3,1,30,0,1
101435,-66.6666666666667,4,2,1,60,0,1
101525,-100,4,3,1,30,0,1
101614,-100,4,2,1,60,0,1
101703,-100,4,3,1,30,0,1
101792,-100,4,2,1,60,0,1
101882,-100,4,3,1,30,0,1
101970,-66.6666666666667,4,3,1,60,0,1
102060,-100,4,3,1,30,0,1
102150,-100,4,3,1,60,0,1
102239,-100,4,3,1,30,0,1
102328,-100,4,3,1,60,0,1
102417,-100,4,3,1,30,0,1
102506,-66.6666666666667,4,2,1,60,0,1
102596,-100,4,3,1,30,0,1
102685,-100,4,2,1,60,0,1
102775,-100,4,3,1,30,0,1
102863,-66.6666666666667,4,2,1,60,0,1
102953,-100,4,3,1,30,0,1
103042,-100,4,2,1,60,0,1
103132,-100,4,3,1,30,0,1
103220,-66.6666666666667,4,2,1,60,0,1
103310,-100,4,3,1,30,0,1
103400,-100,4,2,1,60,0,1
103489,-100,4,3,1,30,0,1
103578,-66.6666666666667,4,2,1,60,0,1
103667,-100,4,3,1,30,0,1
103757,-100,4,2,1,60,0,1
103846,-100,4,3,1,30,0,1
103935,-66.6666666666667,4,2,1,60,0,1
104025,-100,4,3,1,30,0,1
104114,-100,4,2,1,60,0,1
104203,-100,4,3,1,30,0,1
104292,-66.6666666666667,4,2,1,60,0,1
104382,-100,4,3,1,30,0,1
104471,-100,4,2,1,60,0,1
104560,-100,4,3,1,30,0,1
104650,-100,4,1,1,5,0,0
104739,-100,4,1,1,6,0,0
104828,-100,4,1,1,7,0,0
104917,-100,4,1,1,8,0,0
105007,-100,4,1,1,9,0,0
105096,-100,4,1,1,10,0,0
105185,-100,4,1,1,11,0,0
105275,-100,4,1,1,12,0,0
105364,-100,4,1,1,13,0,0
105453,-100,4,1,1,14,0,0
105542,-100,4,1,1,15,0,0
105632,-100,4,1,1,16,0,0
105721,-100,4,1,1,17,0,0
105810,-100,4,1,1,18,0,0
105900,-100,4,1,1,19,0,0
105989,-100,4,1,1,20,0,0
106078,-100,4,1,1,21,0,0
106167,-100,4,1,1,22,0,0
106257,-100,4,1,1,23,0,0
106346,-100,4,1,1,24,0,0
106435,-100,4,1,1,25,0,0
106525,-100,4,1,1,26,0,0
106614,-100,4,1,1,27,0,0
106703,-100,4,1,1,28,0,0
106792,-100,4,1,1,29,0,0
106882,-100,4,1,1,30,0,0
106971,-100,4,1,1,31,0,0
107060,-100,4,1,1,32,0,0
107150,-100,4,1,1,33,0,0
107239,-100,4,1,1,34,0,0
107328,-100,4,1,1,35,0,0
107417,-100,4,1,1,36,0,0
107507,-100,4,1,1,37,0,0
107596,-100,4,1,1,38,0,0
107685,-100,4,1,1,39,0,0
107775,-100,4,1,1,40,0,0
107865,-100,4,1,1,55,0,0
109917,-100,4,1,1,5,0,0
110008,-100,4,1,1,28,0,0
110098,-100,4,1,1,27,0,0
110187,-100,4,1,1,26,0,0
110276,-100,4,1,1,25,0,0
110365,-100,4,1,1,24,0,0
110455,-100,4,1,1,23,0,0
110544,-100,4,1,1,22,0,0
110633,-100,4,1,1,21,0,0
110723,-100,4,1,1,20,0,0
110812,-100,4,1,1,19,0,0
110901,-100,4,1,1,18,0,0
110990,-100,4,1,1,17,0,0
111080,-100,4,1,1,16,0,0
111169,-100,4,1,1,15,0,0
111258,-100,4,1,1,14,0,0
111348,-100,4,1,1,13,0,0
111437,-100,4,1,1,12,0,0
111526,-100,4,1,1,11,0,0
111615,-100,4,1,1,10,0,0
111705,-100,4,1,1,9,0,0
111794,-100,4,1,1,8,0,0
111883,-100,4,1,1,7,0,0
111973,-100,4,1,1,6,0,0
112062,-100,4,1,1,5,0,0
112151,-1,4,1,1,4,0,0

[Colours]
Combo1 : 145,229,103
Combo2 : 255,213,128
Combo3 : 242,121,97
Combo4 : 255,140,179
Combo5 : 187,103,229
Combo6 : 140,236,255

[HitObjects]
64,96,1437,6,0,P|144:240|320:208,1,360
480,139,4294,2,0,L|240:107,1,240
119,217,6079,2,0,L|182:200,2,60
281,244,7151,6,0,P|201:100|25:132,1,360
76,228,9651,2,0,L|91:298,1,60
225,236,10722,2,0,L|240:306,1,60
374,244,11436,2,0,L|389:314,3,60
297,163,12865,5,0,0:0:0:0:
383,163,13579,6,0,P|289:248|326:82,1,420
297,163,16436,2,0,B|350:174|406:114|406:114|428:206|374:246|374:246|419:320|504:334,1,420
310,335,19294,2,0,B|259:334|220:304|220:304|235:395|235:395|96:359|132:207,1,420
92,108,22151,2,0,L|157:115,3,60
222,218,23579,2,0,L|287:225,3,60
262,384,25008,2,0,B|302:289|362:367|382:284|382:284|442:300|495:261|518:221|518:221|481:189|431:197,1,420
255,239,27865,2,0,B|243:166|120:117|120:117|140:176|140:176|64:168|4:73,1,420
236,69,30722,2,0,B|361:50|361:50|328:182|517:167|483:2,1,420
512,195,33579,2,0,L|505:254,3,60
362,237,35007,2,0,L|355:296,3,60
256,192,39651,5,0,0:0:0:0:
256,192,43579,5,0,0:0:0:0:
256,48,44294,6,0,L|288:48,3,30
256,144,45008,2,0,L|224:144,3,30
256,256,45722,2,0,L|288:256,3,30
256,352,46436,6,0,L|224:352,12,30
80,64,51794,6,0,L|272:48,1,180
256,48,53936,1,0,0:0:0:0:
416,160,54651,6,0,L|236:145,1,180
236,145,56793,1,0,0:0:0:0:
128,256,57508,6,0,L|320:240,1,180
304,240,59650,1,0,0:0:0:0:
464,352,60365,6,0,L|284:337,1,180
284,337,62507,1,0,0:0:0:0:
208,256,63221,5,0,0:0:0:0:
289,242,64292,1,0,0:0:0:0:
370,227,64649,1,0,0:0:0:0:
448,160,65363,6,0,L|432:96,2,60
368,224,66792,2,0,L|352:304,2,67.5000025749207
304,144,67506,1,0,0:0:0:0:
192,128,68221,1,0,0:0:0:0:
80,112,68935,1,0,0:0:0:0:
256,192,86078,12,0,87417,0:0:0:0:
192,80,87506,6,0,L|256:64,5,45.0000017166138
128,144,88578,2,0,L|64:128,5,45.0000017166138
224,192,89649,2,0,L|288:176,5,45.0000017166138
160,256,90721,2,0,L|96:240,5,45.0000017166138
256,272,91792,6,0,L|240:336,5,45.0000017166138
320,208,92864,2,0,L|304:144,5,45.0000017166138
368,304,93935,2,0,L|352:368,5,45.0000017166138
432,240,95007,2,0,L|416:176,5,45.0000017166138
336,64,96078,6,0,L|272:48,2,45.0000017166138
420,133,96613,2,0,L|464:144,2,45.0000017166138
304,160,97149,2,0,L|240:144,2,45.0000017166138
388,229,97685,2,0,L|431:239,2,45.0000017166138
288,288,98220,6,0,L|277:244,2,45.0000017166138
197,117,98756,2,0,L|207:160,2,45.0000017166138
192,321,99292,2,0,L|181:277,2,45.0000017166138
101,149,99828,2,0,L|111:192,2,45.0000017166138
192,96,100363,2,0,L|176:32,2,45.0000017166138
320,96,100899,2,0,L|336:32,2,45.0000017166138
144,208,101435,2,0,L|128:144,2,45.0000017166138
368,208,101971,2,0,L|384:144,2,45.0000017166138
192,336,102506,6,0,L|144:336,1,45.0000017166138
192,240,102863,2,0,L|144:240,1,45.0000017166138
192,144,103220,2,0,L|144:144,1,45.0000017166138
416,64,103578,6,0,L|464:64,1,45.0000017166138
416,192,103935,2,0,L|464:192,1,45.0000017166138
416,320,104292,2,0,L|464:320,1,45.0000017166138
256,192,104649,12,0,107863,0:0:0:0:
256,192,110006,12,0,113220,0:0:0:0:
