osu file format v14

[General]
AudioFilename: audio.mp3
AudioLeadIn: 0
PreviewTime: 50365
Countdown: 0
SampleSet: None
StackLeniency: 0.3
Mode: 0
LetterboxInBreaks: 0
WidescreenStoryboard: 1

[Editor]
Bookmarks: 1437,7151,12865,13579,19294,25008,30722,36436,39651,40276,50454,51794,53222,54651,56079,57508,58936,60365,61794,63222,68936,87507,96078,102507,104650,107864,110007,112150
DistanceSpacing: 3.4
BeatDivisor: 4
GridSize: 16
TimelineZoom: 3.759998

[Metadata]
Title:MENDES
TitleUnicode:MENDES
Artist:Humanoid
ArtistUnicode:Humanoid
Creator:purewhiteflame
Version:Normal
Source:beatmania IIDX
Tags:Alace Alazy Rokodo Roko-Don DeathStreams Yoshitaka IIDX15 DJTROOPERS Military Splash Extra Stage
BeatmapID:1615822
BeatmapSetID:767012

[Difficulty]
HPDrainRate:2
CircleSize:3
OverallDifficulty:2
ApproachRate:4
SliderMultiplier:1.4
SliderTickRate:1

[Events]
//Background and Video events
0,0,"3.jpg",0,0
//Break Periods
//Storyboard Layer 0 (Background)
//Storyboard Layer 1 (Fail)
//Storyboard Layer 2 (Pass)
//Storyboard Layer 3 (Foreground)
//Storyboard Sound Samples

[TimingPoints]
1437,357.142857142857,4,1,1,60,1,0
1437,-100,4,1,1,60,0,0
1526,-100,4,1,1,30,0,0
1794,-100,4,1,1,60,0,0
1883,-100,4,1,1,30,0,0
2151,-100,4,1,1,60,0,0
2240,-100,4,1,1,30,0,0
2508,-100,4,1,1,60,0,0
2597,-100,4,1,1,30,0,0
2865,-100,4,1,1,60,0,0
2954,-100,4,1,1,30,0,0
3222,-100,4,1,1,60,0,0
3311,-100,4,1,1,30,0,0
3579,-100,4,1,1,60,0,0
3669,-100,4,1,1,30,0,0
4294,-100,4,1,1,60,0,0
4383,-100,4,1,1,30,0,0
4651,-100,4,1,1,60,0,0
4740,-100,4,1,1,30,0,0
5008,-100,4,1,1,60,0,0
5097,-100,4,1,1,30,0,0
5365,-100,4,1,1,60,0,0
5454,-100,4,1,1,30,0,0
5722,-100,4,1,1,60,0,0
5811,-100,4,1,1,30,0,0
6079,-100,4,1,1,60,0,0
6169,-100,4,1,1,30,0,0
6436,-100,4,1,1,60,0,0
6526,-100,4,1,1,30,0,0
7151,-100,4,1,1,60,0,0
7240,-100,4,1,1,30,0,0
7508,-100,4,1,1,60,0,0
7597,-100,4,1,1,30,0,0
7865,-100,4,1,1,60,0,0
7954,-100,4,1,1,30,0,0
8222,-100,4,1,1,60,0,0
8311,-100,4,1,1,30,0,0
8579,-100,4,1,1,60,0,0
8669,-100,4,1,1,30,0,0
8936,-100,4,1,1,60,0,0
9026,-100,4,1,1,30,0,0
9294,-100,4,1,1,60,0,0
9383,-100,4,1,1,30,0,0
10008,-100,4,1,1,60,0,0
10097,-100,4,1,1,30,0,0
10365,-100,4,1,1,60,0,0
10454,-100,4,1,1,30,0,0
10722,-100,4,1,1,60,0,0
10811,-100,4,1,1,30,0,0
11079,-100,4,1,1,60,0,0
11169,-100,4,1,1,30,0,0
11436,-100,4,1,1,60,0,0
11526,-100,4,1,1,30,0,0
11794,-100,4,1,1,60,0,0
11883,-100,4,1,1,30,0,0
12151,-100,4,1,1,60,0,0
12240,-100,4,1,1,30,0,0
12508,-100,4,1,1,60,0,0
12597,-100,4,1,1,30,0,0
12865,-50,4,1,1,30,0,1
12954,-100,4,1,1,33,0,1
13044,-100,4,1,1,36,0,1
13133,-100,4,1,1,39,0,1
13222,-100,4,1,1,42,0,1
13311,-100,4,1,1,45,0,1
13401,-100,4,1,1,48,0,1
13490,-100,4,1,1,51,0,0
13579,-100,4,1,1,60,0,0
13669,-100,4,1,1,30,0,0
13936,-100,4,1,1,60,0,0
14026,-100,4,1,1,30,0,0
14293,-100,4,1,1,60,0,0
14383,-100,4,1,1,30,0,0
14651,-100,4,1,1,60,0,0
14740,-100,4,1,1,30,0,0
15008,-100,4,1,1,60,0,0
15097,-100,4,1,1,30,0,0
15365,-100,4,1,1,60,0,0
15454,-100,4,1,1,30,0,0
15722,-100,4,1,1,60,0,0
15811,-100,4,1,1,30,0,0
16079,-100,4,1,1,60,0,0
16168,-100,4,1,1,30,0,0
16436,-100,4,1,1,60,0,0
16526,-100,4,1,1,30,0,0
16793,-100,4,1,1,60,0,0
16883,-100,4,1,1,30,0,0
17151,-100,4,1,1,60,0,0
17240,-100,4,1,1,30,0,0
17508,-100,4,1,1,60,0,0
17597,-100,4,1,1,30,0,0
17865,-100,4,1,1,60,0,0
17954,-100,4,1,1,30,0,0
18222,-100,4,1,1,60,0,0
18311,-100,4,1,1,30,0,0
18579,-100,4,1,1,60,0,0
18668,-100,4,1,1,30,0,0
18936,-100,4,1,1,60,0,0
19026,-100,4,1,1,30,0,0
19293,-100,4,1,1,60,0,0
19383,-100,4,1,1,30,0,0
19650,-100,4,1,1,60,0,0
19740,-100,4,1,1,30,0,0
20008,-100,4,1,1,60,0,0
20097,-100,4,1,1,30,0,0
20365,-100,4,1,1,60,0,0
20454,-100,4,1,1,30,0,0
20722,-100,4,1,1,60,0,0
20811,-100,4,1,1,30,0,0
21079,-100,4,1,1,60,0,0
21168,-100,4,1,1,30,0,0
21436,-100,4,1,1,60,0,0
21525,-100,4,1,1,30,0,0
21793,-100,4,1,1,60,0,0
21883,-100,4,1,1,30,0,0
22150,-100,4,1,1,60,0,0
22240,-100,4,1,1,30,0,0
22508,-100,4,1,1,60,0,0
22597,-100,4,1,1,30,0,0
22865,-100,4,1,1,60,0,0
22954,-100,4,1,1,30,0,0
23222,-100,4,1,1,60,0,0
23311,-100,4,1,1,30,0,0
23579,-100,4,1,1,60,0,0
23668,-100,4,1,1,30,0,0
23936,-100,4,1,1,60,0,0
24025,-100,4,1,1,30,0,0
24293,-100,4,1,1,60,0,0
24383,-100,4,1,1,30,0,0
24650,-100,4,1,1,60,0,0
24740,-100,4,1,1,30,0,0
25008,-100,4,1,1,60,0,0
25097,-100,4,1,1,30,0,0
25722,-100,4,1,1,60,0,0
25811,-100,4,1,1,30,0,0
26436,-100,4,1,1,60,0,0
26525,-100,4,1,1,30,0,0
27150,-100,4,1,1,60,0,0
27240,-100,4,1,1,30,0,0
27865,-100,4,1,1,60,0,0
27954,-100,4,1,1,30,0,0
28579,-100,4,1,1,60,0,0
28668,-100,4,1,1,30,0,0
29293,-100,4,1,1,60,0,0
29383,-100,4,1,1,30,0,0
30008,-100,4,1,1,60,0,0
30097,-100,4,1,1,30,0,0
30365,-100,4,1,1,60,0,0
30454,-100,4,1,1,30,0,0
30722,-100,4,1,1,60,0,0
30811,-100,4,1,1,30,0,0
31079,-100,4,1,1,60,0,0
31168,-100,4,1,1,30,0,0
31436,-100,4,1,1,60,0,0
31525,-100,4,1,1,30,0,0
31793,-100,4,1,1,60,0,0
31883,-100,4,1,1,30,0,0
32150,-100,4,1,1,60,0,0
32240,-100,4,1,1,30,0,0
32508,-100,4,1,1,60,0,0
32597,-100,4,1,1,30,0,0
32865,-100,4,1,1,60,0,0
32954,-100,4,1,1,30,0,0
33222,-100,4,1,1,60,0,0
33311,-100,4,1,1,30,0,0
33579,-100,4,1,1,60,0,0
33668,-100,4,1,1,30,0,0
33936,-100,4,1,1,60,0,0
34025,-100,4,1,1,30,0,0
34293,-100,4,1,1,60,0,0
34383,-100,4,1,1,30,0,0
34650,-100,4,1,1,60,0,0
34740,-100,4,1,1,30,0,0
35008,-100,4,1,1,60,0,0
35097,-50,4,1,1,30,0,0
35365,-50,4,1,1,60,0,0
35454,-50,4,1,1,30,0,0
35722,-100,4,1,1,60,0,0
35811,-50,4,1,1,30,0,0
36079,-50,4,1,1,60,0,0
36168,-50,4,1,1,30,0,0
36436,-66.6666666666667,4,1,1,60,0,0
39650,-50,4,1,1,60,0,1
39740,-100,4,1,1,55,0,1
39829,-100,4,1,1,50,0,1
39918,-100,4,1,1,45,0,1
40008,-100,4,1,1,40,0,1
40097,-100,4,1,1,35,0,1
40186,-100,4,1,1,30,0,1
40275,-100,4,1,1,25,0,0
40365,-66.6666666666667,4,1,1,60,0,0
43579,-50,4,1,1,60,0,1
43668,-100,4,1,1,55,0,1
43758,-100,4,1,1,50,0,1
43847,-100,4,1,1,45,0,1
43936,-100,4,1,1,40,0,1
44025,-100,4,1,1,35,0,1
44115,-100,4,1,1,30,0,1
44204,-100,4,1,1,25,0,1
44294,-50,4,1,1,60,0,1
44383,-100,4,1,1,30,0,1
44472,-100,4,1,1,60,0,1
44561,-100,4,1,1,30,0,1
44650,-100,4,1,1,60,0,1
44740,-100,4,1,1,30,0,1
44829,-100,4,1,1,60,0,1
44918,-100,4,1,1,30,0,1
45008,-100,4,1,1,60,0,1
45097,-100,4,1,1,30,0,1
45186,-100,4,1,1,60,0,1
45275,-100,4,1,1,30,0,1
45365,-100,4,1,1,60,0,1
45454,-100,4,1,1,30,0,1
45543,-100,4,1,1,60,0,1
45633,-100,4,1,1,30,0,1
45722,-100,4,1,1,60,0,1
45811,-100,4,1,1,30,0,1
45900,-100,4,1,1,60,0,1
45990,-100,4,1,1,30,0,1
46079,-100,4,1,1,60,0,1
46168,-100,4,1,1,30,0,1
46258,-100,4,1,1,60,0,1
46347,-100,4,1,1,30,0,1
46436,-50,4,1,1,60,0,1
46481,-50,4,1,1,30,0,1
46525,-50,4,1,1,60,0,1
46570,-50,4,1,1,30,0,1
46615,-50,4,1,1,60,0,1
46659,-50,4,1,1,30,0,1
46704,-50,4,1,1,60,0,1
46749,-50,4,1,1,30,0,1
46793,-50,4,1,1,60,0,1
46838,-50,4,1,1,30,0,1
46883,-50,4,1,1,60,0,1
46927,-50,4,1,1,30,0,1
46972,-50,4,1,1,60,0,1
47017,-50,4,1,1,30,0,1
47061,-50,4,1,1,60,0,1
47106,-50,4,1,1,30,0,1
47150,-50,4,1,1,60,0,1
47195,-50,4,1,1,30,0,1
47240,-50,4,1,1,60,0,1
47284,-50,4,1,1,30,0,1
47329,-50,4,1,1,60,0,1
47374,-50,4,1,1,30,0,1
47418,-50,4,1,1,60,0,1
47463,-50,4,1,1,30,0,1
47508,-100,4,1,1,60,0,0
47597,-100,4,1,1,35,0,0
47686,-100,4,1,1,34,0,0
47775,-100,4,1,1,33,0,0
47865,-100,4,1,1,32,0,0
47954,-100,4,1,1,31,0,0
48043,-100,4,1,1,30,0,0
48133,-100,4,1,1,29,0,0
48222,-100,4,1,1,28,0,0
48312,-100,4,1,1,27,0,0
48401,-100,4,1,1,26,0,0
48490,-100,4,1,1,25,0,0
48579,-100,4,1,1,24,0,0
48669,-100,4,1,1,23,0,0
48758,-100,4,1,1,22,0,0
48847,-100,4,1,1,21,0,0
48937,-100,4,1,1,20,0,0
49026,-100,4,1,1,19,0,0
49115,-100,4,1,1,18,0,0
49204,-100,4,1,1,17,0,0
49294,-100,4,1,1,16,0,0
49383,-100,4,1,1,15,0,0
49472,-100,4,1,1,14,0,0
49562,-100,4,1,1,13,0,0
49651,-100,4,1,1,12,0,0
49740,-100,4,1,1,11,0,0
49829,-100,4,1,1,10,0,0
49919,-100,4,1,1,9,0,0
50008,-100,4,1,1,8,0,0
50097,-100,4,1,1,7,0,0
50187,-100,4,1,1,6,0,0
50276,-100,4,1,1,5,0,0
50365,-100,4,1,1,5,0,0
51793,357.142857142857,4,1,1,10,1,0
51794,-100,4,1,1,10,0,0
51913,-100,4,1,1,12,0,0
52032,-100,4,1,1,14,0,0
52151,-100,4,1,1,16,0,0
52270,-100,4,1,1,18,0,0
52389,-100,4,1,1,20,0,0
52508,-100,4,1,1,22,0,0
52627,-100,4,1,1,24,0,0
52746,-100,4,1,1,26,0,0
52865,-100,4,1,1,28,0,0
52984,-100,4,1,1,30,0,0
53103,-100,4,1,1,32,0,0
53222,-100,4,1,1,34,0,0
54651,-100,4,1,1,10,0,0
54770,-100,4,1,1,12,0,0
54889,-100,4,1,1,14,0,0
55008,-100,4,1,1,16,0,0
55127,-100,4,1,1,18,0,0
55246,-100,4,1,1,20,0,0
55365,-100,4,1,1,22,0,0
55484,-100,4,1,1,24,0,0
55603,-100,4,1,1,26,0,0
55722,-100,4,1,1,28,0,0
55841,-100,4,1,1,30,0,0
55960,-100,4,1,1,32,0,0
56079,-100,4,1,1,34,0,0
57508,-100,4,1,1,10,0,0
57627,-100,4,1,1,12,0,0
57746,-100,4,1,1,14,0,0
57865,-100,4,1,1,16,0,0
57984,-100,4,1,1,18,0,0
58103,-100,4,1,1,20,0,0
58222,-100,4,1,1,22,0,0
58341,-100,4,1,1,24,0,0
58460,-100,4,1,1,26,0,0
58579,-100,4,1,1,28,0,0
58698,-100,4,1,1,30,0,0
58817,-100,4,1,1,32,0,0
58936,-100,4,1,1,34,0,0
60365,-100,4,1,1,10,0,0
60484,-100,4,1,1,12,0,0
60603,-100,4,1,1,14,0,0
60722,-100,4,1,1,16,0,0
60841,-100,4,1,1,18,0,0
60960,-100,4,1,1,20,0,0
61079,-100,4,1,1,22,0,0
61198,-100,4,1,1,24,0,0
61317,-100,4,1,1,26,0,0
61436,-100,4,1,1,28,0,0
61555,-100,4,1,1,30,0,0
61674,-100,4,1,1,32,0,0
61793,-100,4,1,1,34,0,0
63222,-100,4,1,1,20,0,0
66793,-66.6666666666667,4,1,1,45,0,0
68935,-100,4,1,1,70,0,0
80364,-100,4,1,1,60,0,0
81078,-57.1428571428571,4,1,1,60,0,0
81792,-100,4,1,1,60,0,0
82507,-133.333333333333,4,1,1,60,0,0
83221,-200,4,1,1,60,0,0
84650,-133.333333333333,4,1,1,60,0,0
85364,-66.6666666666667,4,1,1,60,0,0
86078,-100,4,1,1,16,0,0
86167,-100,4,1,1,15,0,0
86256,-100,4,1,1,14,0,0
86346,-100,4,1,1,13,0,0
86435,-100,4,1,1,12,0,0
86524,-100,4,1,1,11,0,0
86613,-100,4,1,1,10,0,0
86703,-100,4,1,1,9,0,0
86792,-100,4,1,1,16,0,0
86882,-100,4,1,1,24,0,0
86971,-100,4,1,1,32,0,0
87060,-100,4,1,1,40,0,0
87150,-100,4,1,1,48,0,0
87239,-100,4,1,1,56,0,0
87328,-100,4,1,1,64,0,0
87507,-100,4,2,1,60,0,1
87596,-100,4,3,1,30,0,1
87685,-100,4,2,1,60,0,1
87775,-100,4,3,1,30,0,1
87864,-100,4,2,1,60,0,1
87953,-100,4,3,1,30,0,1
88042,-100,4,3,1,60,0,1
88132,-100,4,3,1,30,0,1
88221,-100,4,3,1,60,0,1
88310,-100,4,3,1,30,0,1
88400,-100,4,3,1,60,0,1
88489,-100,4,3,1,30,0,1
88578,-100,4,3,1,60,0,1
88667,-100,4,3,1,30,0,1
88757,-100,4,3,1,60,0,1
88846,-100,4,3,1,30,0,1
88935,-100,4,3,1,60,0,1
89025,-100,4,3,1,30,0,1
89114,-100,4,3,1,60,0,1
89203,-100,4,3,1,30,0,1
89292,-100,4,3,1,60,0,1
89382,-100,4,3,1,30,0,1
89471,-100,4,3,1,60,0,1
89560,-100,4,3,1,30,0,1
89650,-100,4,2,1,60,0,1
89739,-100,4,3,1,30,0,1
89828,-100,4,2,1,60,0,1
89917,-100,4,3,1,30,0,1
90007,-100,4,2,1,60,0,1
90096,-100,4,3,1,30,0,1
90185,-100,4,3,1,60,0,1
90275,-100,4,3,1,30,0,1
90364,-100,4,3,1,60,0,1
90453,-100,4,3,1,30,0,1
90542,-100,4,3,1,60,0,1
90632,-100,4,3,1,30,0,1
90721,-100,4,3,1,60,0,1
90810,-100,4,3,1,30,0,1
90900,-100,4,3,1,60,0,1
90989,-100,4,3,1,30,0,1
91078,-100,4,3,1,60,0,1
91167,-100,4,3,1,30,0,1
91257,-100,4,3,1,60,0,1
91346,-100,4,3,1,30,0,1
91435,-100,4,3,1,60,0,1
91525,-100,4,3,1,30,0,1
91614,-100,4,3,1,60,0,1
91703,-100,4,3,1,30,0,1
91792,-100,4,2,1,60,0,1
91882,-100,4,3,1,30,0,1
91971,-100,4,2,1,60,0,1
92060,-100,4,3,1,30,0,1
92150,-100,4,2,1,60,0,1
92239,-100,4,3,1,30,0,1
92328,-100,4,3,1,60,0,1
92417,-100,4,3,1,30,0,1
92507,-100,4,3,1,60,0,1
92596,-100,4,3,1,30,0,1
92685,-100,4,3,1,60,0,1
92775,-100,4,3,1,30,0,1
92864,-100,4,3,1,60,0,1
92953,-100,4,3,1,30,0,1
93042,-100,4,3,1,60,0,1
93132,-100,4,3,1,30,0,1
93221,-100,4,3,1,60,0,1
93310,-100,4,3,1,30,0,1
93400,-100,4,3,1,60,0,1
93489,-100,4,3,1,30,0,1
93578,-100,4,3,1,60,0,1
93667,-100,4,3,1,30,0,1
93757,-100,4,3,1,60,0,1
93846,-100,4,3,1,30,0,1
93935,-100,4,2,1,60,0,1
94025,-100,4,3,1,30,0,1
94114,-100,4,2,1,60,0,1
94203,-100,4,3,1,30,0,1
94292,-100,4,2,1,60,0,1
94382,-100,4,3,1,30,0,1
94471,-100,4,3,1,60,0,1
94560,-100,4,3,1,30,0,1
94650,-100,4,3,1,60,0,1
94739,-100,4,3,1,30,0,1
94828,-100,4,3,1,60,0,1
94917,-100,4,3,1,30,0,1
95007,-100,4,3,1,60,0,1
95096,-100,4,3,1,30,0,1
95185,-100,4,3,1,60,0,1
95275,-100,4,3,1,30,0,1
95364,-100,4,3,1,60,0,1
95453,-100,4,3,1,30,0,1
95542,-100,4,3,1,60,0,1
95632,-100,4,3,1,30,0,1
95721,-100,4,3,1,60,0,1
95810,-100,4,3,1,30,0,1
95900,-100,4,3,1,60,0,1
95989,-100,4,3,1,30,0,1
96079,-100,4,2,1,60,0,1
96167,-100,4,3,1,30,0,1
96257,-100,4,2,1,60,0,1
96346,-100,4,3,1,30,0,1
96435,-100,4,2,1,60,0,1
96525,-100,4,3,1,30,0,1
96614,-100,4,3,1,60,0,1
96703,-100,4,3,1,30,0,1
96792,-100,4,3,1,60,0,1
96882,-100,4,3,1,30,0,1
96971,-100,4,3,1,60,0,1
97060,-100,4,3,1,30,0,1
97150,-100,4,2,1,60,0,1
97239,-100,4,3,1,30,0,1
97328,-100,4,2,1,60,0,1
97417,-100,4,3,1,30,0,1
97507,-100,4,2,1,60,0,1
97596,-100,4,3,1,30,0,1
97685,-100,4,3,1,60,0,1
97775,-100,4,3,1,30,0,1
97864,-100,4,3,1,60,0,1
97953,-100,4,3,1,30,0,1
98042,-100,4,3,1,60,0,1
98132,-100,4,3,1,30,0,1
98221,-100,4,2,1,60,0,1
98310,-100,4,3,1,30,0,1
98400,-100,4,2,1,60,0,1
98489,-100,4,3,1,30,0,1
98578,-100,4,2,1,60,0,1
98667,-100,4,3,1,30,0,1
98757,-100,4,3,1,60,0,1
98846,-100,4,3,1,30,0,1
98935,-100,4,3,1,60,0,1
99025,-100,4,3,1,30,0,1
99114,-100,4,3,1,60,0,1
99203,-100,4,3,1,30,0,1
99292,-100,4,2,1,60,0,1
99382,-100,4,3,1,30,0,1
99471,-100,4,2,1,60,0,1
99560,-100,4,3,1,30,0,1
99650,-100,4,2,1,60,0,1
99739,-100,4,3,1,30,0,1
99828,-100,4,3,1,60,0,1
99917,-100,4,3,1,30,0,1
100007,-100,4,3,1,60,0,1
100096,-100,4,3,1,30,0,1
100185,-100,4,3,1,60,0,1
100275,-100,4,3,1,30,0,1
100364,-100,4,2,1,60,0,1
100453,-100,4,3,1,30,0,1
100542,-100,4,2,1,60,0,1
100632,-100,4,3,1,30,0,1
100721,-100,4,2,1,60,0,1
100810,-100,4,3,1,30,0,1
100900,-100,4,3,1,60,0,1
100989,-100,4,3,1,30,0,1
101078,-100,4,3,1,60,0,1
101167,-100,4,3,1,30,0,1
101257,-100,4,3,1,60,0,1
101346,-100,4,3,1,30,0,1
101435,-100,4,2,1,60,0,1
101525,-100,4,3,1,30,0,1
101614,-100,4,2,1,60,0,1
101703,-100,4,3,1,30,0,1
101792,-100,4,2,1,60,0,1
101882,-100,4,3,1,30,0,1
101971,-100,4,3,1,60,0,1
102060,-100,4,3,1,30,0,1
102150,-100,4,3,1,60,0,1
102239,-100,4,3,1,30,0,1
102328,-100,4,3,1,60,0,1
102417,-100,4,3,1,30,0,1
102507,-100,4,2,1,60,0,1
102596,-100,4,3,1,30,0,1
102685,-100,4,2,1,60,0,1
102775,-100,4,3,1,30,0,1
102864,-100,4,2,1,60,0,1
102953,-100,4,3,1,30,0,1
103042,-100,4,2,1,60,0,1
103132,-100,4,3,1,30,0,1
103221,-100,4,2,1,60,0,1
103310,-100,4,3,1,30,0,1
103400,-100,4,2,1,60,0,1
103489,-100,4,3,1,30,0,1
103578,-100,4,2,1,60,0,1
103667,-100,4,3,1,30,0,1
103757,-100,4,2,1,60,0,1
103846,-100,4,3,1,30,0,1
103935,-100,4,2,1,60,0,1
104025,-100,4,3,1,30,0,1
104114,-100,4,2,1,60,0,1
104203,-100,4,3,1,30,0,1
104292,-100,4,2,1,60,0,1
104382,-100,4,3,1,30,0,1
104471,-100,4,2,1,60,0,1
104560,-100,4,3,1,30,0,1
104650,-100,4,1,1,5,0,0
104739,-100,4,1,1,6,0,0
104828,-100,4,1,1,7,0,0
104917,-100,4,1,1,8,0,0
105007,-100,4,1,1,9,0,0
105096,-100,4,1,1,10,0,0
105185,-100,4,1,1,11,0,0
105275,-100,4,1,1,12,0,0
105364,-100,4,1,1,13,0,0
105453,-100,4,1,1,14,0,0
105542,-100,4,1,1,15,0,0
105632,-100,4,1,1,16,0,0
105721,-100,4,1,1,17,0,0
105810,-100,4,1,1,18,0,0
105900,-100,4,1,1,19,0,0
105989,-100,4,1,1,20,0,0
106078,-100,4,1,1,21,0,0
106167,-100,4,1,1,22,0,0
106257,-100,4,1,1,23,0,0
106346,-100,4,1,1,24,0,0
106435,-100,4,1,1,25,0,0
106525,-100,4,1,1,26,0,0
106614,-100,4,1,1,27,0,0
106703,-100,4,1,1,28,0,0
106792,-100,4,1,1,29,0,0
106882,-100,4,1,1,30,0,0
106971,-100,4,1,1,31,0,0
107060,-100,4,1,1,32,0,0
107150,-100,4,1,1,33,0,0
107239,-100,4,1,1,34,0,0
107328,-100,4,1,1,35,0,0
107417,-100,4,1,1,36,0,0
107507,-100,4,1,1,37,0,0
107596,-100,4,1,1,38,0,0
107685,-100,4,1,1,39,0,0
107775,-100,4,1,1,40,0,0
107865,-100,4,1,1,55,0,0
109917,-100,4,1,1,5,0,0
110008,-100,4,1,1,28,0,0
110098,-100,4,1,1,27,0,0
110187,-100,4,1,1,26,0,0
110276,-100,4,1,1,25,0,0
110365,-100,4,1,1,24,0,0
110455,-100,4,1,1,23,0,0
110544,-100,4,1,1,22,0,0
110633,-100,4,1,1,21,0,0
110723,-100,4,1,1,20,0,0
110812,-100,4,1,1,19,0,0
110901,-100,4,1,1,18,0,0
110990,-100,4,1,1,17,0,0
111080,-100,4,1,1,16,0,0
111169,-100,4,1,1,15,0,0
111258,-100,4,1,1,14,0,0
111348,-100,4,1,1,13,0,0
111437,-100,4,1,1,12,0,0
111526,-100,4,1,1,11,0,0
111615,-100,4,1,1,10,0,0
111705,-100,4,1,1,9,0,0
111794,-100,4,1,1,8,0,0
111883,-100,4,1,1,7,0,0
111973,-100,4,1,1,6,0,0
112062,-100,4,1,1,5,0,0
112151,-1,4,1,1,4,0,0

[Colours]
Combo1 : 145,229,103
Combo2 : 255,213,128
Combo3 : 242,121,97
Combo4 : 255,140,179
Combo5 : 187,103,229
Combo6 : 140,236,255

[HitObjects]
64,96,1437,6,0,P|144:64|208:96,5,140
176,256,3579,2,0,P|320:320|448:256,1,280
512,144,4651,2,0,L|352:160,2,140
112,112,5722,2,0,P|176:64|240:80,1,140
253,195,6436,2,0,P|320:201|371:156,1,140
144,80,7151,2,0,L|128:240,5,140
380,241,9294,2,0,P|236:177|108:241,1,280
64,352,10722,1,0,0:0:0:0:
192,192,11436,2,0,L|208:48,1,140
368,304,12151,2,0,L|384:160,1,140
207,52,12865,6,0,L|217:146,8,70
320,256,13936,2,0,P|384:288|480:288,2,140
368,80,15008,1,0,0:0:0:0:
256,160,15365,2,0,P|192:128|96:128,2,140
48,224,16436,1,0,0:0:0:0:
224,320,16794,2,0,P|336:336|384:320,2,140
208,96,17865,2,0,L|240:192,2,70
337,263,18579,2,0,L|369:359,4,70
409,112,19651,6,0,P|322:69|253:86,2,140
165,158,20722,1,0,0:0:0:0:
312,245,21079,2,0,L|475:207,2,140
254,16,22151,2,0,L|228:158,1,140
83,82,22865,2,0,L|109:224,1,140
374,178,23579,2,0,L|348:320,1,140
203,244,24294,2,0,L|229:386,1,140
443,275,25008,6,0,B|379:227|299:259,3,140
328,107,26436,2,0,B|264:155|184:123,3,140
68,72,27865,2,0,L|104:207,3,140
215,239,29294,2,0,L|233:306,2,70
337,126,30008,2,0,L|355:193,4,70
218,62,31079,2,0,L|57:89,2,140
177,181,32151,1,0,0:0:0:0:
313,147,32508,2,0,L|474:174,2,140
206,287,33579,2,0,L|344:263,1,140
95,126,34294,2,0,L|233:149,1,140
359,203,35008,2,0,L|497:179,1,140
248,42,35722,2,0,L|386:65,1,140
302,297,36436,6,0,L|419:297,2,105.000004005432
256,250,37151,1,0,0:0:0:0:
209,203,37508,2,0,L|80:203,1,105.000004005432
232,145,38044,1,0,0:0:0:0:
256,86,38222,2,0,L|384:86,3,105.000004005432
272,128,39115,2,0,L|143:128,2,105.000004005432
288,160,39651,2,0,L|368:160,7,70
305,193,40365,6,0,L|165:193,2,105.000004005432
292,253,41079,1,0,0:0:0:0:
330,279,41436,2,0,L|470:279,1,105.000004005432
394,202,41972,2,0,L|282:202,2,105.000004005432
355,125,42508,2,0,L|244:125,1,105.000004005432
202,49,43044,2,0,L|314:49,2,105.000004005432
160,80,43579,2,0,L|64:80,7,70
182,111,44294,2,0,P|262:111|262:111,36,70
256,192,47597,12,0,50454,0:0:0:0:
320,112,51794,6,0,L|384:128,12,46.6666666666667
400,272,53935,5,0,0:0:0:0:
224,320,54650,6,0,L|160:336,12,46.6666666666667
64,256,56435,6,0,P|64:176|96:112,2,140
176,192,57507,6,0,L|221:203,12,46.6666666666667
400,144,59650,1,0,0:0:0:0:
432,256,60364,6,0,L|448:304,12,46.6666666666667
288,352,62507,1,0,0:0:0:0:
151,322,63221,6,0,L|99:335,2,35
175,234,63578,2,0,L|242:218,1,70
311,296,63935,2,0,L|259:309,2,35
334,208,64292,2,0,L|402:191,1,70
249,118,64650,2,0,L|301:131,2,35
209,209,65007,2,0,L|261:222,2,35
118,144,65364,2,0,L|170:157,2,35
79,235,65721,2,0,L|131:248,2,35
216,309,66078,2,0,L|288:290,1,70
369,260,66435,2,0,L|440:241,1,70
365,155,66793,6,0,L|185:137,2,157.500006008148
99,226,67507,2,0,P|146:236|206:232,1,105.000004005432
262,162,68221,2,0,P|308:152|369:156,1,105.000004005432
458,215,68935,5,0,0:0:0:0:
315,268,69293,2,0,L|294:363,1,70
205,200,70364,2,0,L|120:179,3,70
82,99,71078,2,0,L|-3:120,3,70
155,22,71793,5,0,0:0:0:0:
298,75,72150,2,0,L|319:170,1,70
204,291,73221,6,0,P|124:280|57:222,3,140
14,156,74650,5,0,0:0:0:0:
157,103,75007,2,0,L|178:8,1,70
268,143,76078,2,0,L|353:122,3,70
391,42,76792,2,0,L|476:63,3,70
512,177,77507,5,0,0:0:0:0:
354,220,77864,2,0,L|333:315,1,70
214,262,78935,2,0,L|193:357,1,70
74,304,79650,2,0,L|53:399,2,70
17,144,80364,6,0,P|160:122|258:230,1,280
287,314,81792,1,0,0:0:0:0:
333,322,82507,1,0,0:0:0:0:
379,331,83221,1,0,0:0:0:0:
450,188,83935,6,0,L|389:200,2,52.5
335,94,84650,2,0,L|274:82,2,52.5
239,210,85364,2,0,L|178:222,2,52.5
316,287,85721,2,0,L|447:321,1,105.000004005432
256,192,86078,12,0,86792,0:0:0:0:
461,225,87507,5,4,0:0:0:0:
374,210,87685,1,4,0:0:0:0:
288,195,87864,1,4,0:0:0:0:
223,116,88042,6,0,L|218:73,16,35
282,186,89650,5,4,0:0:0:0:
195,200,89828,1,4,0:0:0:0:
109,215,90007,1,4,0:0:0:0:
44,295,90185,6,0,L|39:338,16,35
184,319,91792,5,4,0:0:0:0:
170,232,91971,1,4,0:0:0:0:
155,146,92150,1,4,0:0:0:0:
75,81,92328,6,0,L|32:76,16,35
167,27,93935,5,4,0:0:0:0:
181,114,94114,1,4,0:0:0:0:
196,200,94292,1,4,0:0:0:0:
276,265,94471,6,0,L|319:270,16,35
174,231,96078,5,4,0:0:0:0:
249,163,96257,1,4,0:0:0:0:
153,132,96435,1,4,0:0:0:0:
232,69,96614,6,0,L|280:57,16,35
344,137,98221,5,4,0:0:0:0:
419,205,98400,1,4,0:0:0:0:
323,236,98578,1,4,0:0:0:0:
402,299,98757,6,0,L|450:311,16,35
419,205,100364,5,4,0:0:0:0:
351,130,100542,1,4,0:0:0:0:
320,226,100721,1,4,0:0:0:0:
257,147,100900,6,0,L|245:99,16,35
224,16,102507,5,4,0:0:0:0:
310,28,102685,1,4,0:0:0:0:
397,41,102864,1,4,0:0:0:0:
416,66,103042,1,4,0:0:0:0:
329,53,103221,1,4,0:0:0:0:
242,40,103400,1,4,0:0:0:0:
272,128,103578,5,4,0:0:0:0:
185,141,103757,1,4,0:0:0:0:
98,154,103935,1,4,0:0:0:0:
80,178,104114,1,4,0:0:0:0:
166,166,104292,1,4,0:0:0:0:
253,153,104471,1,4,0:0:0:0:
256,192,104650,12,0,107864,0:0:0:0:
256,192,110007,12,0,113221,0:0:0:0:
